<?xml version="1.0" standalone="no"?>
<!DOCTYPE svg PUBLIC "-//W3C//DTD SVG 1.1//EN" "http://www.w3.org/Graphics/SVG/1.1/DTD/svg11.dtd" >
<svg xmlns="http://www.w3.org/2000/svg" xmlns:xlink="http://www.w3.org/1999/xlink" version="1.1">
<metadata>
Created by FontForge 20160405 at Mon Mar 12 13:49:49 2018
 By www-data
Copyright (c) 2007 by The Font Bureau, Inc.. All rights reserved.
</metadata>
<defs>
<font id="InterstateMazda-Bold" horiz-adv-x="1270" >
  <font-face 
    font-family="Interstate Mazda Regular"
    font-weight="700"
    font-stretch="normal"
    units-per-em="2048"
    panose-1="2 0 8 3 3 0 0 2 0 4"
    ascent="1638"
    descent="-410"
    x-height="1075"
    cap-height="1434"
    bbox="-514 -491 2837 2201"
    underline-thickness="41"
    underline-position="-312"
    unicode-range="U+0020-FB02"
  />
<missing-glyph horiz-adv-x="1024" 
 />
    <glyph glyph-name="fi" unicode="fi" horiz-adv-x="1321" 
d="M1194 1325q0 -33 -13 -62.5t-35 -51.5t-51.5 -35t-62.5 -13t-62.5 13t-51.5 35t-35 51.5t-13 62.5t13 62.5t35 51.5t51.5 35t62.5 13t62.5 -13t51.5 -35t35 -51.5t13 -62.5zM692 1229q-21 11 -44 16.5t-54 5.5q-63 0 -84 -20.5t-21 -65.5v-90h183v-266h-183v-809h-282
v809h-129v266h129v129q0 75 20.5 129t59.5 88t96 50t131 16q56 0 100 -8t78 -23v-227zM891 0v1075h283v-1075h-283z" />
    <glyph glyph-name="fl" unicode="fl" horiz-adv-x="1321" 
d="M891 0v1352l283 141v-1493h-283zM692 1229q-21 11 -44 16.5t-54 5.5q-63 0 -84 -20.5t-21 -65.5v-90h183v-266h-183v-809h-282v809h-129v266h129v129q0 75 20.5 129t59.5 88t96 50t131 16q57 0 100.5 -8t77.5 -23v-227z" />
    <glyph glyph-name=".notdef" horiz-adv-x="1024" 
 />
    <glyph glyph-name=".null" horiz-adv-x="0" 
 />
    <glyph glyph-name="nonmarkingreturn" horiz-adv-x="594" 
 />
    <glyph glyph-name="space" unicode=" " horiz-adv-x="594" 
 />
    <glyph glyph-name="space" unicode="&#xa0;" horiz-adv-x="594" 
 />
    <glyph glyph-name="exclam" unicode="!" horiz-adv-x="696" 
d="M444 451h-192l-47 393v590h287v-590zM522 152q0 -36 -14 -67.5t-38 -55.5t-55.5 -38t-66.5 -14t-66.5 14t-55.5 38t-38 55.5t-14 67.5q0 35 14 66.5t38 55.5t55.5 38t66.5 14t66.5 -14t55.5 -38t38 -55.5t14 -66.5z" />
    <glyph glyph-name="quotedbl" unicode="&#x22;" horiz-adv-x="1081" 
d="M893 764h-195l-71 670h338zM383 764h-195l-71 670h338z" />
    <glyph glyph-name="numbersign" unicode="#" 
d="M1001 311v-311h-243v311h-246v-311h-244v311h-182v213h182v385h-182v213h182v312h244v-312h246v312h243v-312h183v-213h-183v-385h183v-213h-183zM766 915h-260v-397h260v397z" />
    <glyph glyph-name="dollar" unicode="$" 
d="M1159 416q0 -86 -26.5 -155.5t-76.5 -121t-121 -84.5t-159 -47v-207h-287v203q-60 10 -112.5 25t-107 40t-100 53.5t-85.5 61.5l162 215q41 -33 88.5 -61.5t98 -49t101.5 -32.5t99 -12q115 0 173 37.5t58 115.5q0 33 -12.5 59t-44 49.5t-85 45.5t-136.5 47
q-123 37 -210.5 75t-143 87.5t-81.5 116t-26 159.5q0 78 25.5 143.5t73 115t115.5 83.5t153 49v205h284v-202q56 -8 105 -22t95.5 -35.5t82 -43.5t78.5 -55l-160 -217q-45 33 -87.5 58t-86 41.5t-89.5 25t-98 8.5q-54 0 -92 -10.5t-61.5 -29t-34 -43t-10.5 -52.5
q0 -31 11.5 -55t42 -46t84.5 -43.5t138 -46.5q127 -38 215.5 -78.5t144 -92.5t80.5 -119t25 -158z" />
    <glyph glyph-name="percent" unicode="%" 
d="M537 1063q0 -184 -66.5 -290.5t-177.5 -106.5q-109 0 -175.5 102.5t-66.5 290.5t68.5 292.5t177.5 104.5q110 0 175 -102.5t65 -290.5zM365 1059q0 125 -18.5 183t-53.5 58q-38 0 -54 -57.5t-16 -179.5q0 -126 19 -184t55 -58q37 0 52.5 58t15.5 180zM360 0h-165
l714 1434h166zM1219 375q0 -184 -66.5 -290.5t-177.5 -106.5q-109 0 -175.5 102.5t-66.5 290.5t68.5 292.5t177.5 104.5q110 0 175 -102.5t65 -290.5zM1047 371q0 125 -18.5 183t-53.5 58q-38 0 -54 -57.5t-16 -179.5q0 -126 19 -184t55 -58q37 0 52.5 58t15.5 180z" />
    <glyph glyph-name="ampersand" unicode="&#x26;" horiz-adv-x="1401" 
d="M750 1102q0 59 -32 82.5t-89 23.5q-27 0 -52 -6t-43.5 -20t-27 -33t-8.5 -43q0 -44 20.5 -79.5t52.5 -74.5l39 -43q41 26 68 50.5t43 47.5t22.5 46.5t6.5 48.5zM764 735l205 -233q11 23 44.5 99t55.5 138l231 -75q-31 -99 -68.5 -185.5t-92.5 -173.5l270 -305h-328
l-108 117q-92 -74 -194.5 -107t-223.5 -33q-111 0 -198 23.5t-148 71t-93 119t-32 167.5q0 75 19.5 135.5t57 110.5t92 90.5t124.5 75.5l-37 41q-33 38 -52.5 66.5t-37 63.5t-26.5 74.5t-9 84.5q0 92 34 159t92 110.5t135.5 64.5t164.5 22q69 0 134.5 -25t116 -71.5
t81.5 -111.5t31 -146q0 -208 -240 -367zM528 602q-84 -44 -120.5 -99.5t-36.5 -119.5q0 -36 14.5 -63.5t39 -46.5t64.5 -30.5t99 -11.5q69 0 123.5 16.5t97.5 47.5z" />
    <glyph glyph-name="quotesingle" unicode="'" horiz-adv-x="582" 
d="M393 764h-205l-71 670h348z" />
    <glyph glyph-name="parenleft" unicode="(" horiz-adv-x="758" 
d="M628 -225q-125 66 -207 125.5t-131.5 105.5t-101.5 109.5t-91.5 137.5t-63.5 161t-24 211q0 98 23 190t65 172t92.5 142t100 108.5t131.5 105t207 125.5l121 -131q-102 -74 -179.5 -148t-129.5 -158.5t-78.5 -183.5t-26.5 -222q0 -128 26.5 -228.5t78.5 -185
t129.5 -158.5t179.5 -147z" />
    <glyph glyph-name="parenright" unicode=")" horiz-adv-x="758" 
d="M748 631q0 -111 -23.5 -204.5t-65.5 -172.5t-91.5 -140.5t-99 -107.5t-131.5 -105.5t-207 -125.5l-121 131q102 73 179.5 147t129.5 158.5t78.5 185t26.5 228.5q0 123 -26.5 222t-78 183.5t-129.5 158.5t-180 148l121 131q128 -69 206.5 -125.5t130 -104t102 -109.5
t92.5 -140.5t64.5 -169t22.5 -188.5z" />
    <glyph glyph-name="asterisk" unicode="*" horiz-adv-x="1024" 
d="M899 926l-96 -160l-215 143l18 -260h-188l18 264l-219 -145l-92 160l252 114l-252 115l92 162l219 -148l-18 263h188l-18 -260l215 147l96 -162l-258 -115z" />
    <glyph glyph-name="plus" unicode="+" 
d="M778 569v-389h-286v389h-367v271h367v389h286v-389h367v-271h-367z" />
    <glyph glyph-name="comma" unicode="," horiz-adv-x="635" 
d="M342 -250h-199l29 604h342z" />
    <glyph glyph-name="hyphen" unicode="-" horiz-adv-x="834" 
d="M123 602v283h588v-283h-588z" />
    <glyph glyph-name="hyphen" unicode="&#xad;" horiz-adv-x="834" 
d="M123 602v283h588v-283h-588z" />
    <glyph glyph-name="period" unicode="." horiz-adv-x="635" 
d="M514 174q0 -42 -15 -78.5t-41.5 -62.5t-62.5 -41t-78 -15t-78 15t-62 41t-41 62.5t-15 78.5t15 78t41 62t62 40.5t78 14.5t78 -14.5t62.5 -40.5t41.5 -62t15 -78z" />
    <glyph glyph-name="slash" unicode="/" horiz-adv-x="963" 
d="M287 -184h-279l668 1802h278z" />
    <glyph glyph-name="zero" unicode="0" 
d="M1182 719q0 -181 -40 -319.5t-112.5 -232.5t-173.5 -142t-223 -48t-222 47.5t-172 140.5t-111.5 231t-39.5 319t40 319.5t112.5 232t173.5 141.5t223 48q121 0 221.5 -47.5t172.5 -140.5t111.5 -231t39.5 -318zM891 719q0 138 -20 232t-55 149.5t-81 81.5t-102 26
t-101.5 -26t-80 -81.5t-53.5 -149.5t-19 -232q0 -134 18.5 -228.5t52.5 -151t80 -85.5t107 -29q57 0 103 29t80 85.5t52.5 151t18.5 228.5z" />
    <glyph glyph-name="one" unicode="1" 
d="M203 0v233h329v816h-301v194q82 3 141 14.5t100 34t65.5 57.5t37.5 85h246v-1201h299v-233h-917z" />
    <glyph glyph-name="two" unicode="2" 
d="M100 0q6 160 43 278.5t102 210.5t156 164.5t205 139.5q71 43 115.5 75t69.5 61t34 57.5t9 64.5q0 74 -51.5 115.5t-151.5 41.5q-52 0 -98 -9t-88.5 -27.5t-84 -46t-84.5 -64.5l-157 194q53 45 108.5 82.5t118 63.5t134.5 40.5t157 14.5q111 0 200 -25t151 -74t95 -120.5
t33 -165.5q0 -73 -16 -130.5t-54.5 -109.5t-102.5 -101.5t-159 -106.5q-102 -63 -169 -113.5t-108.5 -94.5t-62 -85t-30.5 -84h712v-246h-1026z" />
    <glyph glyph-name="three" unicode="3" 
d="M1149 432q0 -113 -38 -198t-109.5 -142t-173.5 -86t-230 -29q-83 0 -157 16t-139.5 45t-121.5 69.5t-104 89.5l174 182q74 -71 161 -113.5t193 -42.5q135 0 198.5 53.5t63.5 151.5q0 48 -15 87t-47 63.5t-80.5 37.5t-115.5 13h-143v235h137q111 0 160 45t49 131
q0 39 -12.5 71t-39.5 55t-69.5 35.5t-103.5 12.5q-90 0 -163.5 -34.5t-139.5 -94.5l-160 183q40 37 89 71.5t107.5 60t127 41t147.5 15.5q111 0 203 -22.5t158.5 -69.5t103.5 -120t37 -173q0 -63 -15 -111.5t-41.5 -86t-62 -64.5t-76.5 -47q48 -13 93 -38.5t79.5 -65.5
t55 -96t20.5 -130z" />
    <glyph glyph-name="four" unicode="4" 
d="M1030 293v-293h-252v299h-704v209l676 926h280v-904h164v-237h-164zM778 1086l-397 -556h397v556z" />
    <glyph glyph-name="five" unicode="5" 
d="M1161 489q0 -126 -38.5 -221.5t-110.5 -160t-175 -97.5t-233 -33q-153 0 -275.5 49t-226.5 134l148 200q83 -65 175 -102t189 -37q73 0 124 18t81 50t47 78.5t17 111.5q0 116 -59 177t-175 61q-42 0 -76.5 -6.5t-64 -18t-55 -28t-50.5 -37.5l-249 80l45 727h886v-244
h-651l-20 -309q57 34 125.5 52.5t158.5 18.5q111 0 197 -30.5t145 -89.5t90 -145.5t31 -197.5z" />
    <glyph glyph-name="six" unicode="6" 
d="M1188 467q0 -118 -40 -209.5t-113 -153.5t-176 -94.5t-230 -32.5q-116 0 -214 34t-169 104.5t-110.5 177.5t-39.5 254q0 99 19.5 202.5t62.5 201.5t111.5 186t166.5 156t228 111.5t295 53.5l25 -237q-232 -19 -394.5 -123t-232.5 -301q31 25 67 46t78.5 36t94 23.5
t114.5 8.5q99 0 183 -27t144.5 -81.5t95 -138t34.5 -197.5zM907 449q0 57 -17 101.5t-51.5 74t-81.5 44.5t-110 15q-65 0 -116.5 -15t-87 -46.5t-53 -74t-17.5 -99.5q0 -53 17.5 -96.5t52 -74t84 -47t114.5 -16.5q67 0 117 16.5t83.5 48t49.5 73.5t16 96z" />
    <glyph glyph-name="seven" unicode="7" 
d="M1157 1206q-128 -134 -218.5 -267.5t-148 -278.5t-84.5 -307t-28 -353h-287q3 183 31.5 345.5t82.5 309t133 278.5t183 253h-725v248h1061v-228z" />
    <glyph glyph-name="eight" unicode="8" 
d="M1176 426q0 -108 -38 -191.5t-109 -140.5t-171.5 -87t-224.5 -30q-125 0 -224.5 29.5t-169.5 86.5t-107.5 140t-37.5 191q0 70 18 125t48.5 97.5t71 73t85.5 50.5q-36 19 -67.5 46t-54.5 62.5t-36.5 79.5t-13.5 97q0 90 34.5 164t98.5 126.5t155 81.5t204 29
q114 0 204 -28.5t153 -81t96.5 -126t33.5 -163.5q0 -53 -13 -96t-36 -77.5t-55 -61.5t-70 -48q45 -20 86 -50.5t72 -73.5t49.5 -98.5t18.5 -125.5zM852 1049q0 38 -12 72t-38.5 59.5t-68 40t-100.5 14.5t-100.5 -14.5t-67.5 -39t-37.5 -58t-11.5 -70.5q0 -39 13.5 -72
t41.5 -58t69 -39t97 -14q54 0 94 14t67 38.5t40.5 57t13.5 69.5zM901 428q0 47 -16 88.5t-50 72.5t-82.5 47.5t-119.5 16.5q-60 0 -111 -14t-85.5 -44.5t-52 -70.5t-17.5 -94q0 -53 17 -94t52.5 -71.5t85.5 -44t115 -13.5q72 0 120 15t80 44.5t48 69.5t16 92z" />
    <glyph glyph-name="nine" unicode="9" 
d="M895 985q0 53 -17.5 96t-52 74t-84.5 47.5t-114 16.5t-114.5 -16.5t-84 -47t-50 -73t-16.5 -97.5q0 -114 66 -174.5t199 -60.5q59 0 111.5 15.5t87.5 47t52 74t17 98.5zM1174 887q0 -100 -19.5 -203.5t-63 -201.5t-112 -186t-167 -156t-228.5 -111.5t-295 -53.5l-23 238
q253 25 404.5 128.5t220.5 295.5q-31 -26 -66 -47t-77.5 -36t-94 -23.5t-114.5 -8.5q-99 0 -183.5 27t-145.5 82t-95.5 138.5t-34.5 197.5q0 118 40 209t113.5 153.5t177 94.5t230.5 32q116 0 213.5 -34t168.5 -104t111 -177t40 -254z" />
    <glyph glyph-name="colon" unicode=":" horiz-adv-x="635" 
d="M510 905q0 -41 -15 -76t-41 -60.5t-61 -40.5t-76 -15t-76 15t-60.5 40.5t-40.5 60.5t-15 76q0 42 15 77t40.5 61t60.5 40.5t76 14.5t76 -14.5t61 -40.5t41 -61t15 -77zM510 170q0 -41 -15 -76t-41 -61t-61 -41t-76 -15t-76 15t-60.5 41t-40.5 61t-15 76t15 76t40.5 61
t60.5 40.5t76 14.5t76 -14.5t61 -40.5t41 -61t15 -76z" />
    <glyph glyph-name="semicolon" unicode=";" horiz-adv-x="635" 
d="M510 905q0 -41 -15 -76t-41 -60.5t-61 -40.5t-76 -15t-76.5 15t-61 40.5t-40 60.5t-14.5 76q0 42 14.5 77t40 61t61 40.5t76.5 14.5t76 -14.5t61 -40.5t41 -61t15 -77zM317 -246h-192l29 594h333z" />
    <glyph glyph-name="less" unicode="&#x3c;" 
d="M143 596v231l981 584v-315l-686 -381l686 -381v-322z" />
    <glyph glyph-name="equal" unicode="=" 
d="M143 821v273h983v-273h-983zM143 315v273h983v-273h-983z" />
    <glyph glyph-name="greater" unicode="&#x3e;" 
d="M145 12v316l686 381l-686 381v321l981 -584v-231z" />
    <glyph glyph-name="question" unicode="?" horiz-adv-x="1196" 
d="M1118 1038q0 -71 -18.5 -126t-48 -96t-66.5 -69.5t-74 -46.5q-65 -31 -106.5 -57t-66.5 -53.5t-35.5 -60.5t-12.5 -78h-280q0 73 12.5 133t45 110.5t88 94t142.5 83.5q39 18 64.5 34t40.5 33.5t21.5 38t6.5 48.5q0 77 -61.5 113.5t-181.5 36.5q-116 0 -206 -50.5
t-153 -121.5l-184 215q47 49 104 92t124.5 75.5t146 51t168.5 18.5q117 0 214.5 -25t167.5 -77t109 -130.5t39 -185.5zM725 152q0 -36 -14 -67.5t-38 -55.5t-55.5 -38t-66.5 -14t-66.5 14t-55.5 38t-38 55.5t-14 67.5q0 35 14 66.5t38 55.5t55.5 38t66.5 14t66.5 -14
t55.5 -38t38 -55.5t14 -66.5z" />
    <glyph glyph-name="at" unicode="@" horiz-adv-x="1712" 
d="M1595 737q0 -114 -23 -194.5t-64 -131t-98 -73.5t-124 -23q-47 0 -83 8t-64.5 22.5t-50.5 35.5t-41 47q-54 -61 -117.5 -88t-145.5 -27q-55 0 -108 17t-94.5 52t-67 88.5t-25.5 125.5q0 65 25 114t68.5 82t102 49.5t126.5 16.5q58 0 93 -11t67 -28v51q0 47 -29.5 79
t-91.5 32q-68 0 -118.5 -12.5t-100.5 -40.5l-76 135q68 41 136 60.5t159 19.5q71 0 130 -18.5t101.5 -53.5t66 -86.5t23.5 -118.5v-293q0 -67 33 -102t94 -35q47 0 81.5 19.5t56 61t31.5 96t10 126.5q0 122 -47 231t-130 191t-197 130t-247 48q-134 0 -248 -47
t-196.5 -129.5t-129 -196.5t-46.5 -247q0 -135 46.5 -249t129 -197t196.5 -130t248 -47q69 0 133 13t133 47l49 -109q-44 -20 -82 -33.5t-75 -21.5t-75.5 -11.5t-82.5 -3.5q-107 0 -203.5 25t-178.5 71.5t-148 113t-112.5 148.5t-71.5 178.5t-25 203.5t25 203.5t71.5 178.5
t112.5 148t148 112.5t178.5 71.5t203.5 25q109 0 206 -26t179 -73.5t148 -114t111.5 -146.5t70 -171t24.5 -188zM971 668q-37 21 -68.5 29t-85.5 8q-34 0 -57.5 -7.5t-40 -22t-24 -35.5t-7.5 -44q0 -50 33 -81.5t96 -31.5q27 0 50.5 6t44 18t35 26t24.5 30v105z" />
    <glyph glyph-name="A" unicode="A" horiz-adv-x="1536" 
d="M1454 0h-315l-113 319h-524l-113 -319h-307l549 1434h278zM928 592l-164 467l-164 -467h328z" />
    <glyph glyph-name="B" unicode="B" horiz-adv-x="1454" 
d="M1346 463q0 -222 -139 -342.5t-371 -120.5h-652v1434h658q104 0 188 -25t143 -73t91 -118.5t32 -162.5q0 -49 -10.5 -90t-31.5 -77t-46 -62t-63 -50q43 -19 80 -48t64 -68t42 -88.5t15 -108.5zM1006 1032q0 32 -9 56t-27.5 42t-53 28.5t-87.5 10.5h-364v-272h379
q45 0 75.5 10t50 27.5t28 42.5t8.5 55zM1051 459q0 48 -12.5 81t-35.5 55.5t-61.5 35t-95.5 12.5h-381v-371h381q55 0 94 13.5t64 41t36 60t11 72.5z" />
    <glyph glyph-name="C" unicode="C" horiz-adv-x="1372" 
d="M1004 1016q-24 46 -46 69t-54 43.5t-71 31.5t-92 11q-81 0 -143.5 -33.5t-106 -93.5t-66 -143.5t-22.5 -183.5q0 -97 23 -180t66.5 -144t106.5 -96t144 -35q88 0 152.5 38t128.5 144l242 -143q-37 -76 -88 -136t-117 -102t-147.5 -64t-178.5 -22q-98 0 -178.5 23.5
t-151.5 68.5t-126 110t-88 135t-57.5 171.5t-24.5 231.5q0 163 47 299t131 234t201 152t257 54q181 0 314 -78.5t211 -238.5z" />
    <glyph glyph-name="D" unicode="D" horiz-adv-x="1448" 
d="M1346 717q0 -126 -28.5 -228t-79.5 -182t-120.5 -137.5t-151 -95.5t-172 -56t-182.5 -18h-428v1434h449q153 0 284 -38.5t226 -123.5t149 -222t54 -333zM1051 717q0 110 -24.5 192t-76 137t-132.5 82t-195 27h-152v-876h141q113 0 195.5 31.5t136.5 89t80.5 138.5
t26.5 179z" />
    <glyph glyph-name="E" unicode="E" horiz-adv-x="1331" 
d="M1210 0h-1026v1434h996v-281h-709v-248h576v-278h-576v-346h739v-281z" />
    <glyph glyph-name="F" unicode="F" horiz-adv-x="1280" 
d="M471 1153v-270h432v-279h-432v-604h-287v1434h1026v-281h-739z" />
    <glyph glyph-name="G" unicode="G" horiz-adv-x="1430" 
d="M1311 555q0 -138 -43.5 -246t-120 -181.5t-182.5 -112t-230 -38.5q-141 0 -256 52t-197.5 148t-127.5 233t-45 307q0 163 47 299t131 234t201 152t257 54q215 0 346 -96.5t197 -261.5l-272 -113q-20 40 -43.5 74t-55.5 59t-75 39t-101 14q-81 0 -143.5 -33.5t-106 -93.5
t-66 -143.5t-22.5 -183.5q0 -99 23 -183t66.5 -145.5t106.5 -96t144 -34.5q122 0 191.5 48t87.5 155l2 14h-227v268h514v-188z" />
    <glyph glyph-name="H" unicode="H" horiz-adv-x="1530" 
d="M1059 0v602h-588v-602h-287v1434h287v-549h588v549h287v-1434h-287z" />
    <glyph glyph-name="I" unicode="I" horiz-adv-x="696" 
d="M205 0v1434h287v-1434h-287z" />
    <glyph glyph-name="J" unicode="J" horiz-adv-x="1331" 
d="M1157 598q0 -303 -140 -462t-403 -159q-107 0 -196 31t-158.5 87t-118 134t-75.5 172l280 76q24 -63 45.5 -97.5t54 -62.5t73.5 -41.5t95 -13.5q68 0 116.5 21.5t79.5 64.5t45.5 103t14.5 139v844h287v-836z" />
    <glyph glyph-name="K" unicode="K" horiz-adv-x="1475" 
d="M1434 0h-344l-390 692l-229 -270v-422h-287v1434h287v-623l510 623h346l-420 -496z" />
    <glyph glyph-name="L" unicode="L" 
d="M184 0v1434h287v-1151h719v-283h-1006z" />
    <glyph glyph-name="M" unicode="M" horiz-adv-x="1710" 
d="M1526 0h-287v816l-387 -849l-387 849v-816h-281v1434h277l397 -867l385 867h283v-1434z" />
    <glyph glyph-name="N" unicode="N" horiz-adv-x="1530" 
d="M1346 0h-256l-623 925v-925h-283v1434h275l604 -902v902h283v-1434z" />
    <glyph glyph-name="O" unicode="O" horiz-adv-x="1473" 
d="M1368 719q0 -174 -46.5 -311.5t-130 -233t-200 -146.5t-256.5 -51q-141 0 -257 50t-199 145t-129 232t-46 311t46.5 311.5t130.5 233t201 146t257 50.5t255.5 -50t198.5 -145t129 -231.5t46 -310.5zM1073 715q0 109 -25 194t-70 143t-107.5 88.5t-137.5 30.5t-137 -29.5
t-105.5 -87t-67.5 -142t-24 -193.5t25 -194t70 -143.5t107.5 -89t137.5 -30.5t137 30t105.5 87.5t67.5 142t24 193.5z" />
    <glyph glyph-name="P" unicode="P" horiz-adv-x="1393" 
d="M1305 979q0 -125 -39.5 -214t-109 -146t-164.5 -84t-206 -27h-315v-508h-287v1434h627q101 0 191 -28t157.5 -85t106.5 -142.5t39 -199.5zM1010 973q0 44 -13 78.5t-41.5 57.5t-67.5 34.5t-87 11.5h-330v-369h334q100 0 152.5 46.5t52.5 140.5z" />
    <glyph glyph-name="Q" unicode="Q" horiz-adv-x="1462" 
d="M1354 717q0 -90 -11.5 -166.5t-38 -149t-63 -130t-82.5 -105.5l107 -156l-219 -143l-103 149q-49 -20 -101 -29.5t-112 -9.5q-147 0 -262.5 54.5t-195.5 152t-122 233.5t-42 300q0 163 42 299t122 234t195.5 152t262.5 54t262.5 -54t195.5 -152t122.5 -234t42.5 -299z
M1059 717q0 96 -18.5 179t-58.5 144t-102 96t-149 35t-149 -35t-101.5 -96t-58.5 -144t-19 -179q0 -98 19.5 -183.5t60.5 -149t104 -100t150 -36.5q25 0 47 4l-96 143l219 144l92 -138q34 60 47 142.5t13 173.5z" />
    <glyph glyph-name="R" unicode="R" horiz-adv-x="1462" 
d="M1016 0l-256 516h-289v-516h-287v1434h668q101 0 191 -28t157.5 -85t106.5 -142.5t39 -199.5q0 -86 -18 -151t-53.5 -117t-84.5 -89t-119 -65l275 -557h-330zM1051 973q0 52 -15 86.5t-43.5 55.5t-65 30.5t-81.5 9.5h-375v-369h375q54 0 91.5 12.5t63 36t38 57.5t12.5 81
z" />
    <glyph glyph-name="S" unicode="S" horiz-adv-x="1354" 
d="M1235 434q0 -102 -33 -186t-102 -144.5t-175 -93.5t-253 -33q-90 0 -173 18.5t-155 52t-130.5 82t-98.5 108.5l207 184q75 -88 169 -126t197 -38q73 0 118 10.5t75.5 29t43.5 43.5t13 73q0 34 -12 60.5t-46.5 48.5t-97 42t-164.5 43q-99 23 -181.5 53t-141.5 78
t-92 119.5t-33 177.5q0 97 40 175t109.5 132.5t163 83.5t199.5 29q82 0 155.5 -14.5t144 -47.5t119.5 -70t103 -93l-207 -201q-41 42 -72 65t-71 42.5t-84 30t-98 10.5q-58 0 -97 -11.5t-63 -29.5t-34.5 -41t-10.5 -47q0 -34 13 -58t46 -42.5t88.5 -35t141.5 -36.5
q122 -29 203 -60.5t143 -80.5t97.5 -124t35.5 -178z" />
    <glyph glyph-name="T" unicode="T" horiz-adv-x="1294" 
d="M791 1151v-1151h-287v1151h-412v283h1110v-283h-411z" />
    <glyph glyph-name="U" unicode="U" horiz-adv-x="1509" 
d="M1335 633q0 -156 -39.5 -278t-114.5 -206t-183 -128t-244 -44q-130 0 -236.5 43t-183 126t-118.5 204.5t-42 278.5v805h287v-801q0 -174 79 -274.5t214 -100.5q136 0 215.5 100t79.5 271v805h286v-801z" />
    <glyph glyph-name="V" unicode="V" horiz-adv-x="1462" 
d="M1381 1434l-511 -1434h-278l-510 1434h317l338 -1036l330 1036h314z" />
    <glyph glyph-name="W" unicode="W" horiz-adv-x="1804" 
d="M1702 1434l-299 -1434h-281l-224 939l-228 -939h-268l-300 1434h300l159 -901l217 901h250l220 -901l159 901h295z" />
    <glyph glyph-name="X" unicode="X" horiz-adv-x="1438" 
d="M1346 0h-342l-285 483l-285 -483h-342l455 733l-434 701h342l264 -452l264 452h342l-436 -701z" />
    <glyph glyph-name="Y" unicode="Y" horiz-adv-x="1462" 
d="M1418 1434l-543 -867v-567h-287v561l-543 873h330l358 -600l359 600h326z" />
    <glyph glyph-name="Z" unicode="Z" horiz-adv-x="1409" 
d="M1270 0h-1131v254l770 917h-729v263h1080v-254l-762 -918h772v-262z" />
    <glyph glyph-name="bracketleft" unicode="[" horiz-adv-x="850" 
d="M195 -225v1659h526v-226h-250v-1208h250v-225h-526z" />
    <glyph glyph-name="backslash" unicode="\" horiz-adv-x="963" 
d="M676 -184l-668 1802h279l667 -1802h-278z" />
    <glyph glyph-name="bracketright" unicode="]" horiz-adv-x="850" 
d="M129 -225v225h250v1208h-250v226h526v-1659h-526z" />
    <glyph glyph-name="asciicircum" unicode="^" horiz-adv-x="1184" 
d="M797 782l-207 381l-207 -381h-287l383 652h226l382 -652h-290z" />
    <glyph glyph-name="underscore" unicode="_" horiz-adv-x="1024" 
d="M0 -383v236h1024v-236h-1024z" />
    <glyph glyph-name="grave" unicode="`" horiz-adv-x="1024" 
d="M502 1219l-297 327h358l178 -327h-239z" />
    <glyph glyph-name="a" unicode="a" horiz-adv-x="1139" 
d="M729 0v72q-19 -20 -43 -36.5t-58 -31t-69 -21t-72 -6.5q-75 0 -147 23.5t-128.5 70.5t-91 119t-34.5 170q0 89 34 156t93 111.5t138.5 67t170.5 22.5q75 0 124 -13t83 -30v53q0 60 -40 98.5t-114 38.5q-94 0 -153 -13.5t-141 -57.5l-109 196q102 60 193.5 84.5
t209.5 24.5q98 0 178.5 -25t138 -73t89 -118t31.5 -161v-721h-283zM729 451q-18 11 -37 19.5t-42 14t-51.5 8.5t-66.5 3q-80 0 -121.5 -35.5t-41.5 -100.5q0 -28 8.5 -54t28 -45.5t50.5 -31.5t76 -12q35 0 65.5 8t56 21.5t44.5 31.5t31 37v136z" />
    <glyph glyph-name="b" unicode="b" horiz-adv-x="1151" 
d="M1065 524q0 -120 -28 -220.5t-81.5 -173t-131 -113t-177.5 -40.5q-71 0 -130 24.5t-97 59.5v-61h-283v1352l283 141v-485q20 18 43.5 34t51.5 28.5t61 20t71 7.5q86 0 162 -33t133 -103t90 -178.5t33 -259.5zM778 518q0 156 -47 234.5t-137 78.5q-33 0 -58.5 -6.5
t-46 -18.5t-37.5 -28.5t-32 -36.5v-405q16 -22 32.5 -37.5t42.5 -29t53.5 -19.5t61.5 -6q82 0 125 69t43 205z" />
    <glyph glyph-name="c" unicode="c" horiz-adv-x="1100" 
d="M1026 217q-39 -52 -82.5 -96t-96.5 -76t-117 -50t-144 -18q-105 0 -197 41t-160.5 115t-107.5 177t-39 227q0 123 38.5 226.5t107.5 177.5t163.5 115.5t206.5 41.5q136 0 242 -59.5t184 -178.5l-186 -188q-24 34 -49.5 62t-54.5 48t-64 31.5t-78 11.5q-51 0 -92 -20.5
t-70 -58t-45 -90.5t-16 -119q0 -65 16 -117.5t45 -90.5t70 -58.5t92 -20.5q41 0 75.5 9t65 26.5t58 43t55.5 58.5z" />
    <glyph glyph-name="d" unicode="d" horiz-adv-x="1151" 
d="M727 0v68q-21 -19 -43 -33.5t-50 -29t-61 -21.5t-73 -7q-86 0 -162 33.5t-133 103.5t-90 178.5t-33 258.5q0 120 28 220.5t81 173t131 113t178 40.5q37 0 69 -6t63 -19.5t53.5 -27.5t41.5 -31v338l283 141v-1493h-283zM727 739q-16 22 -34 38t-41.5 28.5t-53 19
t-61.5 6.5q-82 0 -125 -69t-43 -205q0 -83 13 -142t37 -97t58 -56t76 -18q33 0 58.5 6.5t46 18.5t37.5 28.5t32 36.5v405z" />
    <glyph glyph-name="e" unicode="e" horiz-adv-x="1102" 
d="M1014 537q0 -31 -1 -53t-3 -38h-643q4 -55 24.5 -93.5t51 -62.5t68.5 -35t77 -11q29 0 54 4.5t50.5 15t45 24.5t34.5 31l201 -167q-32 -42 -76 -74.5t-95 -55t-105.5 -34t-108.5 -11.5q-89 0 -159.5 21.5t-123.5 57.5t-94 83.5t-69 106t-44 131t-16 160.5
q0 123 36.5 226.5t101 177.5t152 115.5t189.5 41.5q108 0 192 -44.5t142 -121t88.5 -178.5t30.5 -217zM739 659q-3 36 -15.5 71t-36 62t-58 43.5t-82.5 16.5q-39 0 -69.5 -15t-53 -41t-36 -61t-17.5 -76h368z" />
    <glyph glyph-name="f" unicode="f" horiz-adv-x="758" 
d="M692 1229q-21 11 -44 16.5t-54 5.5q-33 0 -54 -5.5t-31.5 -16.5t-15 -28t-4.5 -36v-90h183v-266h-183v-809h-282v809h-129v266h129v129q0 75 20.5 129t59.5 88t96 50t131 16q57 0 101 -8.5t77 -22.5v-227z" />
    <glyph glyph-name="g" unicode="g" horiz-adv-x="1151" 
d="M1010 166q0 -150 -34.5 -254.5t-101.5 -167.5q-62 -59 -154.5 -96t-223.5 -45l-84 225q94 8 155.5 23.5t94.5 39.5q30 22 47 61.5t18 108.5v7q-20 -18 -42.5 -33t-51 -29.5t-61 -21.5t-72.5 -7q-86 0 -162 33.5t-133 103.5t-90 178.5t-33 258.5q0 120 28 220.5t81 173
t131 113t178 40.5q34 0 67.5 -6t65 -19.5t53.5 -27.5t41 -31v61h283v-909zM553 244q58 0 99.5 22.5t74.5 67.5v405q-16 22 -32.5 37t-40.5 28t-53 20t-64 7q-82 0 -125 -69t-43 -205q0 -161 48.5 -237t135.5 -76z" />
    <glyph glyph-name="h" unicode="h" horiz-adv-x="1196" 
d="M786 0v582q0 128 -40.5 188.5t-141.5 60.5q-44 0 -78 -12t-57.5 -40t-36 -74.5t-12.5 -116.5v-588h-283v1352l283 141v-489q17 18 44 35.5t59 31t68.5 20.5t80.5 7q103 0 177.5 -34.5t123.5 -98t72.5 -154.5t23.5 -205v-606h-283z" />
    <glyph glyph-name="i" unicode="i" horiz-adv-x="578" 
d="M451 1325q0 -33 -13 -62.5t-35 -51.5t-51.5 -35t-62.5 -13t-62.5 13t-51.5 35t-35 51.5t-13 62.5t13 62.5t35 51.5t51.5 35t62.5 13t62.5 -13t51.5 -35t35 -51.5t13 -62.5zM147 0v1075h283v-1075h-283z" />
    <glyph glyph-name="j" unicode="j" horiz-adv-x="578" 
d="M451 1325q0 -33 -13 -62.5t-35 -51.5t-51.5 -35t-62.5 -13t-62.5 13t-51.5 35t-35 51.5t-13 62.5t13 62.5t35 51.5t51.5 35t62.5 13t62.5 -13t51.5 -35t35 -51.5t13 -62.5zM430 80q0 -113 -19.5 -194t-67.5 -136.5t-129.5 -90t-205.5 -54.5l-98 217q73 14 119 30.5
t72 43.5t36 68t10 104v1007h283v-995z" />
    <glyph glyph-name="k" unicode="k" horiz-adv-x="1128" 
d="M762 0l-205 496l-137 -170v-326h-283v1352l283 141v-786l285 368h333l-276 -342l309 -733h-309z" />
    <glyph glyph-name="l" unicode="l" horiz-adv-x="578" 
d="M147 0v1352l283 141v-1493h-283z" />
    <glyph glyph-name="m" unicode="m" horiz-adv-x="1804" 
d="M1395 0v582q0 72 -10.5 120t-32 76.5t-54 40.5t-75.5 12q-44 0 -76.5 -12t-54.5 -40t-32.5 -74.5t-10.5 -116.5v-588h-283v582q0 72 -10.5 120t-31.5 76.5t-53.5 40.5t-76.5 12t-76.5 -12t-54.5 -40t-32.5 -74.5t-10.5 -116.5v-588h-283v1075h283v-71q37 38 94 66t141 28
q105 0 171.5 -32t125.5 -105q28 28 59.5 53t72 43.5t92 29.5t118.5 11q103 0 176 -34.5t119 -98t67 -154.5t21 -205v-606h-282z" />
    <glyph glyph-name="n" unicode="n" horiz-adv-x="1196" 
d="M786 0v582q0 127 -40.5 188t-141.5 61q-44 0 -78 -12t-57.5 -40t-36 -74.5t-12.5 -116.5v-588h-283v1075h283v-71q18 18 43.5 35t59.5 31.5t71.5 21t77.5 6.5q103 0 177.5 -34.5t123.5 -98t72.5 -154.5t23.5 -205v-606h-283z" />
    <glyph glyph-name="o" unicode="o" horiz-adv-x="1137" 
d="M1055 537q0 -124 -36.5 -227t-102 -177t-155 -115t-194.5 -41t-194 41t-153.5 115t-101 177t-36.5 227q0 123 36.5 226.5t101 177.5t153.5 115.5t194 41.5t194.5 -41.5t155 -115.5t102 -177.5t36.5 -226.5zM768 537q0 61 -12.5 113.5t-37.5 91.5t-62.5 61t-88.5 22
t-88 -22t-61.5 -60.5t-36.5 -91t-12 -114.5t12 -115t36.5 -91t61.5 -59.5t88 -21.5t88.5 23.5t62.5 63.5t37.5 92t12.5 108z" />
    <glyph glyph-name="p" unicode="p" horiz-adv-x="1151" 
d="M1065 524q0 -120 -28 -220.5t-81.5 -173t-131 -113t-177.5 -40.5q-71 0 -130 24.5t-97 59.5v-315l-283 -141v1470h283v-67q47 43 104 66.5t123 23.5q86 0 162 -33t133 -103t90 -178.5t33 -259.5zM778 518q0 153 -46.5 233t-137.5 80q-57 0 -97.5 -21t-76.5 -69v-405
q18 -24 36.5 -40t42.5 -28t52 -18t59 -6q82 0 125 69t43 205z" />
    <glyph glyph-name="q" unicode="q" horiz-adv-x="1151" 
d="M727 -395v463q-40 -36 -95 -63.5t-132 -27.5q-86 0 -162 33.5t-133 103.5t-90 178.5t-33 258.5q0 120 28 220.5t81 173t131 113t178 40.5q38 0 70.5 -6.5t64 -20t54 -28t38.5 -29.5v61h283v-1329zM727 739q-14 20 -34 38t-47.5 31t-54 18t-54.5 5q-82 0 -125 -69
t-43 -205q0 -153 46.5 -233t137.5 -80q55 0 96 20.5t78 69.5v405z" />
    <glyph glyph-name="r" unicode="r" horiz-adv-x="877" 
d="M766 745q-34 31 -75 50.5t-89 19.5q-100 0 -141 -57.5t-41 -175.5v-582h-283v1075h283v-71q17 18 40.5 35t52 31.5t61.5 21t67 6.5q69 0 120 -23.5t79 -52.5z" />
    <glyph glyph-name="s" unicode="s" horiz-adv-x="1100" 
d="M954 993l-90 -223q-80 43 -162.5 64.5t-150.5 21.5q-75 0 -110 -14.5t-35 -55.5q0 -17 8 -30t32 -26t67.5 -29t115.5 -39q72 -24 137 -51.5t114 -66.5t78 -94.5t29 -136.5q0 -93 -34.5 -157t-94 -103.5t-139 -57.5t-170.5 -18q-123 0 -242 33.5t-209 91.5l95 215
q86 -48 177.5 -73t194.5 -25q80 0 112 19.5t32 62.5q0 18 -8 32.5t-26.5 27t-48.5 24.5t-75 25q-97 29 -175 58t-133.5 69.5t-85.5 98t-30 142.5q0 84 31.5 144.5t88.5 99.5t136 57.5t174 18.5q102 0 206.5 -28.5t190.5 -76.5z" />
    <glyph glyph-name="t" unicode="t" horiz-adv-x="905" 
d="M737 43q-35 -28 -94 -47t-125 -19q-65 0 -118 24t-90.5 67.5t-58 102.5t-20.5 130v508h-180v266h180v277l283 141v-418h258v-266h-258v-432q0 -39 7 -64t20 -39.5t32.5 -20t44.5 -5.5q38 0 74.5 19t85.5 63z" />
    <glyph glyph-name="u" unicode="u" horiz-adv-x="1196" 
d="M776 0v72q-37 -39 -102 -67t-150 -28q-194 0 -295.5 125t-101.5 367v606h283v-581q0 -130 41 -190t141 -60q101 0 142.5 61.5t41.5 181.5v588h283v-1075h-283z" />
    <glyph glyph-name="v" unicode="v" horiz-adv-x="1167" 
d="M729 0h-291l-387 1075h311l226 -709l225 709h303z" />
    <glyph glyph-name="w" unicode="w" horiz-adv-x="1520" 
d="M1159 0h-235l-164 646l-164 -646h-236l-309 1075h287l145 -616l164 616h234l163 -616l146 616h278z" />
    <glyph glyph-name="x" unicode="x" horiz-adv-x="1176" 
d="M795 0l-207 342l-207 -342h-336l381 582l-324 493h336l150 -258l149 258h336l-323 -493l380 -582h-335z" />
    <glyph glyph-name="y" unicode="y" horiz-adv-x="1208" 
d="M604 -379h-278l143 379l-418 1075h311l246 -724l246 724h303z" />
    <glyph glyph-name="z" unicode="z" horiz-adv-x="1135" 
d="M123 0v205l516 614h-481v256h854v-205l-502 -614h502v-256h-889z" />
    <glyph glyph-name="braceleft" unicode="{" horiz-adv-x="942" 
d="M834 -225q-141 0 -243.5 27.5t-169 81.5t-98.5 135t-32 188v145q0 75 -31.5 108.5t-91.5 33.5h-45v229h45q60 0 91.5 33.5t31.5 107.5v148q0 106 32 187t98.5 135.5t169 82t243.5 27.5v-187q-77 -8 -126.5 -26.5t-78.5 -51t-40 -79t-11 -109.5v-63q0 -83 -12 -138
t-36 -90.5t-60.5 -56t-86.5 -35.5q50 -15 86.5 -35.5t60.5 -56t36 -90t12 -137.5v-62q0 -63 11 -109.5t40 -78.5t78.5 -51t126.5 -27v-186z" />
    <glyph glyph-name="bar" unicode="|" horiz-adv-x="584" 
d="M164 -379v2017h256v-2017h-256z" />
    <glyph glyph-name="braceright" unicode="}" horiz-adv-x="942" 
d="M774 496q-60 0 -91.5 -33.5t-31.5 -108.5v-147q0 -107 -32 -188t-98 -135t-168.5 -81.5t-243.5 -27.5v186q76 8 126 27t78.5 51t40 78.5t11.5 109.5v64q0 83 11.5 137.5t35.5 90t60.5 56t86.5 35.5q-50 15 -86.5 35.5t-60.5 56t-35.5 90.5t-11.5 138v61q0 63 -11.5 109.5
t-40 79t-78.5 51t-126 26.5v187q141 0 243.5 -27.5t168.5 -82t98 -135.5t32 -187v-146q0 -74 31.5 -107.5t91.5 -33.5h45v-229h-45z" />
    <glyph glyph-name="asciitilde" unicode="~" horiz-adv-x="1151" 
d="M1065 868q-28 -71 -59 -128t-68.5 -97t-83 -62t-102.5 -22q-32 0 -57 4.5t-47.5 13t-45 21.5t-47.5 31q-59 40 -95 61t-65 21q-21 0 -37 -5.5t-31 -21.5t-32 -44.5t-41 -74.5l-168 86q28 71 59 128t68.5 97.5t83 62.5t102.5 22q31 0 56.5 -4.5t48 -13t44.5 -21.5t48 -31
q36 -26 81 -54t79 -28q21 0 36.5 5.5t30.5 21t32 44t42 74.5z" />
    <glyph glyph-name="exclamdown" unicode="&#xa1;" horiz-adv-x="696" 
d="M522 1282q0 -35 -14 -66.5t-38 -55.5t-55.5 -38t-66.5 -14t-66.5 14t-55.5 38t-38 55.5t-14 66.5t14 66.5t38 55.5t55.5 38t66.5 14t66.5 -14t55.5 -38t38 -55.5t14 -66.5zM205 0v590l47 393h192l48 -393v-590h-287z" />
    <glyph glyph-name="cent.lftab" unicode="&#xa2;" 
d="M958 907q-26 36 -53 63t-58 45t-68.5 27t-84.5 9q-65 0 -118.5 -21.5t-91.5 -62t-59.5 -99t-21.5 -131.5q0 -76 20.5 -137t59.5 -103.5t96.5 -65.5t131.5 -23q88 0 155 37t123 102l178 -176q-63 -69 -142 -119t-183 -70v-205h-310v207q-97 22 -174 69t-131 116t-83 159.5
t-29 198.5q0 110 31.5 200.5t87.5 159.5t132 115t166 68v192h310v-182q117 -22 196 -73.5t131 -121.5z" />
    <glyph glyph-name="sterling" unicode="&#xa3;" 
d="M156 0v205q39 39 70.5 77t55 80t37.5 90.5t19 108.5h-180v215h153q-11 26 -24 51.5t-29 53.5t-25.5 49t-18.5 47t-13 54.5t-4 62.5q0 84 32.5 151t95 114t153 72t206.5 25q144 0 264 -50t217 -149l-155 -186q-78 75 -157.5 109t-172.5 34q-51 0 -88.5 -11.5t-62 -31.5
t-36.5 -47.5t-12 -58.5q0 -38 11 -72t32 -71q19 -32 36.5 -69t31.5 -77h291v-215h-277q-5 -54 -16.5 -99.5t-29 -85.5t-39 -74.5t-46.5 -65.5h678v-236h-997z" />
    <glyph glyph-name="currency" unicode="&#xa4;" horiz-adv-x="1307" 
d="M702 -23q-144 0 -256 54t-188.5 151.5t-116 234t-39.5 300.5q0 174 43.5 311.5t123 232.5t191 145t247.5 50q106 0 184 -23.5t137 -69.5t103.5 -113.5t82.5 -155.5l-241 -117q-26 51 -51 90.5t-56 65.5t-70.5 39.5t-93.5 13.5q-98 0 -173 -52.5t-113 -170.5h415v-189
h-446q-2 -14 -2 -29v-30v-30t2 -28h446v-188h-415q40 -116 115 -168.5t176 -52.5q52 0 92 12t73.5 37t63 62t61.5 87l234 -139q-39 -65 -87 -125t-111.5 -105.5t-144.5 -72.5t-186 -27z" />
    <glyph glyph-name="yen" unicode="&#xa5;" 
d="M776 545v-90h309v-230h-309v-225h-280v225h-312v230h312v86l-465 893h329l277 -615l278 615h324z" />
    <glyph glyph-name="brokenbar" unicode="&#xa6;" horiz-adv-x="643" 
d="M193 1638h260v-874h-260v874zM193 496h260v-875h-260v875z" />
    <glyph glyph-name="section" unicode="&#xa7;" horiz-adv-x="1434" 
d="M1321 514q0 -64 -17.5 -115.5t-47.5 -92.5t-71 -73t-89 -57q19 -32 30 -75.5t11 -102.5q0 -71 -27.5 -132t-81.5 -106t-133.5 -70.5t-183.5 -25.5q-125 0 -238 36.5t-203 102.5l142 197q72 -51 156.5 -75.5t160.5 -24.5q68 0 105.5 22.5t37.5 73.5q0 24 -13 42t-49.5 37
t-103 42.5t-174.5 58.5q-101 34 -179.5 71.5t-131.5 87.5t-80.5 115.5t-27.5 155.5q0 64 17.5 115.5t47.5 93t70.5 73.5t87.5 56q-20 35 -29.5 79t-9.5 99q0 71 27.5 132t81 106t133 70.5t184.5 25.5q125 0 237.5 -36.5t202.5 -102.5l-141 -197q-63 45 -151.5 73t-165.5 28
q-41 0 -68.5 -7.5t-44.5 -20t-24 -30.5t-7 -39q0 -24 13 -42t49.5 -37t103 -42.5t174.5 -58.5q101 -34 179.5 -71.5t132 -87t81 -115.5t27.5 -156zM1047 494q0 43 -24.5 74.5t-64.5 55.5t-91 43t-105 38q-74 24 -135 47.5t-109 46.5q-65 -28 -98 -69t-33 -103
q0 -44 24.5 -75.5t64 -55.5t91 -43t105.5 -37q74 -25 134.5 -48t108.5 -46q65 27 98.5 68.5t33.5 103.5z" />
    <glyph glyph-name="dieresis" unicode="&#xa8;" horiz-adv-x="1024" 
d="M893 1376q0 -32 -13 -60t-34.5 -50t-50.5 -34.5t-60 -12.5q-33 0 -62.5 12.5t-51.5 34.5t-35 50t-13 60q0 33 13 62t35 51t51.5 34.5t62.5 12.5q31 0 60 -12.5t50.5 -34.5t34.5 -51t13 -62zM451 1376q0 -32 -13 -60t-35 -50t-51 -34.5t-61 -12.5t-61 12.5t-51 34.5
t-35 50t-13 60q0 33 13 62t35 51t51 34.5t61 12.5t61 -12.5t51 -34.5t35 -51t13 -62z" />
    <glyph glyph-name="copyright" unicode="&#xa9;" horiz-adv-x="1712" 
d="M1595 717q0 -158 -56.5 -293t-155.5 -234.5t-234 -156t-293 -56.5t-293 56.5t-234 156t-155.5 234.5t-56.5 293t56.5 293t155.5 234.5t235.5 155.5t291.5 56q158 0 294 -57t234 -155.5t154.5 -233.5t56.5 -293zM1464 717q0 130 -46.5 241t-128 192.5t-192.5 128
t-241 46.5t-241 -46.5t-192.5 -128t-128 -192.5t-46.5 -241t46.5 -241t128 -192.5t192.5 -128t241 -46.5t241 46.5t192.5 128t128 192.5t46.5 241zM1001 870q-24 44 -55.5 67.5t-79.5 23.5q-33 0 -64 -13.5t-53 -44.5t-33 -75.5t-11 -106.5q0 -63 11.5 -106.5t35 -74.5
t53 -44t63.5 -13q45 0 79.5 27t66.5 78l143 -99q-48 -89 -118 -136.5t-175 -47.5q-79 0 -144 29.5t-111 83.5t-71.5 131t-25.5 172q0 91 26 168t73.5 132.5t113 86.5t143.5 31q104 0 178 -45t117 -133z" />
    <glyph glyph-name="ordfeminine" unicode="&#xaa;" horiz-adv-x="977" 
d="M627 565v64q-35 -37 -87 -58.5t-114 -21.5q-61 0 -119.5 18.5t-104.5 57t-74 96.5t-28 137q0 72 27.5 126.5t75.5 90.5t112.5 54t139.5 18q60 0 102 -10.5t70 -24.5v43q0 48 -33 81.5t-96 33.5q-83 0 -135.5 -14.5t-106.5 -45.5l-86 160q78 43 152 64.5t176 21.5
q79 0 144 -20t111 -59t71.5 -96t25.5 -130v-586h-223zM627 934q-32 18 -68 26.5t-96 8.5q-66 0 -101.5 -28.5t-35.5 -82.5q0 -55 36 -88t101 -33q47 0 92 23t72 61v113z" />
    <glyph glyph-name="guillemotleft" unicode="&#xab;" horiz-adv-x="1286" 
d="M911 0l-333 537l333 538h293l-323 -536l323 -539h-293zM395 0l-334 537l334 538h293l-323 -536l323 -539h-293z" />
    <glyph glyph-name="logicalnot" unicode="&#xac;" 
d="M1150 182h-281v389h-749v267h1030v-656z" />
    <glyph glyph-name="registered" unicode="&#xae;" horiz-adv-x="1712" 
d="M1595 717q0 -158 -56.5 -293t-155.5 -234.5t-234 -156t-293 -56.5t-293 56.5t-234 156t-155.5 234.5t-56.5 293t56.5 293t155.5 234.5t235.5 155.5t291.5 56q158 0 294 -57t234 -155.5t154.5 -233.5t56.5 -293zM1464 717q0 130 -46.5 241t-128 192.5t-192.5 128
t-241 46.5t-241 -46.5t-192.5 -128t-128 -192.5t-46.5 -241t46.5 -241t128 -192.5t192.5 -128t241 -46.5t241 46.5t192.5 128t128 192.5t46.5 241zM1208 881q0 -85 -37.5 -144.5t-121.5 -91.5l155 -317h-192l-146 295h-139v-295h-170v807h375q58 0 108.5 -15.5t87.5 -47
t58.5 -79.5t21.5 -112zM1034 877q0 54 -30 78t-84 24h-193v-207h193q55 0 84.5 27t29.5 78z" />
    <glyph glyph-name="macron" unicode="&#xaf;" horiz-adv-x="1024" 
d="M215 1249v215h594v-215h-594z" />
    <glyph glyph-name="macron" unicode="&#x2c9;" horiz-adv-x="1024" 
d="M215 1249v215h594v-215h-594z" />
    <glyph glyph-name="degree" unicode="&#xb0;" horiz-adv-x="995" 
d="M903 1053q0 -87 -31 -161.5t-85.5 -129.5t-128.5 -86t-160 -31t-160 31t-128.5 86t-86 129.5t-31.5 161.5q0 84 31.5 157.5t86 128t128.5 86t160 31.5t160 -31.5t128.5 -86t85.5 -128t31 -157.5zM688 1053q0 39 -14.5 73.5t-40 60.5t-60.5 41t-75 15t-75 -15t-60.5 -41
t-40.5 -60.5t-15 -73.5q0 -42 15 -77.5t40.5 -61.5t60.5 -41t75 -15t75 15t60.5 41t40 61.5t14.5 77.5z" />
    <glyph glyph-name="plusminus" unicode="&#xb1;" 
d="M775 797v-369h-281v369h-374v266h374v369h281v-369h375v-266h-375zM120 61v250h1030v-250h-1030z" />
    <glyph glyph-name="twosuperior" unicode="&#xb2;" horiz-adv-x="850" 
d="M72 530q4 110 29 189t68 138.5t103 104.5t134 87q40 22 65.5 39t40 32.5t20 31t5.5 34.5q0 37 -28.5 57.5t-82.5 20.5q-32 0 -61.5 -5.5t-58 -17t-57.5 -29.5t-61 -43l-110 164q41 29 81 51.5t82.5 38t88.5 23.5t100 8q75 0 135 -16.5t105 -52.5t63.5 -84.5t18.5 -104.5
q0 -48 -11 -86.5t-36.5 -72.5t-68 -66t-106.5 -68q-51 -29 -87.5 -53t-61 -45t-40 -40t-24.5 -40h443v-195h-688z" />
    <glyph glyph-name="threesuperior" unicode="&#xb3;" horiz-adv-x="801" 
d="M373 518q-102 0 -190.5 40t-159.5 110l127 141q57 -51 111 -76.5t116 -25.5q75 0 112 27.5t37 80.5q0 51 -36 74.5t-101 23.5h-117v181h111q56 0 81 22.5t25 67.5q0 38 -28.5 62t-93.5 24q-53 0 -97.5 -21.5t-97.5 -64.5l-121 143q65 57 142.5 92t177.5 35
q73 0 134.5 -15t106 -46.5t69 -79.5t24.5 -115q0 -66 -25 -108t-72 -70q31 -13 55 -31.5t42 -44t26 -57.5t8 -70q0 -74 -25.5 -129.5t-72.5 -93.5t-115 -57t-153 -19z" />
    <glyph glyph-name="acute" unicode="&#xb4;" horiz-adv-x="1024" 
d="M522 1219h-239l178 327h358z" />
    <glyph glyph-name="mu" unicode="&#xb5;" horiz-adv-x="1206" 
d="M786 0v72q-37 -39 -101.5 -67t-149.5 -28q-16 0 -46 2t-69 11v-244l-283 -141v1470h283v-581q0 -72 12 -120.5t35 -77t57 -40.5t78 -12t78 12t57.5 40t36 74.5t12.5 116.5v588h283v-1075h-283z" />
    <glyph glyph-name="paragraph" unicode="&#xb6;" horiz-adv-x="1483" 
d="M1067 -379v1596h-131v-1596h-234v914h-141q-95 0 -179 29.5t-148 87t-101 141.5t-37 192t37.5 191.5t101 140.5t148 87t178.5 30h739v-1813h-233z" />
    <glyph glyph-name="periodcentered" unicode="&#xb7;" horiz-adv-x="557" 
d="M471 752q0 -39 -15.5 -74.5t-41.5 -61.5t-61.5 -41.5t-74.5 -15.5t-74 15.5t-61 41.5t-41.5 61.5t-15.5 74.5t15.5 74t41.5 61t61 41.5t74 15.5t74.5 -15.5t61.5 -41.5t41.5 -61t15.5 -74z" />
    <glyph glyph-name="periodcentered" unicode="&#x2219;" horiz-adv-x="557" 
d="M471 752q0 -39 -15.5 -74.5t-41.5 -61.5t-61.5 -41.5t-74.5 -15.5t-74 15.5t-61 41.5t-41.5 61.5t-15.5 74.5t15.5 74t41.5 61t61 41.5t74 15.5t74.5 -15.5t61.5 -41.5t41.5 -61t15.5 -74z" />
    <glyph glyph-name="cedilla" unicode="&#xb8;" horiz-adv-x="1024" 
d="M453 76h114l-35 -162q13 6 32 10t48 4q33 0 62 -8.5t51 -26.5t34.5 -45.5t12.5 -64.5q0 -46 -17.5 -79.5t-49.5 -55.5t-77 -32.5t-100 -10.5q-83 0 -150.5 21.5t-117.5 51.5l43 78q99 -49 182 -49q54 0 82.5 17.5t28.5 52.5q0 31 -19.5 42t-44.5 11q-35 1 -61 -14l-74 28
z" />
    <glyph glyph-name="onesuperior" unicode="&#xb9;" horiz-adv-x="625" 
d="M244 1161h-150v154q42 3 72.5 9.5t53 20t36.5 35t23 54.5h180v-910h-215v637z" />
    <glyph glyph-name="ordmasculine" unicode="&#xba;" horiz-adv-x="1006" 
d="M897 1001q0 -100 -30 -183t-82.5 -143t-125 -93t-157.5 -33q-86 0 -158 33t-124 93t-81.5 143t-29.5 183t29.5 183.5t81.5 144t124 94t158 33.5q85 0 157.5 -33.5t125 -94t82.5 -144t30 -183.5zM664 1001q0 50 -10 93t-30.5 74.5t-51 49t-70.5 17.5q-41 0 -71.5 -17.5
t-50.5 -48.5t-30 -74t-10 -94t10 -93t30 -73t50.5 -48t71.5 -17q40 0 70.5 19t51 51.5t30.5 74t10 86.5z" />
    <glyph glyph-name="guillemotright" unicode="&#xbb;" horiz-adv-x="1286" 
d="M891 0h-293l324 537l-324 538h293l334 -536zM375 0h-293l324 537l-324 538h293l334 -536z" />
    <glyph glyph-name="onequarter" unicode="&#xbc;" horiz-adv-x="1905" 
d="M284 1161h-150v154q42 3 72.5 9.5t53 20t36.5 35t23 54.5h180v-910h-215v637zM564 0h-303l961 1434h303zM1461 190h-473v152l467 569h209v-540h113v-185h-113v-184h-203v188zM1461 371v278l-223 -278h223z" />
    <glyph glyph-name="onehalf" unicode="&#xbd;" horiz-adv-x="1905" 
d="M262 1161h-150v154q42 3 72.5 9.5t53 20t36.5 35t23 54.5h180v-910h-215v637zM512 0h-303l961 1434h303zM1103 1q4 110 29 189t68 138.5t103 104.5t134 87q40 22 65.5 39t40 32.5t20 31t5.5 34.5q0 37 -28.5 57.5t-82.5 20.5q-32 0 -61.5 -5.5t-58 -17t-57.5 -29.5
t-61 -43l-110 164q41 29 81 51.5t82.5 38t88.5 23.5t100 8q75 0 135 -16.5t105 -52.5t63.5 -84.5t18.5 -104.5q0 -48 -11 -86.5t-36.5 -72.5t-68 -66t-106.5 -68q-51 -29 -87.5 -53t-61 -45t-40 -40t-24.5 -40h443v-195h-688z" />
    <glyph glyph-name="threequarters" unicode="&#xbe;" horiz-adv-x="1905" 
d="M421 518q-102 0 -190.5 40t-159.5 110l127 141q57 -51 111 -76.5t116 -25.5q75 0 112 27.5t37 80.5q0 51 -36 74.5t-101 23.5h-117v181h111q56 0 81 22.5t25 67.5q0 38 -28.5 62t-93.5 24q-53 0 -97.5 -21.5t-97.5 -64.5l-121 143q65 57 142.5 92t177.5 35
q73 0 134.5 -15t106 -46.5t69 -79.5t24.5 -115q0 -66 -25 -108t-72 -70q31 -13 55 -31.5t42 -44t26 -57.5t8 -70q0 -74 -25.5 -129.5t-72.5 -93.5t-115 -57t-153 -19zM703 0h-303l961 1434h303zM1516 189h-473v152l467 569h209v-540h113v-185h-113v-184h-203v188zM1516 370
v278l-223 -278h223z" />
    <glyph glyph-name="questiondown" unicode="&#xbf;" horiz-adv-x="1196" 
d="M819 1282q0 -35 -14 -66.5t-38 -55.5t-55.5 -38t-66.5 -14t-66.5 14t-55.5 38t-38 55.5t-14 66.5t14 66.5t38 55.5t55.5 38t66.5 14t66.5 -14t55.5 -38t38 -55.5t14 -66.5zM1151 215q-47 -49 -104 -92.5t-124.5 -75.5t-146 -51t-168.5 -19q-117 0 -214.5 25.5t-167.5 77
t-109 130t-39 185.5q0 72 18.5 127t48 96t66.5 69t74 46q64 31 106 57t66.5 53.5t35.5 61t13 78.5h280q0 -73 -12.5 -133t-45 -111t-88 -94.5t-142.5 -83.5q-39 -18 -64.5 -33.5t-40.5 -33t-21.5 -38.5t-6.5 -48q0 -36 13.5 -63.5t42.5 -47t75.5 -29.5t111.5 -10
q58 0 108.5 13t94.5 36t82.5 54.5t73.5 68.5z" />
    <glyph glyph-name="Agrave" unicode="&#xc0;" horiz-adv-x="1536" 
d="M1454 0h-315l-113 319h-524l-113 -319h-307l549 1434h278zM928 592l-164 467l-164 -467h328zM676 1526l-297 327h358l178 -327h-239z" />
    <glyph glyph-name="Aacute" unicode="&#xc1;" horiz-adv-x="1536" 
d="M1454 0h-315l-113 319h-524l-113 -319h-307l549 1434h278zM928 592l-164 467l-164 -467h328zM839 1526h-239l178 327h358z" />
    <glyph glyph-name="Acircumflex" unicode="&#xc2;" horiz-adv-x="1536" 
d="M1454 0h-315l-113 319h-524l-113 -319h-307l549 1434h278zM928 592l-164 467l-164 -467h328zM969 1526l-205 153l-205 -153h-186l250 327h286l250 -327h-190z" />
    <glyph glyph-name="Atilde" unicode="&#xc3;" horiz-adv-x="1536" 
d="M1454 0h-315l-113 319h-524l-113 -319h-307l549 1434h278zM928 592l-164 467l-164 -467h328zM1174 1814q0 -68 -17.5 -123t-48.5 -93t-74.5 -58.5t-95.5 -20.5q-32 0 -57 3.5t-48 11t-47 19.5t-55 30q-23 14 -51.5 27.5t-54.5 13.5q-29 0 -45 -22t-25 -76h-184
q0 68 17 122.5t48 92.5t74.5 58.5t95.5 20.5q32 0 57 -3t48 -10.5t47 -19.5t55 -30q24 -14 52 -27.5t55 -13.5q29 0 44.5 22t24.5 76h185z" />
    <glyph glyph-name="Adieresis" unicode="&#xc4;" horiz-adv-x="1536" 
d="M1454 0h-315l-113 319h-524l-113 -319h-307l549 1434h278zM928 592l-164 467l-164 -467h328zM1147 1683q0 -32 -13 -60t-34.5 -50t-50.5 -34.5t-60 -12.5q-33 0 -62.5 12.5t-51.5 34.5t-35 50t-13 60q0 33 13 62t35 51t51.5 34.5t62.5 12.5q31 0 60 -12.5t50.5 -34.5
t34.5 -51t13 -62zM705 1683q0 -32 -13 -60t-35 -50t-51 -34.5t-61 -12.5t-61 12.5t-51 34.5t-35 50t-13 60q0 33 13 62t35 51t51 34.5t61 12.5t61 -12.5t51 -34.5t35 -51t13 -62z" />
    <glyph glyph-name="Aring" unicode="&#xc5;" horiz-adv-x="1536" 
d="M1139 0l-113 319h-524l-113 -319h-307l504 1317q-44 37 -68 90.5t-24 118.5q0 59 21 109.5t58 87.5t87.5 58t109.5 21t110 -21t88 -58t58 -87.5t21 -109.5q0 -65 -25 -118.5t-70 -90.5l502 -1317h-315zM891 1526q0 26 -9.5 48.5t-25.5 39t-38.5 26t-47.5 9.5
q-26 0 -48 -9.5t-38 -26t-25.5 -39t-9.5 -48.5t9.5 -48.5t25.5 -39t38 -26t48 -9.5q25 0 47.5 9.5t38.5 26t25.5 39t9.5 48.5zM928 592l-164 467l-164 -467h328z" />
    <glyph glyph-name="AE" unicode="&#xc6;" horiz-adv-x="2126" 
d="M1974 1434v-275h-667v-258h534v-270h-534v-357h698v-274h-973v256h-510l-166 -256h-327l962 1434h983zM686 508h346v532z" />
    <glyph glyph-name="Ccedilla" unicode="&#xc7;" horiz-adv-x="1372" 
d="M1004 1016q-24 46 -46 69t-54 43.5t-71 31.5t-92 11q-81 0 -143.5 -33.5t-106 -93.5t-66 -143.5t-22.5 -183.5q0 -97 23 -180t66.5 -144t106.5 -96t144 -35q88 0 152.5 38t128.5 144l242 -143q-37 -76 -88 -136t-117 -102t-147.5 -64t-178.5 -22q-98 0 -178.5 23.5
t-151.5 68.5t-126 110t-88 135t-57.5 171.5t-24.5 231.5q0 163 47 299t131 234t201 152t257 54q181 0 314 -78.5t211 -238.5zM657 76h114l-35 -162q13 6 32 10t48 4q33 0 62 -8.5t51 -26.5t34.5 -45.5t12.5 -64.5q0 -46 -17.5 -79.5t-49.5 -55.5t-77 -32.5t-100 -10.5
q-83 0 -150.5 21.5t-117.5 51.5l43 78q99 -49 182 -49q54 0 82.5 17.5t28.5 52.5q0 31 -19.5 42t-44.5 11q-35 1 -61 -14l-74 28z" />
    <glyph glyph-name="Egrave" unicode="&#xc8;" horiz-adv-x="1331" 
d="M1210 0h-1026v1434h996v-281h-709v-248h576v-278h-576v-346h739v-281zM598 1526l-297 327h358l178 -327h-239z" />
    <glyph glyph-name="Eacute" unicode="&#xc9;" horiz-adv-x="1331" 
d="M1210 0h-1026v1434h996v-281h-709v-248h576v-278h-576v-346h739v-281zM762 1526h-239l178 327h358z" />
    <glyph glyph-name="Ecircumflex" unicode="&#xca;" horiz-adv-x="1331" 
d="M1210 0h-1026v1434h996v-281h-709v-248h576v-278h-576v-346h739v-281zM891 1526l-205 153l-205 -153h-186l250 327h286l250 -327h-190z" />
    <glyph glyph-name="Edieresis" unicode="&#xcb;" horiz-adv-x="1331" 
d="M1210 0h-1026v1434h996v-281h-709v-248h576v-278h-576v-346h739v-281zM1069 1683q0 -32 -13 -60t-34.5 -50t-50.5 -34.5t-60 -12.5q-33 0 -62.5 12.5t-51.5 34.5t-35 50t-13 60q0 33 13 62t35 51t51.5 34.5t62.5 12.5q31 0 60 -12.5t50.5 -34.5t34.5 -51t13 -62z
M627 1683q0 -32 -13 -60t-35 -50t-51 -34.5t-61 -12.5t-61 12.5t-51 34.5t-35 50t-13 60q0 33 13 62t35 51t51 34.5t61 12.5t61 -12.5t51 -34.5t35 -51t13 -62z" />
    <glyph glyph-name="Igrave" unicode="&#xcc;" horiz-adv-x="696" 
d="M205 0v1434h287v-1434h-287zM240 1526l-297 327h358l178 -327h-239z" />
    <glyph glyph-name="Iacute" unicode="&#xcd;" horiz-adv-x="696" 
d="M205 0v1434h287v-1434h-287zM444 1526h-239l178 327h358z" />
    <glyph glyph-name="Icircumflex" unicode="&#xce;" horiz-adv-x="696" 
d="M205 0v1434h287v-1434h-287zM553 1506l-205 153l-205 -153h-186l250 327h286l250 -327h-190z" />
    <glyph glyph-name="Idieresis" unicode="&#xcf;" horiz-adv-x="696" 
d="M205 0v1434h287v-1434h-287zM731 1673q0 -32 -13 -60t-34.5 -50t-50.5 -34.5t-60 -12.5q-33 0 -62.5 12.5t-51.5 34.5t-35 50t-13 60q0 33 13 62t35 51t51.5 34.5t62.5 12.5q31 0 60 -12.5t50.5 -34.5t34.5 -51t13 -62zM289 1673q0 -32 -13 -60t-35 -50t-51 -34.5
t-61 -12.5t-61 12.5t-51 34.5t-35 50t-13 60q0 33 13 62t35 51t51 34.5t61 12.5t61 -12.5t51 -34.5t35 -51t13 -62z" />
    <glyph glyph-name="Eth" unicode="&#xd0;" horiz-adv-x="1479" 
d="M1376 717q0 -163 -50 -294t-149 -226.5t-237.5 -146t-296.5 -50.5h-428v631h-133v235h133v568h449q153 0 283.5 -38.5t226 -123.5t149 -222t53.5 -333zM1081 717q0 110 -24.5 192t-76 137t-132.5 82t-195 27h-159v-289h192v-235h-192v-352h149q113 0 195.5 31.5t136.5 89
t80 138.5t26 179z" />
    <glyph glyph-name="Ntilde" unicode="&#xd1;" horiz-adv-x="1530" 
d="M1346 0h-256l-623 925v-925h-283v1434h275l604 -902v902h283v-1434zM1174 1814q0 -68 -17.5 -123t-48.5 -93t-74.5 -58.5t-95.5 -20.5q-32 0 -57 3.5t-48 11t-47 19.5t-55 30q-23 14 -51.5 27.5t-54.5 13.5q-29 0 -45 -22t-25 -76h-184q0 68 17 122.5t48 92.5t74.5 58.5
t95.5 20.5q32 0 57 -3t48 -10.5t47 -19.5t55 -30q24 -14 52 -27.5t55 -13.5q29 0 44.5 22t24.5 76h185z" />
    <glyph glyph-name="Ograve" unicode="&#xd2;" horiz-adv-x="1473" 
d="M1368 719q0 -174 -46.5 -311.5t-130 -233t-200 -146.5t-256.5 -51q-141 0 -257 50t-199 145t-129 232t-46 311t46.5 311.5t130.5 233t201 146t257 50.5t255.5 -50t198.5 -145t129 -231.5t46 -310.5zM1073 715q0 109 -25 194t-70 143t-107.5 88.5t-137.5 30.5t-137 -29.5
t-105.5 -87t-67.5 -142t-24 -193.5t25 -194t70 -143.5t107.5 -89t137.5 -30.5t137 30t105.5 87.5t67.5 142t24 193.5zM637 1526l-297 327h358l178 -327h-239z" />
    <glyph glyph-name="Oacute" unicode="&#xd3;" horiz-adv-x="1473" 
d="M1368 719q0 -174 -46.5 -311.5t-130 -233t-200 -146.5t-256.5 -51q-141 0 -257 50t-199 145t-129 232t-46 311t46.5 311.5t130.5 233t201 146t257 50.5t255.5 -50t198.5 -145t129 -231.5t46 -310.5zM1073 715q0 109 -25 194t-70 143t-107.5 88.5t-137.5 30.5t-137 -29.5
t-105.5 -87t-67.5 -142t-24 -193.5t25 -194t70 -143.5t107.5 -89t137.5 -30.5t137 30t105.5 87.5t67.5 142t24 193.5zM801 1526h-239l178 327h358z" />
    <glyph glyph-name="Ocircumflex" unicode="&#xd4;" horiz-adv-x="1473" 
d="M1368 719q0 -174 -46.5 -311.5t-130 -233t-200 -146.5t-256.5 -51q-141 0 -257 50t-199 145t-129 232t-46 311t46.5 311.5t130.5 233t201 146t257 50.5t255.5 -50t198.5 -145t129 -231.5t46 -310.5zM1073 715q0 109 -25 194t-70 143t-107.5 88.5t-137.5 30.5t-137 -29.5
t-105.5 -87t-67.5 -142t-24 -193.5t25 -194t70 -143.5t107.5 -89t137.5 -30.5t137 30t105.5 87.5t67.5 142t24 193.5zM930 1516l-205 153l-205 -153h-186l250 327h286l250 -327h-190z" />
    <glyph glyph-name="Otilde" unicode="&#xd5;" horiz-adv-x="1473" 
d="M1368 719q0 -174 -46.5 -311.5t-130 -233t-200 -146.5t-256.5 -51q-141 0 -257 50t-199 145t-129 232t-46 311t46.5 311.5t130.5 233t201 146t257 50.5t255.5 -50t198.5 -145t129 -231.5t46 -310.5zM1073 715q0 109 -25 194t-70 143t-107.5 88.5t-137.5 30.5t-137 -29.5
t-105.5 -87t-67.5 -142t-24 -193.5t25 -194t70 -143.5t107.5 -89t137.5 -30.5t137 30t105.5 87.5t67.5 142t24 193.5zM1135 1814q0 -68 -17.5 -123t-48.5 -93t-74.5 -58.5t-95.5 -20.5q-32 0 -57 3.5t-48 11t-47 19.5t-55 30q-23 14 -51.5 27.5t-54.5 13.5q-29 0 -45 -22
t-25 -76h-184q0 68 17 122.5t48 92.5t74.5 58.5t95.5 20.5q32 0 57 -3t48 -10.5t47 -19.5t55 -30q24 -14 52 -27.5t55 -13.5q29 0 44.5 22t24.5 76h185z" />
    <glyph glyph-name="Odieresis" unicode="&#xd6;" horiz-adv-x="1473" 
d="M1368 719q0 -174 -46.5 -311.5t-130 -233t-200 -146.5t-256.5 -51q-141 0 -257 50t-199 145t-129 232t-46 311t46.5 311.5t130.5 233t201 146t257 50.5t255.5 -50t198.5 -145t129 -231.5t46 -310.5zM1073 715q0 109 -25 194t-70 143t-107.5 88.5t-137.5 30.5t-137 -29.5
t-105.5 -87t-67.5 -142t-24 -193.5t25 -194t70 -143.5t107.5 -89t137.5 -30.5t137 30t105.5 87.5t67.5 142t24 193.5zM1108 1683q0 -32 -13 -60t-34.5 -50t-50.5 -34.5t-60 -12.5q-33 0 -62.5 12.5t-51.5 34.5t-35 50t-13 60q0 33 13 62t35 51t51.5 34.5t62.5 12.5
q31 0 60 -12.5t50.5 -34.5t34.5 -51t13 -62zM666 1683q0 -32 -13 -60t-35 -50t-51 -34.5t-61 -12.5t-61 12.5t-51 34.5t-35 50t-13 60q0 33 13 62t35 51t51 34.5t61 12.5t61 -12.5t51 -34.5t35 -51t13 -62z" />
    <glyph glyph-name="multiply" unicode="&#xd7;" 
d="M977 184l-342 348l-342 -348l-178 178l348 343l-348 342l178 178l342 -348l342 348l178 -178l-348 -342l348 -343z" />
    <glyph glyph-name="Oslash" unicode="&#xd8;" horiz-adv-x="1473" 
d="M1354 717q0 -164 -42.5 -300t-122.5 -233.5t-195.5 -152t-262.5 -54.5q-96 0 -211 39l-57 -118h-270l124 254q-97 99 -152.5 242t-55.5 323q0 163 42 299t122 234t195.5 152t262.5 54q108 0 203 -37l57 117h271l-121 -250q48 -47 87.5 -107.5t69.5 -140t43 -156.5
t13 -165zM815 1176q-40 10 -84 10q-89 0 -153 -36t-105 -99.5t-60.5 -149t-19.5 -184.5q0 -84 14 -158t42 -133zM1069 717q0 86 -14.5 162.5t-46.5 138.5l-369 -758q43 -12 92 -12q89 0 153 36t105 99.5t60.5 149t19.5 184.5z" />
    <glyph glyph-name="Ugrave" unicode="&#xd9;" horiz-adv-x="1509" 
d="M1335 633q0 -156 -39.5 -278t-114.5 -206t-183 -128t-244 -44q-130 0 -236.5 43t-183 126t-118.5 204.5t-42 278.5v805h287v-801q0 -174 79 -274.5t214 -100.5q136 0 215.5 100t79.5 271v805h286v-801zM668 1495l-297 327h358l178 -327h-239z" />
    <glyph glyph-name="Uacute" unicode="&#xda;" horiz-adv-x="1509" 
d="M1335 633q0 -156 -39.5 -278t-114.5 -206t-183 -128t-244 -44q-130 0 -236.5 43t-183 126t-118.5 204.5t-42 278.5v805h287v-801q0 -174 79 -274.5t214 -100.5q136 0 215.5 100t79.5 271v805h286v-801zM831 1495h-239l178 327h358z" />
    <glyph glyph-name="Ucircumflex" unicode="&#xdb;" horiz-adv-x="1509" 
d="M1335 633q0 -156 -39.5 -278t-114.5 -206t-183 -128t-244 -44q-130 0 -236.5 43t-183 126t-118.5 204.5t-42 278.5v805h287v-801q0 -174 79 -274.5t214 -100.5q136 0 215.5 100t79.5 271v805h286v-801zM961 1526l-205 153l-205 -153h-186l250 327h286l250 -327h-190z" />
    <glyph glyph-name="Udieresis" unicode="&#xdc;" horiz-adv-x="1509" 
d="M1335 633q0 -156 -39.5 -278t-114.5 -206t-183 -128t-244 -44q-130 0 -236.5 43t-183 126t-118.5 204.5t-42 278.5v805h287v-801q0 -174 79 -274.5t214 -100.5q136 0 215.5 100t79.5 271v805h286v-801zM1137 1683q0 -32 -13 -60t-34.5 -50t-50.5 -34.5t-60 -12.5
q-33 0 -62.5 12.5t-51.5 34.5t-35 50t-13 60q0 33 13 62t35 51t51.5 34.5t62.5 12.5q31 0 60 -12.5t50.5 -34.5t34.5 -51t13 -62zM695 1683q0 -32 -13 -60t-35 -50t-51 -34.5t-61 -12.5t-61 12.5t-51 34.5t-35 50t-13 60q0 33 13 62t35 51t51 34.5t61 12.5t61 -12.5
t51 -34.5t35 -51t13 -62z" />
    <glyph glyph-name="Yacute" unicode="&#xdd;" horiz-adv-x="1462" 
d="M1418 1434l-543 -867v-567h-287v561l-543 873h330l358 -600l359 600h326zM807 1506h-239l178 327h358z" />
    <glyph glyph-name="Thorn" unicode="&#xde;" horiz-adv-x="1393" 
d="M1305 758q0 -125 -39.5 -214t-109 -146t-164.5 -84t-206 -27h-315v-287h-287v1434h287v-222h340q101 0 191 -28t157.5 -84.5t106.5 -142t39 -199.5zM1010 752q0 94 -57 138t-152 44h-330v-369h334q100 0 152.5 46.5t52.5 140.5z" />
    <glyph glyph-name="germandbls" unicode="&#xdf;" horiz-adv-x="1200" 
d="M1118 453q0 -111 -29.5 -192.5t-87 -139t-152 -89.5t-228.5 -32h-46v256h37q47 0 87 10t70 33t46 61t16 93q0 53 -13 95t-42.5 72.5t-76 46t-111.5 15.5h-13v246h11q63 0 99 40t36 109q0 63 -37 103.5t-117 40.5q-76 0 -111.5 -37t-35.5 -131v-1307l-283 -141v1462
q0 115 31 195t88 130t137 72.5t178 22.5q91 0 170.5 -24.5t138.5 -72.5t93.5 -119t34.5 -163q0 -113 -50.5 -183.5t-140.5 -101.5q58 -11 112 -37.5t96 -71t67.5 -109t25.5 -152.5z" />
    <glyph glyph-name="agrave" unicode="&#xe0;" horiz-adv-x="1139" 
d="M729 0v72q-19 -20 -43 -36.5t-58 -31t-69 -21t-72 -6.5q-75 0 -147 23.5t-128.5 70.5t-91 119t-34.5 170q0 89 34 156t93 111.5t138.5 67t170.5 22.5q75 0 124 -13t83 -30v53q0 60 -40 98.5t-114 38.5q-94 0 -153 -13.5t-141 -57.5l-109 196q102 60 193.5 84.5
t209.5 24.5q98 0 178.5 -25t138 -73t89 -118t31.5 -161v-721h-283zM729 451q-18 11 -37 19.5t-42 14t-51.5 8.5t-66.5 3q-80 0 -121.5 -35.5t-41.5 -100.5q0 -28 8.5 -54t28 -45.5t50.5 -31.5t76 -12q35 0 65.5 8t56 21.5t44.5 31.5t31 37v136zM481 1219l-297 327h358
l178 -327h-239z" />
    <glyph glyph-name="aacute" unicode="&#xe1;" horiz-adv-x="1139" 
d="M729 0v72q-19 -20 -43 -36.5t-58 -31t-69 -21t-72 -6.5q-75 0 -147 23.5t-128.5 70.5t-91 119t-34.5 170q0 89 34 156t93 111.5t138.5 67t170.5 22.5q75 0 124 -13t83 -30v53q0 60 -40 98.5t-114 38.5q-94 0 -153 -13.5t-141 -57.5l-109 196q102 60 193.5 84.5
t209.5 24.5q98 0 178.5 -25t138 -73t89 -118t31.5 -161v-721h-283zM729 451q-18 11 -37 19.5t-42 14t-51.5 8.5t-66.5 3q-80 0 -121.5 -35.5t-41.5 -100.5q0 -28 8.5 -54t28 -45.5t50.5 -31.5t76 -12q35 0 65.5 8t56 21.5t44.5 31.5t31 37v136zM643 1219h-239l178 327h358z
" />
    <glyph glyph-name="acircumflex" unicode="&#xe2;" horiz-adv-x="1139" 
d="M729 0v72q-19 -20 -43 -36.5t-58 -31t-69 -21t-72 -6.5q-75 0 -147 23.5t-128.5 70.5t-91 119t-34.5 170q0 89 34 156t93 111.5t138.5 67t170.5 22.5q75 0 124 -13t83 -30v53q0 60 -40 98.5t-114 38.5q-94 0 -153 -13.5t-141 -57.5l-109 196q102 60 193.5 84.5
t209.5 24.5q98 0 178.5 -25t138 -73t89 -118t31.5 -161v-721h-283zM729 451q-18 11 -37 19.5t-42 14t-51.5 8.5t-66.5 3q-80 0 -121.5 -35.5t-41.5 -100.5q0 -28 8.5 -54t28 -45.5t50.5 -31.5t76 -12q35 0 65.5 8t56 21.5t44.5 31.5t31 37v136zM772 1211l-205 153l-205 -153
h-186l250 327h286l250 -327h-190z" />
    <glyph glyph-name="atilde" unicode="&#xe3;" horiz-adv-x="1139" 
d="M729 0v72q-19 -20 -43 -36.5t-58 -31t-69 -21t-72 -6.5q-75 0 -147 23.5t-128.5 70.5t-91 119t-34.5 170q0 89 34 156t93 111.5t138.5 67t170.5 22.5q75 0 124 -13t83 -30v53q0 60 -40 98.5t-114 38.5q-94 0 -153 -13.5t-141 -57.5l-109 196q102 60 193.5 84.5
t209.5 24.5q98 0 178.5 -25t138 -73t89 -118t31.5 -161v-721h-283zM729 451q-18 11 -37 19.5t-42 14t-51.5 8.5t-66.5 3q-80 0 -121.5 -35.5t-41.5 -100.5q0 -28 8.5 -54t28 -45.5t50.5 -31.5t76 -12q35 0 65.5 8t56 21.5t44.5 31.5t31 37v136zM977 1507q0 -68 -17.5 -123
t-48.5 -93t-74.5 -58.5t-95.5 -20.5q-32 0 -57 3.5t-48 11t-47 19.5t-55 30q-23 14 -51.5 27.5t-54.5 13.5q-29 0 -45 -22t-25 -76h-184q0 68 17 122.5t48 92.5t74.5 58.5t95.5 20.5q32 0 57 -3t48 -10.5t47 -19.5t55 -30q24 -14 52 -27.5t55 -13.5q29 0 44.5 22t24.5 76
h185z" />
    <glyph glyph-name="adieresis" unicode="&#xe4;" horiz-adv-x="1139" 
d="M729 0v72q-19 -20 -43 -36.5t-58 -31t-69 -21t-72 -6.5q-75 0 -147 23.5t-128.5 70.5t-91 119t-34.5 170q0 89 34 156t93 111.5t138.5 67t170.5 22.5q75 0 124 -13t83 -30v53q0 60 -40 98.5t-114 38.5q-94 0 -153 -13.5t-141 -57.5l-109 196q102 60 193.5 84.5
t209.5 24.5q98 0 178.5 -25t138 -73t89 -118t31.5 -161v-721h-283zM729 451q-18 11 -37 19.5t-42 14t-51.5 8.5t-66.5 3q-80 0 -121.5 -35.5t-41.5 -100.5q0 -28 8.5 -54t28 -45.5t50.5 -31.5t76 -12q35 0 65.5 8t56 21.5t44.5 31.5t31 37v136zM950 1368q0 -32 -13 -60
t-34.5 -50t-50.5 -34.5t-60 -12.5q-33 0 -62.5 12.5t-51.5 34.5t-35 50t-13 60q0 33 13 62t35 51t51.5 34.5t62.5 12.5q31 0 60 -12.5t50.5 -34.5t34.5 -51t13 -62zM508 1368q0 -32 -13 -60t-35 -50t-51 -34.5t-61 -12.5t-61 12.5t-51 34.5t-35 50t-13 60q0 33 13 62t35 51
t51 34.5t61 12.5t61 -12.5t51 -34.5t35 -51t13 -62z" />
    <glyph glyph-name="aring" unicode="&#xe5;" horiz-adv-x="1139" 
d="M729 0v72q-19 -20 -43 -36.5t-58 -31t-69 -21t-72 -6.5q-75 0 -147 23.5t-128.5 70.5t-91 119t-34.5 170q0 89 34 156t93 111.5t138.5 67t170.5 22.5q75 0 124 -13t83 -30v53q0 60 -40 98.5t-114 38.5q-94 0 -153 -13.5t-141 -57.5l-109 196q102 60 193.5 84.5
t209.5 24.5q98 0 178.5 -25t138 -73t89 -118t31.5 -161v-721h-283zM729 451q-18 11 -37 19.5t-42 14t-51.5 8.5t-66.5 3q-80 0 -121.5 -35.5t-41.5 -100.5q0 -28 8.5 -54t28 -45.5t50.5 -31.5t76 -12q35 0 65.5 8t56 21.5t44.5 31.5t31 37v136zM845 1491q0 -59 -21 -109
t-58 -86t-87.5 -56.5t-109.5 -20.5t-109.5 20.5t-87.5 56.5t-58 86t-21 109t21 109.5t58 87.5t87.5 58t109.5 21t109.5 -21t87.5 -58t58 -87.5t21 -109.5zM690 1491q0 26 -9.5 48.5t-25.5 39t-38.5 26t-47.5 9.5q-26 0 -48 -9.5t-38 -26t-25.5 -39t-9.5 -48.5t9.5 -48.5
t25.5 -39t38 -26t48 -9.5q25 0 47.5 9.5t38.5 26t25.5 39t9.5 48.5z" />
    <glyph glyph-name="ae" unicode="&#xe6;" horiz-adv-x="1726" 
d="M1638 537q0 -31 -1 -53t-3 -38h-643q4 -55 24.5 -93.5t51.5 -62.5t69 -35t76 -11q30 0 56.5 5t52 16t42.5 23t34 31l200 -167q-32 -42 -76 -74.5t-94.5 -55t-105.5 -34t-109 -11.5q-127 0 -220.5 45t-155.5 119q-77 -86 -160.5 -125t-188.5 -39q-75 0 -147 23.5
t-128.5 70.5t-91 119t-34.5 170q0 89 34 156t93 111.5t138.5 67t170.5 22.5q75 0 124 -13t83 -30v53q0 60 -40.5 98.5t-113.5 38.5q-101 0 -164.5 -17t-129.5 -54l-109 196q93 55 185.5 82t217.5 27q115 0 192 -31.5t132 -93.5q53 57 124.5 91t162.5 34q108 0 192 -44.5
t141.5 -121t88 -178.5t30.5 -217zM1364 659q-3 36 -15.5 71t-36 62t-58.5 43.5t-83 16.5q-38 0 -69 -15t-53.5 -41t-36 -61t-17.5 -76h369zM729 451q-18 11 -37 19.5t-42 14t-51.5 8.5t-66.5 3q-80 0 -121.5 -35.5t-41.5 -100.5q0 -68 43 -105.5t120 -37.5q35 0 65.5 8
t56 21.5t44.5 31.5t31 37v68v68z" />
    <glyph glyph-name="ccedilla" unicode="&#xe7;" horiz-adv-x="1100" 
d="M1026 217q-39 -52 -82.5 -96t-96.5 -76t-117 -50t-144 -18q-105 0 -197 41t-160.5 115t-107.5 177t-39 227q0 123 38.5 226.5t107.5 177.5t163.5 115.5t206.5 41.5q136 0 242 -59.5t184 -178.5l-186 -188q-24 34 -49.5 62t-54.5 48t-64 31.5t-78 11.5q-51 0 -92 -20.5
t-70 -58t-45 -90.5t-16 -119q0 -65 16 -117.5t45 -90.5t70 -58.5t92 -20.5q41 0 75.5 9t65 26.5t58 43t55.5 58.5zM527 76h114l-35 -162q13 6 32 10t48 4q33 0 62 -8.5t51 -26.5t34.5 -45.5t12.5 -64.5q0 -46 -17.5 -79.5t-49.5 -55.5t-77 -32.5t-100 -10.5
q-83 0 -150.5 21.5t-117.5 51.5l43 78q99 -49 182 -49q54 0 82.5 17.5t28.5 52.5q0 31 -19.5 42t-44.5 11q-35 1 -61 -14l-74 28z" />
    <glyph glyph-name="egrave" unicode="&#xe8;" horiz-adv-x="1102" 
d="M1014 537q0 -31 -1 -53t-3 -38h-643q4 -55 24.5 -93.5t51 -62.5t68.5 -35t77 -11q29 0 54 4.5t50.5 15t45 24.5t34.5 31l201 -167q-32 -42 -76 -74.5t-95 -55t-105.5 -34t-108.5 -11.5q-89 0 -159.5 21.5t-123.5 57.5t-94 83.5t-69 106t-44 131t-16 160.5
q0 123 36.5 226.5t101 177.5t152 115.5t189.5 41.5q108 0 192 -44.5t142 -121t88.5 -178.5t30.5 -217zM739 659q-3 36 -15.5 71t-36 62t-58 43.5t-82.5 16.5q-39 0 -69.5 -15t-53 -41t-36 -61t-17.5 -76h368zM471 1219l-297 327h358l178 -327h-239z" />
    <glyph glyph-name="eacute" unicode="&#xe9;" horiz-adv-x="1102" 
d="M1014 537q0 -31 -1 -53t-3 -38h-643q4 -55 24.5 -93.5t51 -62.5t68.5 -35t77 -11q29 0 54 4.5t50.5 15t45 24.5t34.5 31l201 -167q-32 -42 -76 -74.5t-95 -55t-105.5 -34t-108.5 -11.5q-89 0 -159.5 21.5t-123.5 57.5t-94 83.5t-69 106t-44 131t-16 160.5
q0 123 36.5 226.5t101 177.5t152 115.5t189.5 41.5q108 0 192 -44.5t142 -121t88.5 -178.5t30.5 -217zM739 659q-3 36 -15.5 71t-36 62t-58 43.5t-82.5 16.5q-39 0 -69.5 -15t-53 -41t-36 -61t-17.5 -76h368zM633 1219h-239l178 327h358z" />
    <glyph glyph-name="ecircumflex" unicode="&#xea;" horiz-adv-x="1102" 
d="M1014 537q0 -31 -1 -53t-3 -38h-643q4 -55 24.5 -93.5t51 -62.5t68.5 -35t77 -11q29 0 54 4.5t50.5 15t45 24.5t34.5 31l201 -167q-32 -42 -76 -74.5t-95 -55t-105.5 -34t-108.5 -11.5q-89 0 -159.5 21.5t-123.5 57.5t-94 83.5t-69 106t-44 131t-16 160.5
q0 123 36.5 226.5t101 177.5t152 115.5t189.5 41.5q108 0 192 -44.5t142 -121t88.5 -178.5t30.5 -217zM739 659q-3 36 -15.5 71t-36 62t-58 43.5t-82.5 16.5q-39 0 -69.5 -15t-53 -41t-36 -61t-17.5 -76h368zM762 1201l-205 153l-205 -153h-186l250 327h286l250 -327h-190z
" />
    <glyph glyph-name="edieresis" unicode="&#xeb;" horiz-adv-x="1102" 
d="M1014 537q0 -31 -1 -53t-3 -38h-643q4 -55 24.5 -93.5t51 -62.5t68.5 -35t77 -11q29 0 54 4.5t50.5 15t45 24.5t34.5 31l201 -167q-32 -42 -76 -74.5t-95 -55t-105.5 -34t-108.5 -11.5q-89 0 -159.5 21.5t-123.5 57.5t-94 83.5t-69 106t-44 131t-16 160.5
q0 123 36.5 226.5t101 177.5t152 115.5t189.5 41.5q108 0 192 -44.5t142 -121t88.5 -178.5t30.5 -217zM739 659q-3 36 -15.5 71t-36 62t-58 43.5t-82.5 16.5q-39 0 -69.5 -15t-53 -41t-36 -61t-17.5 -76h368zM940 1368q0 -32 -13 -60t-34.5 -50t-50.5 -34.5t-60 -12.5
q-33 0 -62.5 12.5t-51.5 34.5t-35 50t-13 60q0 33 13 62t35 51t51.5 34.5t62.5 12.5q31 0 60 -12.5t50.5 -34.5t34.5 -51t13 -62zM498 1368q0 -32 -13 -60t-35 -50t-51 -34.5t-61 -12.5t-61 12.5t-51 34.5t-35 50t-13 60q0 33 13 62t35 51t51 34.5t61 12.5t61 -12.5
t51 -34.5t35 -51t13 -62z" />
    <glyph glyph-name="igrave" unicode="&#xec;" horiz-adv-x="578" 
d="M147 0v1075h283v-1075h-283zM185 1219l-297 327h358l178 -327h-239z" />
    <glyph glyph-name="iacute" unicode="&#xed;" horiz-adv-x="578" 
d="M147 0v1075h283v-1075h-283zM395 1219h-239l178 327h358z" />
    <glyph glyph-name="icircumflex" unicode="&#xee;" horiz-adv-x="578" 
d="M147 0v1075h283v-1075h-283zM494 1190l-205 153l-205 -153h-186l250 327h286l250 -327h-190z" />
    <glyph glyph-name="idieresis" unicode="&#xef;" horiz-adv-x="578" 
d="M147 0v1075h283v-1075h-283zM672 1358q0 -32 -13 -60t-34.5 -50t-50.5 -34.5t-60 -12.5q-33 0 -62.5 12.5t-51.5 34.5t-35 50t-13 60q0 33 13 62t35 51t51.5 34.5t62.5 12.5q31 0 60 -12.5t50.5 -34.5t34.5 -51t13 -62zM230 1358q0 -32 -13 -60t-35 -50t-51 -34.5
t-61 -12.5t-61 12.5t-51 34.5t-35 50t-13 60q0 33 13 62t35 51t51 34.5t61 12.5t61 -12.5t51 -34.5t35 -51t13 -62z" />
    <glyph glyph-name="eth" unicode="&#xf0;" horiz-adv-x="1137" 
d="M1055 578q0 -154 -36.5 -267t-102 -187.5t-155 -110.5t-194.5 -36t-194 36t-153.5 101.5t-101 157.5t-36.5 203t35.5 203t96 158t141.5 102.5t171 36.5q78 0 138.5 -20t115.5 -58q-15 69 -49 125.5t-84 101.5l-96 -94l-131 117l74 72q-94 37 -179 43v194q99 -3 182 -24
t154 -58l84 82l131 -117l-69 -67q67 -62 116 -140.5t80.5 -168t46.5 -187.5t15 -198zM778 475q0 55 -13 101t-39.5 79.5t-66 52.5t-92.5 19t-92 -18.5t-65 -52t-39 -80t-13 -101.5t13 -100.5t39 -78.5t65 -51t92 -18t92.5 20t66 54t39.5 79t13 95z" />
    <glyph glyph-name="ntilde" unicode="&#xf1;" horiz-adv-x="1196" 
d="M786 0v582q0 127 -40.5 188t-141.5 61q-44 0 -78 -12t-57.5 -40t-36 -74.5t-12.5 -116.5v-588h-283v1075h283v-71q18 18 43.5 35t59.5 31.5t71.5 21t77.5 6.5q103 0 177.5 -34.5t123.5 -98t72.5 -154.5t23.5 -205v-606h-283zM1002 1507q0 -68 -17.5 -123t-48.5 -93
t-74.5 -58.5t-95.5 -20.5q-32 0 -57 3.5t-48 11t-47 19.5t-55 30q-23 14 -51.5 27.5t-54.5 13.5q-29 0 -45 -22t-25 -76h-184q0 68 17 122.5t48 92.5t74.5 58.5t95.5 20.5q32 0 57 -3t48 -10.5t47 -19.5t55 -30q24 -14 52 -27.5t55 -13.5q29 0 44.5 22t24.5 76h185z" />
    <glyph glyph-name="ograve" unicode="&#xf2;" horiz-adv-x="1137" 
d="M1055 537q0 -124 -36.5 -227t-102 -177t-155 -115t-194.5 -41t-194 41t-153.5 115t-101 177t-36.5 227q0 123 36.5 226.5t101 177.5t153.5 115.5t194 41.5t194.5 -41.5t155 -115.5t102 -177.5t36.5 -226.5zM768 537q0 61 -12.5 113.5t-37.5 91.5t-62.5 61t-88.5 22
t-88 -22t-61.5 -60.5t-36.5 -91t-12 -114.5t12 -115t36.5 -91t61.5 -59.5t88 -21.5t88.5 23.5t62.5 63.5t37.5 92t12.5 108zM479 1219l-297 327h358l178 -327h-239z" />
    <glyph glyph-name="oacute" unicode="&#xf3;" horiz-adv-x="1137" 
d="M1055 537q0 -124 -36.5 -227t-102 -177t-155 -115t-194.5 -41t-194 41t-153.5 115t-101 177t-36.5 227q0 123 36.5 226.5t101 177.5t153.5 115.5t194 41.5t194.5 -41.5t155 -115.5t102 -177.5t36.5 -226.5zM768 537q0 61 -12.5 113.5t-37.5 91.5t-62.5 61t-88.5 22
t-88 -22t-61.5 -60.5t-36.5 -91t-12 -114.5t12 -115t36.5 -91t61.5 -59.5t88 -21.5t88.5 23.5t62.5 63.5t37.5 92t12.5 108zM641 1219h-239l178 327h358z" />
    <glyph glyph-name="ocircumflex" unicode="&#xf4;" horiz-adv-x="1137" 
d="M1055 537q0 -124 -36.5 -227t-102 -177t-155 -115t-194.5 -41t-194 41t-153.5 115t-101 177t-36.5 227q0 123 36.5 226.5t101 177.5t153.5 115.5t194 41.5t194.5 -41.5t155 -115.5t102 -177.5t36.5 -226.5zM768 537q0 61 -12.5 113.5t-37.5 91.5t-62.5 61t-88.5 22
t-88 -22t-61.5 -60.5t-36.5 -91t-12 -114.5t12 -115t36.5 -91t61.5 -59.5t88 -21.5t88.5 23.5t62.5 63.5t37.5 92t12.5 108zM770 1201l-205 153l-205 -153h-186l250 327h286l250 -327h-190z" />
    <glyph glyph-name="otilde" unicode="&#xf5;" horiz-adv-x="1137" 
d="M1055 537q0 -124 -36.5 -227t-102 -177t-155 -115t-194.5 -41t-194 41t-153.5 115t-101 177t-36.5 227q0 123 36.5 226.5t101 177.5t153.5 115.5t194 41.5t194.5 -41.5t155 -115.5t102 -177.5t36.5 -226.5zM768 537q0 61 -12.5 113.5t-37.5 91.5t-62.5 61t-88.5 22
t-88 -22t-61.5 -60.5t-36.5 -91t-12 -114.5t12 -115t36.5 -91t61.5 -59.5t88 -21.5t88.5 23.5t62.5 63.5t37.5 92t12.5 108zM967 1507q0 -68 -17.5 -123t-48.5 -93t-74.5 -58.5t-95.5 -20.5q-32 0 -57 3.5t-48 11t-47 19.5t-55 30q-23 14 -51.5 27.5t-54.5 13.5
q-29 0 -45 -22t-25 -76h-184q0 68 17 122.5t48 92.5t74.5 58.5t95.5 20.5q32 0 57 -3t48 -10.5t47 -19.5t55 -30q24 -14 52 -27.5t55 -13.5q29 0 44.5 22t24.5 76h185z" />
    <glyph glyph-name="odieresis" unicode="&#xf6;" horiz-adv-x="1137" 
d="M1055 537q0 -124 -36.5 -227t-102 -177t-155 -115t-194.5 -41t-194 41t-153.5 115t-101 177t-36.5 227q0 123 36.5 226.5t101 177.5t153.5 115.5t194 41.5t194.5 -41.5t155 -115.5t102 -177.5t36.5 -226.5zM768 537q0 61 -12.5 113.5t-37.5 91.5t-62.5 61t-88.5 22
t-88 -22t-61.5 -60.5t-36.5 -91t-12 -114.5t12 -115t36.5 -91t61.5 -59.5t88 -21.5t88.5 23.5t62.5 63.5t37.5 92t12.5 108zM948 1358q0 -32 -13 -60t-34.5 -50t-50.5 -34.5t-60 -12.5q-33 0 -62.5 12.5t-51.5 34.5t-35 50t-13 60q0 33 13 62t35 51t51.5 34.5t62.5 12.5
q31 0 60 -12.5t50.5 -34.5t34.5 -51t13 -62zM506 1358q0 -32 -13 -60t-35 -50t-51 -34.5t-61 -12.5t-61 12.5t-51 34.5t-35 50t-13 60q0 33 13 62t35 51t51 34.5t61 12.5t61 -12.5t51 -34.5t35 -51t13 -62z" />
    <glyph glyph-name="divide" unicode="&#xf7;" 
d="M807 1143q0 -35 -14 -66t-37.5 -54t-55 -36.5t-65.5 -13.5q-36 0 -67.5 13.5t-54.5 36.5t-36.5 54t-13.5 66t13.5 67t37 56t55 38.5t66.5 14.5q34 0 65.5 -14.5t55 -38.5t37.5 -56t14 -67zM119 580v249h1030v-249h-1030zM807 262q0 -36 -14 -67.5t-37.5 -54.5t-55 -36.5
t-65.5 -13.5q-36 0 -67.5 13.5t-54.5 36.5t-36.5 54.5t-13.5 67.5q0 35 13.5 66.5t37 55.5t55 38t66.5 14q34 0 65.5 -14t55 -38t37.5 -55.5t14 -66.5z" />
    <glyph glyph-name="oslash" unicode="&#xf8;" horiz-adv-x="1137" 
d="M1055 537q0 -124 -36.5 -227t-102 -177t-155 -115t-194.5 -41q-72 0 -159 27l-56 -106h-252l123 231q-66 74 -103.5 177.5t-37.5 230.5q0 123 36.5 226.5t101 177.5t153.5 115.5t194 41.5q42 0 81 -6.5t75 -20.5l55 107h252l-121 -230q69 -75 107.5 -179.5t38.5 -231.5z
M621 858q-26 6 -54 6q-56 0 -97 -25.5t-68 -70t-40.5 -104t-13.5 -127.5q0 -44 5 -82.5t16 -73.5zM788 537q0 46 -6 86.5t-18 76.5l-254 -481q26 -8 57 -8q56 0 97.5 28t69 73.5t41 104t13.5 120.5z" />
    <glyph glyph-name="ugrave" unicode="&#xf9;" horiz-adv-x="1196" 
d="M776 0v72q-37 -39 -102 -67t-150 -28q-194 0 -295.5 125t-101.5 367v606h283v-581q0 -130 41 -190t141 -60q101 0 142.5 61.5t41.5 181.5v588h283v-1075h-283zM504 1219l-297 327h358l178 -327h-239z" />
    <glyph glyph-name="uacute" unicode="&#xfa;" horiz-adv-x="1196" 
d="M776 0v72q-37 -39 -102 -67t-150 -28q-194 0 -295.5 125t-101.5 367v606h283v-581q0 -130 41 -190t141 -60q101 0 142.5 61.5t41.5 181.5v588h283v-1075h-283zM667 1219h-239l178 327h358z" />
    <glyph glyph-name="ucircumflex" unicode="&#xfb;" horiz-adv-x="1196" 
d="M776 0v72q-37 -39 -102 -67t-150 -28q-194 0 -295.5 125t-101.5 367v606h283v-581q0 -130 41 -190t141 -60q101 0 142.5 61.5t41.5 181.5v588h283v-1075h-283zM797 1219l-205 153l-205 -153h-186l250 327h286l250 -327h-190z" />
    <glyph glyph-name="udieresis" unicode="&#xfc;" horiz-adv-x="1196" 
d="M776 0v72q-37 -39 -102 -67t-150 -28q-194 0 -295.5 125t-101.5 367v606h283v-581q0 -130 41 -190t141 -60q101 0 142.5 61.5t41.5 181.5v588h283v-1075h-283zM975 1376q0 -32 -13 -60t-34.5 -50t-50.5 -34.5t-60 -12.5q-33 0 -62.5 12.5t-51.5 34.5t-35 50t-13 60
q0 33 13 62t35 51t51.5 34.5t62.5 12.5q31 0 60 -12.5t50.5 -34.5t34.5 -51t13 -62zM533 1376q0 -32 -13 -60t-35 -50t-51 -34.5t-61 -12.5t-61 12.5t-51 34.5t-35 50t-13 60q0 33 13 62t35 51t51 34.5t61 12.5t61 -12.5t51 -34.5t35 -51t13 -62z" />
    <glyph glyph-name="yacute" unicode="&#xfd;" horiz-adv-x="1208" 
d="M604 -379h-278l143 379l-418 1075h311l246 -724l246 724h303zM676 1201h-239l178 327h358z" />
    <glyph glyph-name="thorn" unicode="&#xfe;" horiz-adv-x="1151" 
d="M1065 524q0 -120 -28 -220.5t-81.5 -173t-131 -113t-177.5 -40.5q-71 0 -130 24.5t-97 59.5v-315l-283 -141v1747l283 141v-485q20 18 43.5 34t51.5 28.5t61 20t71 7.5q86 0 162 -33t133 -103t90 -178.5t33 -259.5zM778 518q0 83 -13 142t-37 97t-58 56t-76 18
q-65 0 -106 -26t-68 -64v-405q17 -24 37 -41t45.5 -29t49 -17t58.5 -5q82 0 125 69t43 205z" />
    <glyph glyph-name="ydieresis" unicode="&#xff;" horiz-adv-x="1208" 
d="M604 -379h-278l143 379l-418 1075h311l246 -724l246 724h303zM983 1358q0 -32 -13 -60t-34.5 -50t-50.5 -34.5t-60 -12.5q-33 0 -62.5 12.5t-51.5 34.5t-35 50t-13 60q0 33 13 62t35 51t51.5 34.5t62.5 12.5q31 0 60 -12.5t50.5 -34.5t34.5 -51t13 -62zM541 1358
q0 -32 -13 -60t-35 -50t-51 -34.5t-61 -12.5t-61 12.5t-51 34.5t-35 50t-13 60q0 33 13 62t35 51t51 34.5t61 12.5t61 -12.5t51 -34.5t35 -51t13 -62z" />
    <glyph glyph-name="Amacron" unicode="&#x100;" horiz-adv-x="1536" 
d="M1454 0h-315l-113 319h-524l-113 -319h-307l549 1434h278zM928 592l-164 467l-164 -467h328zM471 1556v215h594v-215h-594z" />
    <glyph glyph-name="amacron" unicode="&#x101;" horiz-adv-x="1139" 
d="M729 0v72q-19 -20 -43 -36.5t-58 -31t-69 -21t-72 -6.5q-75 0 -147 23.5t-128.5 70.5t-91 119t-34.5 170q0 89 34 156t93 111.5t138.5 67t170.5 22.5q75 0 124 -13t83 -30v53q0 60 -40 98.5t-114 38.5q-94 0 -153 -13.5t-141 -57.5l-109 196q102 60 193.5 84.5
t209.5 24.5q98 0 178.5 -25t138 -73t89 -118t31.5 -161v-721h-283zM729 451q-18 11 -37 19.5t-42 14t-51.5 8.5t-66.5 3q-80 0 -121.5 -35.5t-41.5 -100.5q0 -28 8.5 -54t28 -45.5t50.5 -31.5t76 -12q35 0 65.5 8t56 21.5t44.5 31.5t31 37v136zM272 1249v215h594v-215h-594z
" />
    <glyph glyph-name="Abreve" unicode="&#x102;" horiz-adv-x="1536" 
d="M1454 0h-315l-113 319h-524l-113 -319h-307l549 1434h278zM928 592l-164 467l-164 -467h328zM766 1526q-84 0 -149.5 22t-113.5 64t-77.5 102.5t-40.5 138.5h172q20 -68 71 -100.5t142 -32.5q93 0 143.5 31t71.5 102h166q-11 -78 -42.5 -138.5t-81 -102.5t-115.5 -64
t-146 -22z" />
    <glyph glyph-name="abreve" unicode="&#x103;" horiz-adv-x="1139" 
d="M729 0v72q-19 -20 -43 -36.5t-58 -31t-69 -21t-72 -6.5q-75 0 -147 23.5t-128.5 70.5t-91 119t-34.5 170q0 89 34 156t93 111.5t138.5 67t170.5 22.5q75 0 124 -13t83 -30v53q0 60 -40 98.5t-114 38.5q-94 0 -153 -13.5t-141 -57.5l-109 196q102 60 193.5 84.5
t209.5 24.5q98 0 178.5 -25t138 -73t89 -118t31.5 -161v-721h-283zM729 451q-18 11 -37 19.5t-42 14t-51.5 8.5t-66.5 3q-80 0 -121.5 -35.5t-41.5 -100.5q0 -28 8.5 -54t28 -45.5t50.5 -31.5t76 -12q35 0 65.5 8t56 21.5t44.5 31.5t31 37v136zM567 1219q-84 0 -149.5 22
t-113.5 64t-77.5 102.5t-40.5 138.5h172q20 -68 71 -100.5t142 -32.5q93 0 143.5 31t71.5 102h166q-11 -78 -42.5 -138.5t-81 -102.5t-115.5 -64t-146 -22z" />
    <glyph glyph-name="Aogonek" unicode="&#x104;" horiz-adv-x="1536" 
d="M1454 0h-315l-113 319h-524l-113 -319h-307l549 1434h278zM928 592l-164 467l-164 -467h328zM1423 0q-62 -4 -107 -19t-74 -36.5t-43 -46t-14 -48.5q0 -37 24 -57t70 -20q21 0 43 7t39 17l62 -123q-62 -41 -120 -63.5t-132 -22.5q-51 0 -91.5 15t-69 40.5t-43.5 58
t-15 67.5q0 44 16 80.5t42.5 65t60 50t69.5 35.5h283z" />
    <glyph glyph-name="aogonek" unicode="&#x105;" horiz-adv-x="1139" 
d="M729 0v72q-19 -20 -43 -36.5t-58 -31t-69 -21t-72 -6.5q-75 0 -147 23.5t-128.5 70.5t-91 119t-34.5 170q0 89 34 156t93 111.5t138.5 67t170.5 22.5q75 0 124 -13t83 -30v53q0 60 -40 98.5t-114 38.5q-94 0 -153 -13.5t-141 -57.5l-109 196q102 60 193.5 84.5
t209.5 24.5q98 0 178.5 -25t138 -73t89 -118t31.5 -161v-721h-283zM729 451q-18 11 -37 19.5t-42 14t-51.5 8.5t-66.5 3q-80 0 -121.5 -35.5t-41.5 -100.5q0 -28 8.5 -54t28 -45.5t50.5 -31.5t76 -12q35 0 65.5 8t56 21.5t44.5 31.5t31 37v136zM1012 0q-62 -4 -107 -19
t-74 -36.5t-43 -46t-14 -48.5q0 -37 24 -57t70 -20q21 0 43 7t39 17l62 -123q-62 -41 -120 -63.5t-132 -22.5q-51 0 -91.5 15t-69 40.5t-43.5 58t-15 67.5q0 44 16 80.5t42.5 65t60 50t69.5 35.5h283z" />
    <glyph glyph-name="Cacute" unicode="&#x106;" horiz-adv-x="1372" 
d="M1004 1016q-24 46 -46 69t-54 43.5t-71 31.5t-92 11q-81 0 -143.5 -33.5t-106 -93.5t-66 -143.5t-22.5 -183.5q0 -97 23 -180t66.5 -144t106.5 -96t144 -35q88 0 152.5 38t128.5 144l242 -143q-37 -76 -88 -136t-117 -102t-147.5 -64t-178.5 -22q-98 0 -178.5 23.5
t-151.5 68.5t-126 110t-88 135t-57.5 171.5t-24.5 231.5q0 163 47 299t131 234t201 152t257 54q181 0 314 -78.5t211 -238.5zM786 1526h-239l178 327h358z" />
    <glyph glyph-name="cacute" unicode="&#x107;" horiz-adv-x="1100" 
d="M1026 217q-39 -52 -82.5 -96t-96.5 -76t-117 -50t-144 -18q-105 0 -197 41t-160.5 115t-107.5 177t-39 227q0 123 38.5 226.5t107.5 177.5t163.5 115.5t206.5 41.5q136 0 242 -59.5t184 -178.5l-186 -188q-24 34 -49.5 62t-54.5 48t-64 31.5t-78 11.5q-51 0 -92 -20.5
t-70 -58t-45 -90.5t-16 -119q0 -65 16 -117.5t45 -90.5t70 -58.5t92 -20.5q41 0 75.5 9t65 26.5t58 43t55.5 58.5zM633 1219h-239l178 327h358z" />
    <glyph glyph-name="Ccircumflex" unicode="&#x108;" horiz-adv-x="1372" 
d="M1004 1016q-24 46 -46 69t-54 43.5t-71 31.5t-92 11q-81 0 -143.5 -33.5t-106 -93.5t-66 -143.5t-22.5 -183.5q0 -97 23 -180t66.5 -144t106.5 -96t144 -35q88 0 152.5 38t128.5 144l242 -143q-37 -76 -88 -136t-117 -102t-147.5 -64t-178.5 -22q-98 0 -178.5 23.5
t-151.5 68.5t-126 110t-88 135t-57.5 171.5t-24.5 231.5q0 163 47 299t131 234t201 152t257 54q181 0 314 -78.5t211 -238.5zM930 1516l-205 153l-205 -153h-186l250 327h286l250 -327h-190z" />
    <glyph glyph-name="ccircumflex" unicode="&#x109;" horiz-adv-x="1100" 
d="M1026 217q-39 -52 -82.5 -96t-96.5 -76t-117 -50t-144 -18q-105 0 -197 41t-160.5 115t-107.5 177t-39 227q0 123 38.5 226.5t107.5 177.5t163.5 115.5t206.5 41.5q136 0 242 -59.5t184 -178.5l-186 -188q-24 34 -49.5 62t-54.5 48t-64 31.5t-78 11.5q-51 0 -92 -20.5
t-70 -58t-45 -90.5t-16 -119q0 -65 16 -117.5t45 -90.5t70 -58.5t92 -20.5q41 0 75.5 9t65 26.5t58 43t55.5 58.5zM797 1201l-205 153l-205 -153h-186l250 327h286l250 -327h-190z" />
    <glyph glyph-name="Cdotaccent" unicode="&#x10a;" horiz-adv-x="1372" 
d="M1004 1016q-24 46 -46 69t-54 43.5t-71 31.5t-92 11q-81 0 -143.5 -33.5t-106 -93.5t-66 -143.5t-22.5 -183.5q0 -97 23 -180t66.5 -144t106.5 -96t144 -35q88 0 152.5 38t128.5 144l242 -143q-37 -76 -88 -136t-117 -102t-147.5 -64t-178.5 -22q-98 0 -178.5 23.5
t-151.5 68.5t-126 110t-88 135t-57.5 171.5t-24.5 231.5q0 163 47 299t131 234t201 152t257 54q181 0 314 -78.5t211 -238.5zM895 1683q0 -32 -13 -60t-34.5 -50t-50.5 -34.5t-60 -12.5q-33 0 -62.5 12.5t-51.5 34.5t-35 50t-13 60q0 33 13 62t35 51t51.5 34.5t62.5 12.5
q31 0 60 -12.5t50.5 -34.5t34.5 -51t13 -62z" />
    <glyph glyph-name="cdotaccent" unicode="&#x10b;" horiz-adv-x="1100" 
d="M1026 217q-39 -52 -82.5 -96t-96.5 -76t-117 -50t-144 -18q-105 0 -197 41t-160.5 115t-107.5 177t-39 227q0 123 38.5 226.5t107.5 177.5t163.5 115.5t206.5 41.5q136 0 242 -59.5t184 -178.5l-186 -188q-24 34 -49.5 62t-54.5 48t-64 31.5t-78 11.5q-51 0 -92 -20.5
t-70 -58t-45 -90.5t-16 -119q0 -65 16 -117.5t45 -90.5t70 -58.5t92 -20.5q41 0 75.5 9t65 26.5t58 43t55.5 58.5zM750 1376q0 -32 -13 -60t-34.5 -50t-50.5 -34.5t-60 -12.5q-33 0 -62.5 12.5t-51.5 34.5t-35 50t-13 60q0 33 13 62t35 51t51.5 34.5t62.5 12.5
q31 0 60 -12.5t50.5 -34.5t34.5 -51t13 -62z" />
    <glyph glyph-name="Ccaron" unicode="&#x10c;" horiz-adv-x="1372" 
d="M1004 1016q-24 46 -46 69t-54 43.5t-71 31.5t-92 11q-81 0 -143.5 -33.5t-106 -93.5t-66 -143.5t-22.5 -183.5q0 -97 23 -180t66.5 -144t106.5 -96t144 -35q88 0 152.5 38t128.5 144l242 -143q-37 -76 -88 -136t-117 -102t-147.5 -64t-178.5 -22q-98 0 -178.5 23.5
t-151.5 68.5t-126 110t-88 135t-57.5 171.5t-24.5 231.5q0 163 47 299t131 234t201 152t257 54q181 0 314 -78.5t211 -238.5zM868 1526h-286l-250 327h190l205 -153l205 153h186z" />
    <glyph glyph-name="ccaron" unicode="&#x10d;" horiz-adv-x="1100" 
d="M1026 217q-39 -52 -82.5 -96t-96.5 -76t-117 -50t-144 -18q-105 0 -197 41t-160.5 115t-107.5 177t-39 227q0 123 38.5 226.5t107.5 177.5t163.5 115.5t206.5 41.5q136 0 242 -59.5t184 -178.5l-186 -188q-24 34 -49.5 62t-54.5 48t-64 31.5t-78 11.5q-51 0 -92 -20.5
t-70 -58t-45 -90.5t-16 -119q0 -65 16 -117.5t45 -90.5t70 -58.5t92 -20.5q41 0 75.5 9t65 26.5t58 43t55.5 58.5zM737 1219h-286l-250 327h190l205 -153l205 153h186z" />
    <glyph glyph-name="Dcaron" unicode="&#x10e;" horiz-adv-x="1448" 
d="M1346 717q0 -126 -28.5 -228t-79.5 -182t-120.5 -137.5t-151 -95.5t-172 -56t-182.5 -18h-428v1434h449q153 0 284 -38.5t226 -123.5t149 -222t54 -333zM1051 717q0 110 -24.5 192t-76 137t-132.5 82t-195 27h-152v-876h141q113 0 195.5 31.5t136.5 89t80.5 138.5
t26.5 179zM866 1526h-286l-250 327h190l205 -153l205 153h186z" />
    <glyph glyph-name="dcaron" unicode="&#x10f;" horiz-adv-x="1354" 
d="M727 0v68q-21 -19 -43 -33.5t-50 -29t-61 -21.5t-73 -7q-86 0 -162 33.5t-133 103.5t-90 178.5t-33 258.5q0 120 28 220.5t81 173t131 113t178 40.5q37 0 69 -6t63 -19.5t53.5 -27.5t41.5 -31v338l283 141v-1493h-283zM727 739q-16 22 -34 38t-41.5 28.5t-53 19
t-61.5 6.5q-82 0 -125 -69t-43 -205q0 -83 13 -142t37 -97t58 -56t76 -18q33 0 58.5 6.5t46 18.5t37.5 28.5t32 36.5v405zM1299.71 915.988h-156.726l23.4277 465.223h269.019z" />
    <glyph glyph-name="Dcroat" unicode="&#x110;" horiz-adv-x="1479" 
d="M1376 717q0 -163 -50 -294t-149 -226.5t-237.5 -146t-296.5 -50.5h-428v631h-133v235h133v568h449q153 0 283.5 -38.5t226 -123.5t149 -222t53.5 -333zM1081 717q0 110 -24.5 192t-76 137t-132.5 82t-195 27h-159v-289h192v-235h-192v-352h149q113 0 195.5 31.5t136.5 89
t80 138.5t26 179z" />
    <glyph glyph-name="dcroat" unicode="&#x111;" horiz-adv-x="1200" 
d="M553 244q33 0 58.5 6.5t46 18.5t37.5 28.5t32 36.5v405q-66 92 -190 92q-82 0 -125 -69t-43 -205q0 -83 13 -142t37 -97t58 -56t76 -18zM1010 1493v-193h149v-215h-149v-1085h-283v68q-40 -36 -95 -63.5t-132 -27.5q-86 0 -162 33.5t-133 103.5t-90 178.5t-33 258.5
q0 120 28 220.5t81 173t131 113t178 40.5q37 0 71 -7.5t63 -19.5t52.5 -27t40.5 -30v338z" />
    <glyph glyph-name="Emacron" unicode="&#x112;" horiz-adv-x="1331" 
d="M1210 0h-1026v1434h996v-281h-709v-248h576v-278h-576v-346h739v-281zM389 1556v215h594v-215h-594z" />
    <glyph glyph-name="emacron" unicode="&#x113;" horiz-adv-x="1102" 
d="M1014 537q0 -31 -1 -53t-3 -38h-643q4 -55 24.5 -93.5t51 -62.5t68.5 -35t77 -11q29 0 54 4.5t50.5 15t45 24.5t34.5 31l201 -167q-32 -42 -76 -74.5t-95 -55t-105.5 -34t-108.5 -11.5q-89 0 -159.5 21.5t-123.5 57.5t-94 83.5t-69 106t-44 131t-16 160.5
q0 123 36.5 226.5t101 177.5t152 115.5t189.5 41.5q108 0 192 -44.5t142 -121t88.5 -178.5t30.5 -217zM739 659q-3 36 -15.5 71t-36 62t-58 43.5t-82.5 16.5q-39 0 -69.5 -15t-53 -41t-36 -61t-17.5 -76h368zM254 1249v215h594v-215h-594z" />
    <glyph glyph-name="Ebreve" unicode="&#x114;" horiz-adv-x="1331" 
d="M1210 0h-1026v1434h996v-281h-709v-248h576v-278h-576v-346h739v-281zM688 1504q-84 0 -149.5 22t-113.5 64t-77.5 102.5t-40.5 138.5h172q20 -68 71 -100.5t142 -32.5q93 0 143.5 31t71.5 102h166q-11 -78 -42.5 -138.5t-81 -102.5t-115.5 -64t-146 -22z" />
    <glyph glyph-name="ebreve" unicode="&#x115;" horiz-adv-x="1102" 
d="M1014 537q0 -31 -1 -53t-3 -38h-643q4 -55 24.5 -93.5t51 -62.5t68.5 -35t77 -11q29 0 54 4.5t50.5 15t45 24.5t34.5 31l201 -167q-32 -42 -76 -74.5t-95 -55t-105.5 -34t-108.5 -11.5q-89 0 -159.5 21.5t-123.5 57.5t-94 83.5t-69 106t-44 131t-16 160.5
q0 123 36.5 226.5t101 177.5t152 115.5t189.5 41.5q108 0 192 -44.5t142 -121t88.5 -178.5t30.5 -217zM739 659q-3 36 -15.5 71t-36 62t-58 43.5t-82.5 16.5q-39 0 -69.5 -15t-53 -41t-36 -61t-17.5 -76h368zM549 1219q-84 0 -149.5 22t-113.5 64t-77.5 102.5t-40.5 138.5
h172q20 -68 71 -100.5t142 -32.5q93 0 143.5 31t71.5 102h166q-11 -78 -42.5 -138.5t-81 -102.5t-115.5 -64t-146 -22z" />
    <glyph glyph-name="Edotaccent" unicode="&#x116;" horiz-adv-x="1331" 
d="M1210 0h-1026v1434h996v-281h-709v-248h576v-278h-576v-346h739v-281zM844 1683q0 -32 -13 -60t-34.5 -50t-50.5 -34.5t-60 -12.5q-33 0 -62.5 12.5t-51.5 34.5t-35 50t-13 60q0 33 13 62t35 51t51.5 34.5t62.5 12.5q31 0 60 -12.5t50.5 -34.5t34.5 -51t13 -62z" />
    <glyph glyph-name="edotaccent" unicode="&#x117;" horiz-adv-x="1102" 
d="M1014 537q0 -31 -1 -53t-3 -38h-643q4 -55 24.5 -93.5t51 -62.5t68.5 -35t77 -11q29 0 54 4.5t50.5 15t45 24.5t34.5 31l201 -167q-32 -42 -76 -74.5t-95 -55t-105.5 -34t-108.5 -11.5q-89 0 -159.5 21.5t-123.5 57.5t-94 83.5t-69 106t-44 131t-16 160.5
q0 123 36.5 226.5t101 177.5t152 115.5t189.5 41.5q108 0 192 -44.5t142 -121t88.5 -178.5t30.5 -217zM739 659q-3 36 -15.5 71t-36 62t-58 43.5t-82.5 16.5q-39 0 -69.5 -15t-53 -41t-36 -61t-17.5 -76h368zM709 1376q0 -32 -13 -60t-34.5 -50t-50.5 -34.5t-60 -12.5
q-33 0 -62.5 12.5t-51.5 34.5t-35 50t-13 60q0 33 13 62t35 51t51.5 34.5t62.5 12.5q31 0 60 -12.5t50.5 -34.5t34.5 -51t13 -62z" />
    <glyph glyph-name="Eogonek" unicode="&#x118;" horiz-adv-x="1331" 
d="M1210 0h-1026v1434h996v-281h-709v-248h576v-278h-576v-346h739v-281zM1210 0q-62 -4 -107 -19t-74 -36.5t-43 -46t-14 -48.5q0 -37 24 -57t70 -20q21 0 43 7t39 17l62 -123q-62 -41 -120 -63.5t-132 -22.5q-51 0 -91.5 15t-69 40.5t-43.5 58t-15 67.5q0 44 16 80.5
t42.5 65t60 50t69.5 35.5h283z" />
    <glyph glyph-name="eogonek" unicode="&#x119;" horiz-adv-x="1102" 
d="M772 319l201 -167q-40 -48 -84 -79t-87.5 -52.5t-83.5 -37.5t-74 -35t-55 -46t-21 -67q0 -30 23 -46t64 -16q12 0 26.5 3.5t55.5 20.5l62 -123q-72 -47 -129.5 -66.5t-122.5 -19.5q-51 0 -91.5 15t-69 40.5t-43.5 58t-15 67.5q0 73 44.5 130t110.5 87q-93 17 -167 63
t-126 117t-80 165t-28 206q0 123 36.5 226.5t101 177.5t152 115.5t189.5 41.5q108 0 192 -44.5t142 -121t88.5 -178.5t30.5 -217q0 -31 -1 -53t-3 -38h-643q4 -55 24.5 -93.5t51 -62.5t68.5 -35t77 -11q59 0 106 20t78 55zM739 659q-3 36 -15.5 71t-36 62t-58 43.5
t-82.5 16.5q-39 0 -69.5 -15t-53 -41t-36 -61t-17.5 -76h368z" />
    <glyph glyph-name="Ecaron" unicode="&#x11a;" horiz-adv-x="1331" 
d="M1210 0h-1026v1434h996v-281h-709v-248h576v-278h-576v-346h739v-281zM817 1526h-286l-250 327h190l205 -153l205 153h186z" />
    <glyph glyph-name="ecaron" unicode="&#x11b;" horiz-adv-x="1102" 
d="M1014 537q0 -31 -1 -53t-3 -38h-643q4 -55 24.5 -93.5t51 -62.5t68.5 -35t77 -11q29 0 54 4.5t50.5 15t45 24.5t34.5 31l201 -167q-32 -42 -76 -74.5t-95 -55t-105.5 -34t-108.5 -11.5q-89 0 -159.5 21.5t-123.5 57.5t-94 83.5t-69 106t-44 131t-16 160.5
q0 123 36.5 226.5t101 177.5t152 115.5t189.5 41.5q108 0 192 -44.5t142 -121t88.5 -178.5t30.5 -217zM739 659q-3 36 -15.5 71t-36 62t-58 43.5t-82.5 16.5q-39 0 -69.5 -15t-53 -41t-36 -61t-17.5 -76h368zM694 1219h-286l-250 327h190l205 -153l205 153h186z" />
    <glyph glyph-name="Gcircumflex" unicode="&#x11c;" horiz-adv-x="1430" 
d="M1311 555q0 -138 -43.5 -246t-120 -181.5t-182.5 -112t-230 -38.5q-141 0 -256 52t-197.5 148t-127.5 233t-45 307q0 163 47 299t131 234t201 152t257 54q215 0 346 -96.5t197 -261.5l-272 -113q-20 40 -43.5 74t-55.5 59t-75 39t-101 14q-81 0 -143.5 -33.5t-106 -93.5
t-66 -143.5t-22.5 -183.5q0 -99 23 -183t66.5 -145.5t106.5 -96t144 -34.5q122 0 191.5 48t87.5 155l2 14h-227v268h514v-188zM940 1516l-205 153l-205 -153h-186l250 327h286l250 -327h-190z" />
    <glyph glyph-name="gcircumflex" unicode="&#x11d;" horiz-adv-x="1151" 
d="M1010 166q0 -150 -34.5 -254.5t-101.5 -167.5q-62 -59 -154.5 -96t-223.5 -45l-84 225q94 8 155.5 23.5t94.5 39.5q30 22 47 61.5t18 108.5v7q-20 -18 -42.5 -33t-51 -29.5t-61 -21.5t-72.5 -7q-86 0 -162 33.5t-133 103.5t-90 178.5t-33 258.5q0 120 28 220.5t81 173
t131 113t178 40.5q34 0 67.5 -6t65 -19.5t53.5 -27.5t41 -31v61h283v-909zM553 244q58 0 99.5 22.5t74.5 67.5v405q-16 22 -32.5 37t-40.5 28t-53 20t-64 7q-82 0 -125 -69t-43 -205q0 -161 48.5 -237t135.5 -76zM778 1201l-205 153l-205 -153h-186l250 327h286l250 -327
h-190z" />
    <glyph glyph-name="Gbreve" unicode="&#x11e;" horiz-adv-x="1430" 
d="M1311 555q0 -138 -43.5 -246t-120 -181.5t-182.5 -112t-230 -38.5q-141 0 -256 52t-197.5 148t-127.5 233t-45 307q0 163 47 299t131 234t201 152t257 54q215 0 346 -96.5t197 -261.5l-272 -113q-20 40 -43.5 74t-55.5 59t-75 39t-101 14q-81 0 -143.5 -33.5t-106 -93.5
t-66 -143.5t-22.5 -183.5q0 -99 23 -183t66.5 -145.5t106.5 -96t144 -34.5q122 0 191.5 48t87.5 155l2 14h-227v268h514v-188zM737 1524q-84 0 -149.5 22t-113.5 64t-77.5 102.5t-40.5 138.5h172q20 -68 71 -100.5t142 -32.5q93 0 143.5 31t71.5 102h166
q-11 -78 -42.5 -138.5t-81 -102.5t-115.5 -64t-146 -22z" />
    <glyph glyph-name="gbreve" unicode="&#x11f;" horiz-adv-x="1151" 
d="M1010 166q0 -150 -34.5 -254.5t-101.5 -167.5q-62 -59 -154.5 -96t-223.5 -45l-84 225q94 8 155.5 23.5t94.5 39.5q30 22 47 61.5t18 108.5v7q-20 -18 -42.5 -33t-51 -29.5t-61 -21.5t-72.5 -7q-86 0 -162 33.5t-133 103.5t-90 178.5t-33 258.5q0 120 28 220.5t81 173
t131 113t178 40.5q34 0 67.5 -6t65 -19.5t53.5 -27.5t41 -31v61h283v-909zM553 244q58 0 99.5 22.5t74.5 67.5v405q-16 22 -32.5 37t-40.5 28t-53 20t-64 7q-82 0 -125 -69t-43 -205q0 -161 48.5 -237t135.5 -76zM573 1219q-84 0 -149.5 22t-113.5 64t-77.5 102.5
t-40.5 138.5h172q20 -68 71 -100.5t142 -32.5q93 0 143.5 31t71.5 102h166q-11 -78 -42.5 -138.5t-81 -102.5t-115.5 -64t-146 -22z" />
    <glyph glyph-name="Gdotaccent" unicode="&#x120;" horiz-adv-x="1430" 
d="M1311 555q0 -138 -43.5 -246t-120 -181.5t-182.5 -112t-230 -38.5q-141 0 -256 52t-197.5 148t-127.5 233t-45 307q0 163 47 299t131 234t201 152t257 54q215 0 346 -96.5t197 -261.5l-272 -113q-20 40 -43.5 74t-55.5 59t-75 39t-101 14q-81 0 -143.5 -33.5t-106 -93.5
t-66 -143.5t-22.5 -183.5q0 -99 23 -183t66.5 -145.5t106.5 -96t144 -34.5q122 0 191.5 48t87.5 155l2 14h-227v268h514v-188zM895 1683q0 -32 -13 -60t-34.5 -50t-50.5 -34.5t-60 -12.5q-33 0 -62.5 12.5t-51.5 34.5t-35 50t-13 60q0 33 13 62t35 51t51.5 34.5t62.5 12.5
q31 0 60 -12.5t50.5 -34.5t34.5 -51t13 -62z" />
    <glyph glyph-name="gdotaccent" unicode="&#x121;" horiz-adv-x="1151" 
d="M1010 166q0 -150 -34.5 -254.5t-101.5 -167.5q-62 -59 -154.5 -96t-223.5 -45l-84 225q94 8 155.5 23.5t94.5 39.5q30 22 47 61.5t18 108.5v7q-20 -18 -42.5 -33t-51 -29.5t-61 -21.5t-72.5 -7q-86 0 -162 33.5t-133 103.5t-90 178.5t-33 258.5q0 120 28 220.5t81 173
t131 113t178 40.5q34 0 67.5 -6t65 -19.5t53.5 -27.5t41 -31v61h283v-909zM553 244q58 0 99.5 22.5t74.5 67.5v405q-16 22 -32.5 37t-40.5 28t-53 20t-64 7q-82 0 -125 -69t-43 -205q0 -161 48.5 -237t135.5 -76zM736 1376q0 -32 -13 -60t-34.5 -50t-50.5 -34.5t-60 -12.5
q-33 0 -62.5 12.5t-51.5 34.5t-35 50t-13 60q0 33 13 62t35 51t51.5 34.5t62.5 12.5q31 0 60 -12.5t50.5 -34.5t34.5 -51t13 -62z" />
    <glyph glyph-name="Gcommaaccent" unicode="&#x122;" horiz-adv-x="1430" 
d="M1311 555q0 -138 -43.5 -246t-120 -181.5t-182.5 -112t-230 -38.5q-141 0 -256 52t-197.5 148t-127.5 233t-45 307q0 163 47 299t131 234t201 152t257 54q215 0 346 -96.5t197 -261.5l-272 -113q-20 40 -43.5 74t-55.5 59t-75 39t-101 14q-81 0 -143.5 -33.5t-106 -93.5
t-66 -143.5t-22.5 -183.5q0 -99 23 -183t66.5 -145.5t106.5 -96t144 -34.5q122 0 191.5 48t87.5 155l2 14h-227v268h514v-188zM734 -491h-149l22 392h233z" />
    <glyph glyph-name="gcommaaccent" unicode="&#x123;" horiz-adv-x="1151" 
d="M1010 166q0 -150 -34.5 -254.5t-101.5 -167.5q-62 -59 -154.5 -96t-223.5 -45l-84 225q94 8 155.5 23.5t94.5 39.5q30 22 47 61.5t18 108.5v7q-20 -18 -42.5 -33t-51 -29.5t-61 -21.5t-72.5 -7q-86 0 -162 33.5t-133 103.5t-90 178.5t-33 258.5q0 120 28 220.5t81 173
t131 113t178 40.5q34 0 67.5 -6t65 -19.5t53.5 -27.5t41 -31v61h283v-909zM553 244q58 0 99.5 22.5t74.5 67.5v405q-16 22 -32.5 37t-40.5 28t-53 20t-64 7q-82 0 -125 -69t-43 -205q0 -161 48.5 -237t135.5 -76zM580.767 1622.45h161.786l-23.8877 -425.09h-252.995z" />
    <glyph glyph-name="Hcircumflex" unicode="&#x124;" horiz-adv-x="1530" 
d="M1059 0v602h-588v-602h-287v1434h287v-549h588v549h287v-1434h-287zM967 1506l-205 153l-205 -153h-186l250 327h286l250 -327h-190z" />
    <glyph glyph-name="hcircumflex" unicode="&#x125;" horiz-adv-x="1196" 
d="M786 0v582q0 128 -40.5 188.5t-141.5 60.5q-44 0 -78 -12t-57.5 -40t-36 -74.5t-12.5 -116.5v-588h-283v1352l283 141v-489q17 18 44 35.5t59 31t68.5 20.5t80.5 7q103 0 177.5 -34.5t123.5 -98t72.5 -154.5t23.5 -205v-606h-283zM801 1506l-205 153l-205 -153h-186
l250 327h286l250 -327h-190z" />
    <glyph glyph-name="Hbar" unicode="&#x126;" horiz-adv-x="1530" 
d="M1059 0v602h-588v-602h-287v1010h-102v282h102v142h287v-142h588v142h287v-142h104v-282h-104v-1010h-287zM1059 885v125h-588v-125h588z" />
    <glyph glyph-name="hbar" unicode="&#x127;" horiz-adv-x="1196" 
d="M786 0v582q0 72 -12 120t-35 76.5t-57 40.5t-78 12t-78 -12t-57.5 -40t-36 -74.5t-12.5 -116.5v-588h-283v1085h-149v215h149v52l283 141v-489q37 38 102 66t150 28q103 0 177.5 -34.5t123.5 -98t72.5 -154.5t23.5 -205v-606h-283z" />
    <glyph glyph-name="Itilde" unicode="&#x128;" horiz-adv-x="696" 
d="M205 0v1434h287v-1434h-287zM752 1814q0 -68 -17.5 -123t-48.5 -93t-74.5 -58.5t-95.5 -20.5q-32 0 -57 3.5t-48 11t-47 19.5t-55 30q-23 14 -51.5 27.5t-54.5 13.5q-29 0 -45 -22t-25 -76h-184q0 68 17 122.5t48 92.5t74.5 58.5t95.5 20.5q32 0 57 -3t48 -10.5t47 -19.5
t55 -30q24 -14 52 -27.5t55 -13.5q29 0 44.5 22t24.5 76h185z" />
    <glyph glyph-name="itilde" unicode="&#x129;" horiz-adv-x="578" 
d="M147 0v1075h283v-1075h-283zM693 1507q0 -68 -17.5 -123t-48.5 -93t-74.5 -58.5t-95.5 -20.5q-32 0 -57 3.5t-48 11t-47 19.5t-55 30q-23 14 -51.5 27.5t-54.5 13.5q-29 0 -45 -22t-25 -76h-184q0 68 17 122.5t48 92.5t74.5 58.5t95.5 20.5q32 0 57 -3t48 -10.5t47 -19.5
t55 -30q24 -14 52 -27.5t55 -13.5q29 0 44.5 22t24.5 76h185z" />
    <glyph glyph-name="Imacron" unicode="&#x12a;" horiz-adv-x="696" 
d="M205 0v1434h287v-1434h-287zM53 1556v215h594v-215h-594z" />
    <glyph glyph-name="imacron" unicode="&#x12b;" horiz-adv-x="578" 
d="M147 0v1075h283v-1075h-283zM-6 1249v215h594v-215h-594z" />
    <glyph glyph-name="Ibreve" unicode="&#x12c;" horiz-adv-x="696" 
d="M205 0v1434h287v-1434h-287zM348 1504q-84 0 -149.5 22t-113.5 64t-77.5 102.5t-40.5 138.5h172q20 -68 71 -100.5t142 -32.5q93 0 143.5 31t71.5 102h166q-11 -78 -42.5 -138.5t-81 -102.5t-115.5 -64t-146 -22z" />
    <glyph glyph-name="ibreve" unicode="&#x12d;" horiz-adv-x="578" 
d="M147 0v1075h283v-1075h-283zM289 1219q-84 0 -149.5 22t-113.5 64t-77.5 102.5t-40.5 138.5h172q20 -68 71 -100.5t142 -32.5q93 0 143.5 31t71.5 102h166q-11 -78 -42.5 -138.5t-81 -102.5t-115.5 -64t-146 -22z" />
    <glyph glyph-name="Iogonek" unicode="&#x12e;" horiz-adv-x="696" 
d="M205 0v1434h287v-1434h-287zM490 0q-62 -4 -107 -19t-74 -36.5t-43 -46t-14 -48.5q0 -37 24 -57t70 -20q21 0 43 7t39 17l62 -123q-62 -41 -120 -63.5t-132 -22.5q-51 0 -91.5 15t-69 40.5t-43.5 58t-15 67.5q0 44 16 80.5t42.5 65t60 50t69.5 35.5h283z" />
    <glyph glyph-name="iogonek" unicode="&#x12f;" horiz-adv-x="578" 
d="M451 1325q0 -33 -13 -62.5t-35 -51.5t-51.5 -35t-62.5 -13t-62.5 13t-51.5 35t-35 51.5t-13 62.5t13 62.5t35 51.5t51.5 35t62.5 13t62.5 -13t51.5 -35t35 -51.5t13 -62.5zM147 0v1075h283v-1075h-283zM431 0q-62 -4 -107 -19t-74 -36.5t-43 -46t-14 -48.5q0 -37 24 -57
t70 -20q21 0 43 7t39 17l62 -123q-62 -41 -120 -63.5t-132 -22.5q-51 0 -91.5 15t-69 40.5t-43.5 58t-15 67.5q0 44 16 80.5t42.5 65t60 50t69.5 35.5h283z" />
    <glyph glyph-name="Idotaccent" unicode="&#x130;" horiz-adv-x="696" 
d="M205 0v1434h287v-1434h-287zM510 1683q0 -32 -13 -60t-34.5 -50t-50.5 -34.5t-60 -12.5q-33 0 -62.5 12.5t-51.5 34.5t-35 50t-13 60q0 33 13 62t35 51t51.5 34.5t62.5 12.5q31 0 60 -12.5t50.5 -34.5t34.5 -51t13 -62z" />
    <glyph glyph-name="dotlessi" unicode="&#x131;" horiz-adv-x="578" 
d="M147 0v1075h283v-1075h-283z" />
    <glyph glyph-name="IJ" unicode="&#x132;" horiz-adv-x="2028" 
d="M205 0v1434h287v-1434h-287zM1853 598q0 -303 -140 -462t-403 -159q-107 0 -196 31t-158.5 87t-118 134t-75.5 172l280 76q24 -63 45.5 -97.5t54 -62.5t73.5 -41.5t95 -13.5q68 0 116.5 21.5t79.5 64.5t45.5 103t14.5 139v844h287v-836z" />
    <glyph glyph-name="ij" unicode="&#x133;" horiz-adv-x="1155" 
d="M451 1325q0 -33 -13 -62.5t-35 -51.5t-51.5 -35t-62.5 -13t-62.5 13t-51.5 35t-35 51.5t-13 62.5t13 62.5t35 51.5t51.5 35t62.5 13t62.5 -13t51.5 -35t35 -51.5t13 -62.5zM147 0v1075h283v-1075h-283zM1029 1325q0 -33 -13 -62.5t-35 -51.5t-51.5 -35t-62.5 -13
t-62.5 13t-51.5 35t-35 51.5t-13 62.5t13 62.5t35 51.5t51.5 35t62.5 13t62.5 -13t51.5 -35t35 -51.5t13 -62.5zM1008 80q0 -113 -19.5 -194t-67.5 -136.5t-129.5 -90t-205.5 -54.5l-98 217q73 14 119 30.5t72 43.5t36 68t10 104v1007h283v-995z" />
    <glyph glyph-name="Jcircumflex" unicode="&#x134;" horiz-adv-x="1331" 
d="M1157 598q0 -303 -140 -462t-403 -159q-107 0 -196 31t-158.5 87t-118 134t-75.5 172l280 76q24 -63 45.5 -97.5t54 -62.5t73.5 -41.5t95 -13.5q68 0 116.5 21.5t79.5 64.5t45.5 103t14.5 139v844h287v-836zM1217 1506l-205 153l-205 -153h-186l250 327h286l250 -327
h-190z" />
    <glyph glyph-name="jcircumflex" unicode="&#x135;" horiz-adv-x="578" 
d="M430 80q0 -113 -19.5 -194t-67.5 -136.5t-129.5 -90t-205.5 -54.5l-98 217q73 14 119 30.5t72 43.5t36 68t10 104v1007h283v-995zM492 1219l-205 153l-205 -153h-186l249 327h287l250 -327h-190z" />
    <glyph glyph-name="Kcommaaccent" unicode="&#x136;" horiz-adv-x="1475" 
d="M1434 0h-344l-390 692l-229 -270v-422h-287v1434h287v-623l510 623h346l-420 -496zM759 -481h-149l22 392h233z" />
    <glyph glyph-name="kcommaaccent" unicode="&#x137;" horiz-adv-x="1128" 
d="M762 0l-205 496l-137 -170v-326h-283v1352l283 141v-786l285 368h333l-276 -342l309 -733h-309zM595 -491h-149l22 392h233z" />
    <glyph glyph-name="kgreenlandic" unicode="&#x138;" horiz-adv-x="1128" 
d="M762 0l-205 496l-137 -170v-326h-283v1075h283v-368l285 368h333l-276 -342l309 -733h-309z" />
    <glyph glyph-name="Lacute" unicode="&#x139;" 
d="M184 0v1434h287v-1151h719v-283h-1006zM434 1526h-239l178 327h358z" />
    <glyph glyph-name="lacute" unicode="&#x13a;" horiz-adv-x="578" 
d="M147 0v1352l283 141v-1493h-283zM362 1526h-239l178 327h358z" />
    <glyph glyph-name="Lcommaaccent" unicode="&#x13b;" 
d="M184 0v1434h287v-1151h719v-283h-1006zM667 -491h-149l22 392h233z" />
    <glyph glyph-name="lcommaaccent" unicode="&#x13c;" horiz-adv-x="578" 
d="M147 0v1352l283 141v-1493h-283zM304 -491h-149l22 392h233z" />
    <glyph glyph-name="Lcaron" unicode="&#x13d;" 
d="M184 0v1434h287v-1151h719v-283h-1006zM833.196 1169.98h-155.198l23.2002 466.559h266.396z" />
    <glyph glyph-name="lcaron" unicode="&#x13e;" horiz-adv-x="772" 
d="M147 0v1352l283 141v-1493h-283zM718.708 915.988h-156.726l23.4277 465.223h269.019z" />
    <glyph glyph-name="Ldot" unicode="&#x13f;" 
d="M184 0v1434h287v-1151h719v-283h-1006zM1026 754q0 -39 -15.5 -74.5t-41.5 -61.5t-61.5 -41.5t-74.5 -15.5t-74 15.5t-61 41.5t-41.5 61.5t-15.5 74.5t15.5 74t41.5 61t61 41.5t74 15.5t74.5 -15.5t61.5 -41.5t41.5 -61t15.5 -74z" />
    <glyph glyph-name="ldot" unicode="&#x140;" horiz-adv-x="1016" 
d="M147 0v1352l283 141v-1493h-283zM930 752q0 -39 -15.5 -74.5t-41.5 -61.5t-61.5 -41.5t-74.5 -15.5t-74 15.5t-61 41.5t-41.5 61.5t-15.5 74.5t15.5 74t41.5 61t61 41.5t74 15.5t74.5 -15.5t61.5 -41.5t41.5 -61t15.5 -74z" />
    <glyph glyph-name="Lslash" unicode="&#x141;" horiz-adv-x="1300" 
d="M215 0v483l-133 -102v276l133 103v674h283v-498l237 176v-276l-237 -177v-376h723v-283h-1006z" />
    <glyph glyph-name="lslash" unicode="&#x142;" horiz-adv-x="659" 
d="M469 641v-641h-279v489l-118 -81v276l118 82v586l279 141v-578l119 84v-276z" />
    <glyph glyph-name="Nacute" unicode="&#x143;" horiz-adv-x="1530" 
d="M1346 0h-256l-623 925v-925h-283v1434h275l604 -902v902h283v-1434zM835 1526h-239l178 327h358z" />
    <glyph glyph-name="nacute" unicode="&#x144;" horiz-adv-x="1196" 
d="M786 0v582q0 127 -40.5 188t-141.5 61q-44 0 -78 -12t-57.5 -40t-36 -74.5t-12.5 -116.5v-588h-283v1075h283v-71q18 18 43.5 35t59.5 31.5t71.5 21t77.5 6.5q103 0 177.5 -34.5t123.5 -98t72.5 -154.5t23.5 -205v-606h-283zM608 1219h-239l178 327h358z" />
    <glyph glyph-name="Ncommaaccent" unicode="&#x145;" horiz-adv-x="1530" 
d="M1346 0h-256l-623 925v-925h-283v1434h275l604 -902v902h283v-1434zM786 -481h-149l22 392h233z" />
    <glyph glyph-name="ncommaaccent" unicode="&#x146;" horiz-adv-x="1196" 
d="M786 0v582q0 127 -40.5 188t-141.5 61q-44 0 -78 -12t-57.5 -40t-36 -74.5t-12.5 -116.5v-588h-283v1075h283v-71q18 18 43.5 35t59.5 31.5t71.5 21t77.5 6.5q103 0 177.5 -34.5t123.5 -98t72.5 -154.5t23.5 -205v-606h-283zM620 -491h-149l22 392h233z" />
    <glyph glyph-name="Ncaron" unicode="&#x147;" horiz-adv-x="1530" 
d="M1346 0h-256l-623 925v-925h-283v1434h275l604 -902v902h283v-1434zM907 1526h-286l-250 327h190l205 -153l205 153h186z" />
    <glyph glyph-name="ncaron" unicode="&#x148;" horiz-adv-x="1196" 
d="M786 0v582q0 127 -40.5 188t-141.5 61q-44 0 -78 -12t-57.5 -40t-36 -74.5t-12.5 -116.5v-588h-283v1075h283v-71q18 18 43.5 35t59.5 31.5t71.5 21t77.5 6.5q103 0 177.5 -34.5t123.5 -98t72.5 -154.5t23.5 -205v-606h-283zM741 1219h-286l-250 327h190l205 -153
l205 153h186z" />
    <glyph glyph-name="napostrophe" unicode="&#x149;" horiz-adv-x="1675" 
d="M1265 0v582q0 127 -40.5 188t-141.5 61q-44 0 -78 -12t-57.5 -40t-36 -74.5t-12.5 -116.5v-588h-283v1075h283v-71q18 18 43.5 35t59.5 31.5t71.5 21t77.5 6.5q103 0 177.5 -34.5t123.5 -98t72.5 -154.5t23.5 -205v-606h-283zM319 858h-194l29 576h333z" />
    <glyph glyph-name="Eng" unicode="&#x14a;" horiz-adv-x="1530" 
d="M1346 80q0 -113 -19.5 -194t-68 -136.5t-130 -90t-204.5 -54.5l-99 217q69 13 113.5 28.5t71.5 39.5t39 59.5t14 89.5l-596 886v-925h-283v1434h275l604 -902v902h283v-1354z" />
    <glyph glyph-name="eng" unicode="&#x14b;" horiz-adv-x="1196" 
d="M420 0h-283v1075h283v-71q37 38 102 66t150 28q103 0 177.5 -34.5t123.5 -98t72.5 -154.5t23.5 -205v-526q0 -113 -19.5 -194t-67.5 -136.5t-129.5 -90t-205.5 -54.5l-98 217q73 14 119 30.5t72 43.5t36 68t10 104v514q0 72 -12 120t-35 76.5t-57 40.5t-78 12t-78 -12
t-57.5 -40t-36 -74.5t-12.5 -116.5v-588z" />
    <glyph glyph-name="Omacron" unicode="&#x14c;" horiz-adv-x="1473" 
d="M1368 719q0 -174 -46.5 -311.5t-130 -233t-200 -146.5t-256.5 -51q-141 0 -257 50t-199 145t-129 232t-46 311t46.5 311.5t130.5 233t201 146t257 50.5t255.5 -50t198.5 -145t129 -231.5t46 -310.5zM1073 715q0 109 -25 194t-70 143t-107.5 88.5t-137.5 30.5t-137 -29.5
t-105.5 -87t-67.5 -142t-24 -193.5t25 -194t70 -143.5t107.5 -89t137.5 -30.5t137 30t105.5 87.5t67.5 142t24 193.5zM438 1556v215h594v-215h-594z" />
    <glyph glyph-name="omacron" unicode="&#x14d;" horiz-adv-x="1137" 
d="M1055 537q0 -124 -36.5 -227t-102 -177t-155 -115t-194.5 -41t-194 41t-153.5 115t-101 177t-36.5 227q0 123 36.5 226.5t101 177.5t153.5 115.5t194 41.5t194.5 -41.5t155 -115.5t102 -177.5t36.5 -226.5zM768 537q0 61 -12.5 113.5t-37.5 91.5t-62.5 61t-88.5 22
t-88 -22t-61.5 -60.5t-36.5 -91t-12 -114.5t12 -115t36.5 -91t61.5 -59.5t88 -21.5t88.5 23.5t62.5 63.5t37.5 92t12.5 108zM270 1249v215h594v-215h-594z" />
    <glyph glyph-name="Obreve" unicode="&#x14e;" horiz-adv-x="1473" 
d="M1368 719q0 -174 -46.5 -311.5t-130 -233t-200 -146.5t-256.5 -51q-141 0 -257 50t-199 145t-129 232t-46 311t46.5 311.5t130.5 233t201 146t257 50.5t255.5 -50t198.5 -145t129 -231.5t46 -310.5zM1073 715q0 109 -25 194t-70 143t-107.5 88.5t-137.5 30.5t-137 -29.5
t-105.5 -87t-67.5 -142t-24 -193.5t25 -194t70 -143.5t107.5 -89t137.5 -30.5t137 30t105.5 87.5t67.5 142t24 193.5zM735 1524q-84 0 -149.5 22t-113.5 64t-77.5 102.5t-40.5 138.5h172q20 -68 71 -100.5t142 -32.5q93 0 143.5 31t71.5 102h166q-11 -78 -42.5 -138.5
t-81 -102.5t-115.5 -64t-146 -22z" />
    <glyph glyph-name="obreve" unicode="&#x14f;" horiz-adv-x="1137" 
d="M1055 537q0 -124 -36.5 -227t-102 -177t-155 -115t-194.5 -41t-194 41t-153.5 115t-101 177t-36.5 227q0 123 36.5 226.5t101 177.5t153.5 115.5t194 41.5t194.5 -41.5t155 -115.5t102 -177.5t36.5 -226.5zM768 537q0 61 -12.5 113.5t-37.5 91.5t-62.5 61t-88.5 22
t-88 -22t-61.5 -60.5t-36.5 -91t-12 -114.5t12 -115t36.5 -91t61.5 -59.5t88 -21.5t88.5 23.5t62.5 63.5t37.5 92t12.5 108zM565 1219q-84 0 -149.5 22t-113.5 64t-77.5 102.5t-40.5 138.5h172q20 -68 71 -100.5t142 -32.5q93 0 143.5 31t71.5 102h166q-11 -78 -42.5 -138.5
t-81 -102.5t-115.5 -64t-146 -22z" />
    <glyph glyph-name="Ohungarumlaut" unicode="&#x150;" horiz-adv-x="1473" 
d="M1368 719q0 -174 -46.5 -311.5t-130 -233t-200 -146.5t-256.5 -51q-141 0 -257 50t-199 145t-129 232t-46 311t46.5 311.5t130.5 233t201 146t257 50.5t255.5 -50t198.5 -145t129 -231.5t46 -310.5zM1073 715q0 109 -25 194t-70 143t-107.5 88.5t-137.5 30.5t-137 -29.5
t-105.5 -87t-67.5 -142t-24 -193.5t25 -194t70 -143.5t107.5 -89t137.5 -30.5t137 30t105.5 87.5t67.5 142t24 193.5zM979 1526h-240l178 327h359zM528 1526h-239l178 327h358z" />
    <glyph glyph-name="ohungarumlaut" unicode="&#x151;" horiz-adv-x="1137" 
d="M1055 537q0 -124 -36.5 -227t-102 -177t-155 -115t-194.5 -41t-194 41t-153.5 115t-101 177t-36.5 227q0 123 36.5 226.5t101 177.5t153.5 115.5t194 41.5t194.5 -41.5t155 -115.5t102 -177.5t36.5 -226.5zM768 537q0 61 -12.5 113.5t-37.5 91.5t-62.5 61t-88.5 22
t-88 -22t-61.5 -60.5t-36.5 -91t-12 -114.5t12 -115t36.5 -91t61.5 -59.5t88 -21.5t88.5 23.5t62.5 63.5t37.5 92t12.5 108zM838 1219h-240l178 327h359zM387 1219h-239l178 327h358z" />
    <glyph glyph-name="OE" unicode="&#x152;" horiz-adv-x="2161" 
d="M1321 627v-346h719v-281h-965v129q-26 -35 -61 -63.5t-78.5 -48t-94.5 -30t-110 -10.5q-141 0 -259 53t-201 157t-122.5 239.5t-39.5 290.5q0 184 53.5 331.5t144 238t197 130t227.5 39.5q66 0 117 -11t92.5 -30.5t73 -45t61.5 -64.5v129h934v-281h-688v-248h573v-278
h-573zM1059 717q0 95 -17 173t-55.5 143t-103.5 101.5t-152 36.5q-75 0 -136 -28.5t-104 -87.5t-65.5 -143.5t-22.5 -194.5t22.5 -194.5t65.5 -143.5t104 -88t136 -29q87 0 152 37t103.5 102t55.5 143t17 173z" />
    <glyph glyph-name="oe" unicode="&#x153;" horiz-adv-x="1761" 
d="M1673 537q0 -31 -1 -53t-3 -38h-643q4 -55 24.5 -93.5t51.5 -62.5t69 -35t76 -11q59 0 106.5 20t78.5 55l200 -167q-66 -83 -170 -129t-215 -46q-60 0 -113 10.5t-98 32.5t-79 49.5t-62 61.5q-27 -38 -60 -65.5t-74 -47.5t-89.5 -30.5t-104.5 -10.5q-105 0 -194 41
t-153.5 115t-101 177t-36.5 227q0 123 36.5 226.5t101 177.5t153.5 115.5t194 41.5q56 0 104 -11t91 -32t75 -48.5t60 -66.5q58 72 137 115t187 43q107 0 191 -44.5t142 -121t88.5 -178.5t30.5 -217zM1399 659q-3 36 -15.5 71t-36 62t-58.5 43.5t-83 16.5q-72 0 -119.5 -53
t-56.5 -140h369zM768 537q0 61 -12.5 113.5t-37.5 91.5t-62.5 61t-88.5 22t-88 -22t-61.5 -60.5t-36.5 -91t-12 -114.5t12 -115t36.5 -91t61.5 -59.5t88 -21.5t88.5 23.5t62.5 63.5t37.5 92t12.5 108z" />
    <glyph glyph-name="Racute" unicode="&#x154;" horiz-adv-x="1462" 
d="M1016 0l-256 516h-289v-516h-287v1434h668q101 0 191 -28t157.5 -85t106.5 -142.5t39 -199.5q0 -86 -18 -151t-53.5 -117t-84.5 -89t-119 -65l275 -557h-330zM1051 973q0 52 -15 86.5t-43.5 55.5t-65 30.5t-81.5 9.5h-375v-369h375q54 0 91.5 12.5t63 36t38 57.5t12.5 81
zM741 1526h-239l178 327h358z" />
    <glyph glyph-name="racute" unicode="&#x155;" horiz-adv-x="877" 
d="M766 745q-34 31 -75 50.5t-89 19.5q-100 0 -141 -57.5t-41 -175.5v-582h-283v1075h283v-71q17 18 40.5 35t52 31.5t61.5 21t67 6.5q69 0 120 -23.5t79 -52.5zM563 1219h-239l178 327h358z" />
    <glyph glyph-name="Rcommaaccent" unicode="&#x156;" horiz-adv-x="1462" 
d="M1016 0l-256 516h-289v-516h-287v1434h668q101 0 191 -28t157.5 -85t106.5 -142.5t39 -199.5q0 -86 -18 -151t-53.5 -117t-84.5 -89t-119 -65l275 -557h-330zM1051 973q0 52 -15 86.5t-43.5 55.5t-65 30.5t-81.5 9.5h-375v-369h375q54 0 91.5 12.5t63 36t38 57.5t12.5 81
zM753 -481h-149l22 392h233z" />
    <glyph glyph-name="rcommaaccent" unicode="&#x157;" horiz-adv-x="877" 
d="M766 745q-34 31 -75 50.5t-89 19.5q-100 0 -141 -57.5t-41 -175.5v-582h-283v1075h283v-71q17 18 40.5 35t52 31.5t61.5 21t67 6.5q69 0 120 -23.5t79 -52.5zM297 -491h-149l22 392h233z" />
    <glyph glyph-name="Rcaron" unicode="&#x158;" horiz-adv-x="1462" 
d="M1016 0l-256 516h-289v-516h-287v1434h668q101 0 191 -28t157.5 -85t106.5 -142.5t39 -199.5q0 -86 -18 -151t-53.5 -117t-84.5 -89t-119 -65l275 -557h-330zM1051 973q0 52 -15 86.5t-43.5 55.5t-65 30.5t-81.5 9.5h-375v-369h375q54 0 91.5 12.5t63 36t38 57.5t12.5 81
zM874 1526h-286l-250 327h190l205 -153l205 153h186z" />
    <glyph glyph-name="rcaron" unicode="&#x159;" horiz-adv-x="877" 
d="M766 745q-34 31 -75 50.5t-89 19.5q-100 0 -141 -57.5t-41 -175.5v-582h-283v1075h283v-71q17 18 40.5 35t52 31.5t61.5 21t67 6.5q69 0 120 -23.5t79 -52.5zM583 1219h-286l-250 327h190l205 -153l205 153h186z" />
    <glyph glyph-name="Sacute" unicode="&#x15a;" horiz-adv-x="1354" 
d="M1235 434q0 -102 -33 -186t-102 -144.5t-175 -93.5t-253 -33q-90 0 -173 18.5t-155 52t-130.5 82t-98.5 108.5l207 184q75 -88 169 -126t197 -38q73 0 118 10.5t75.5 29t43.5 43.5t13 73q0 34 -12 60.5t-46.5 48.5t-97 42t-164.5 43q-99 23 -181.5 53t-141.5 78
t-92 119.5t-33 177.5q0 97 40 175t109.5 132.5t163 83.5t199.5 29q82 0 155.5 -14.5t144 -47.5t119.5 -70t103 -93l-207 -201q-41 42 -72 65t-71 42.5t-84 30t-98 10.5q-58 0 -97 -11.5t-63 -29.5t-34.5 -41t-10.5 -47q0 -34 13 -58t46 -42.5t88.5 -35t141.5 -36.5
q122 -29 203 -60.5t143 -80.5t97.5 -124t35.5 -178zM686 1526h-239l178 327h358z" />
    <glyph glyph-name="sacute" unicode="&#x15b;" horiz-adv-x="1100" 
d="M954 993l-90 -223q-80 43 -162.5 64.5t-150.5 21.5q-75 0 -110 -14.5t-35 -55.5q0 -17 8 -30t32 -26t67.5 -29t115.5 -39q72 -24 137 -51.5t114 -66.5t78 -94.5t29 -136.5q0 -93 -34.5 -157t-94 -103.5t-139 -57.5t-170.5 -18q-123 0 -242 33.5t-209 91.5l95 215
q86 -48 177.5 -73t194.5 -25q80 0 112 19.5t32 62.5q0 18 -8 32.5t-26.5 27t-48.5 24.5t-75 25q-97 29 -175 58t-133.5 69.5t-85.5 98t-30 142.5q0 84 31.5 144.5t88.5 99.5t136 57.5t174 18.5q102 0 206.5 -28.5t190.5 -76.5zM579 1219h-239l178 327h358z" />
    <glyph glyph-name="Scircumflex" unicode="&#x15c;" horiz-adv-x="1354" 
d="M1235 434q0 -102 -33 -186t-102 -144.5t-175 -93.5t-253 -33q-90 0 -173 18.5t-155 52t-130.5 82t-98.5 108.5l207 184q75 -88 169 -126t197 -38q73 0 118 10.5t75.5 29t43.5 43.5t13 73q0 34 -12 60.5t-46.5 48.5t-97 42t-164.5 43q-99 23 -181.5 53t-141.5 78
t-92 119.5t-33 177.5q0 97 40 175t109.5 132.5t163 83.5t199.5 29q82 0 155.5 -14.5t144 -47.5t119.5 -70t103 -93l-207 -201q-41 42 -72 65t-71 42.5t-84 30t-98 10.5q-58 0 -97 -11.5t-63 -29.5t-34.5 -41t-10.5 -47q0 -34 13 -58t46 -42.5t88.5 -35t141.5 -36.5
q122 -29 203 -60.5t143 -80.5t97.5 -124t35.5 -178zM873 1516l-205 153l-205 -153h-186l250 327h286l250 -327h-190z" />
    <glyph glyph-name="scircumflex" unicode="&#x15d;" horiz-adv-x="1100" 
d="M954 993l-90 -223q-80 43 -162.5 64.5t-150.5 21.5q-75 0 -110 -14.5t-35 -55.5q0 -17 8 -30t32 -26t67.5 -29t115.5 -39q72 -24 137 -51.5t114 -66.5t78 -94.5t29 -136.5q0 -93 -34.5 -157t-94 -103.5t-139 -57.5t-170.5 -18q-123 0 -242 33.5t-209 91.5l95 215
q86 -48 177.5 -73t194.5 -25q80 0 112 19.5t32 62.5q0 18 -8 32.5t-26.5 27t-48.5 24.5t-75 25q-97 29 -175 58t-133.5 69.5t-85.5 98t-30 142.5q0 84 31.5 144.5t88.5 99.5t136 57.5t174 18.5q102 0 206.5 -28.5t190.5 -76.5zM752 1201l-205 153l-205 -153h-186l250 327
h286l250 -327h-190z" />
    <glyph glyph-name="Scedilla" unicode="&#x15e;" horiz-adv-x="1354" 
d="M1235 434q0 -102 -33 -186t-102 -144.5t-175 -93.5t-253 -33q-90 0 -173 18.5t-155 52t-130.5 82t-98.5 108.5l207 184q75 -88 169 -126t197 -38q73 0 118 10.5t75.5 29t43.5 43.5t13 73q0 34 -12 60.5t-46.5 48.5t-97 42t-164.5 43q-99 23 -181.5 53t-141.5 78
t-92 119.5t-33 177.5q0 97 40 175t109.5 132.5t163 83.5t199.5 29q82 0 155.5 -14.5t144 -47.5t119.5 -70t103 -93l-207 -201q-41 42 -72 65t-71 42.5t-84 30t-98 10.5q-58 0 -97 -11.5t-63 -29.5t-34.5 -41t-10.5 -47q0 -34 13 -58t46 -42.5t88.5 -35t141.5 -36.5
q122 -29 203 -60.5t143 -80.5t97.5 -124t35.5 -178zM633 76h114l-35 -162q13 6 32 10t48 4q33 0 62 -8.5t51 -26.5t34.5 -45.5t12.5 -64.5q0 -46 -17.5 -79.5t-49.5 -55.5t-77 -32.5t-100 -10.5q-83 0 -150.5 21.5t-117.5 51.5l43 78q99 -49 182 -49q54 0 82.5 17.5
t28.5 52.5q0 31 -19.5 42t-44.5 11q-35 1 -61 -14l-74 28z" />
    <glyph glyph-name="scedilla" unicode="&#x15f;" horiz-adv-x="1100" 
d="M954 993l-90 -223q-80 43 -162.5 64.5t-150.5 21.5q-75 0 -110 -14.5t-35 -55.5q0 -17 8 -30t32 -26t67.5 -29t115.5 -39q72 -24 137 -51.5t114 -66.5t78 -94.5t29 -136.5q0 -93 -34.5 -157t-94 -103.5t-139 -57.5t-170.5 -18q-123 0 -242 33.5t-209 91.5l95 215
q86 -48 177.5 -73t194.5 -25q80 0 112 19.5t32 62.5q0 18 -8 32.5t-26.5 27t-48.5 24.5t-75 25q-97 29 -175 58t-133.5 69.5t-85.5 98t-30 142.5q0 84 31.5 144.5t88.5 99.5t136 57.5t174 18.5q102 0 206.5 -28.5t190.5 -76.5zM492 76h114l-35 -162q13 6 32 10t48 4
q33 0 62 -8.5t51 -26.5t34.5 -45.5t12.5 -64.5q0 -46 -17.5 -79.5t-49.5 -55.5t-77 -32.5t-100 -10.5q-83 0 -150.5 21.5t-117.5 51.5l43 78q99 -49 182 -49q54 0 82.5 17.5t28.5 52.5q0 31 -19.5 42t-44.5 11q-35 1 -61 -14l-74 28z" />
    <glyph glyph-name="Scaron" unicode="&#x160;" horiz-adv-x="1354" 
d="M1235 434q0 -102 -33 -186t-102 -144.5t-175 -93.5t-253 -33q-90 0 -173 18.5t-155 52t-130.5 82t-98.5 108.5l207 184q75 -88 169 -126t197 -38q73 0 118 10.5t75.5 29t43.5 43.5t13 73q0 34 -12 60.5t-46.5 48.5t-97 42t-164.5 43q-99 23 -181.5 53t-141.5 78
t-92 119.5t-33 177.5q0 97 40 175t109.5 132.5t163 83.5t199.5 29q82 0 155.5 -14.5t144 -47.5t119.5 -70t103 -93l-207 -201q-41 42 -72 65t-71 42.5t-84 30t-98 10.5q-58 0 -97 -11.5t-63 -29.5t-34.5 -41t-10.5 -47q0 -34 13 -58t46 -42.5t88.5 -35t141.5 -36.5
q122 -29 203 -60.5t143 -80.5t97.5 -124t35.5 -178zM821 1536h-286l-250 327h190l205 -153l205 153h186z" />
    <glyph glyph-name="scaron" unicode="&#x161;" horiz-adv-x="1100" 
d="M954 993l-90 -223q-80 43 -162.5 64.5t-150.5 21.5q-75 0 -110 -14.5t-35 -55.5q0 -17 8 -30t32 -26t67.5 -29t115.5 -39q72 -24 137 -51.5t114 -66.5t78 -94.5t29 -136.5q0 -93 -34.5 -157t-94 -103.5t-139 -57.5t-170.5 -18q-123 0 -242 33.5t-209 91.5l95 215
q86 -48 177.5 -73t194.5 -25q80 0 112 19.5t32 62.5q0 18 -8 32.5t-26.5 27t-48.5 24.5t-75 25q-97 29 -175 58t-133.5 69.5t-85.5 98t-30 142.5q0 84 31.5 144.5t88.5 99.5t136 57.5t174 18.5q102 0 206.5 -28.5t190.5 -76.5zM678 1219h-286l-250 327h190l205 -153l205 153
h186z" />
    <glyph glyph-name="Tcedilla" unicode="&#x162;" horiz-adv-x="1294" 
d="M791 1151v-1151h-287v1151h-412v283h1110v-283h-411zM607 76h114l-35 -162q13 6 32 10t48 4q33 0 62 -8.5t51 -26.5t34.5 -45.5t12.5 -64.5q0 -46 -17.5 -79.5t-49.5 -55.5t-77 -32.5t-100 -10.5q-83 0 -150.5 21.5t-117.5 51.5l43 78q99 -49 182 -49q54 0 82.5 17.5
t28.5 52.5q0 31 -19.5 42t-44.5 11q-35 1 -61 -14l-74 28z" />
    <glyph glyph-name="tcedilla" unicode="&#x163;" horiz-adv-x="905" 
d="M737 43q-35 -28 -94 -47t-125 -19q-65 0 -118 24t-90.5 67.5t-58 102.5t-20.5 130v508h-180v266h180v277l283 141v-418h258v-266h-258v-432q0 -39 7 -64t20 -39.5t32.5 -20t44.5 -5.5q38 0 74.5 19t85.5 63zM418 76h114l-35 -162q13 6 32 10t48 4q33 0 62 -8.5t51 -26.5
t34.5 -45.5t12.5 -64.5q0 -46 -17.5 -79.5t-49.5 -55.5t-77 -32.5t-100 -10.5q-83 0 -150.5 21.5t-117.5 51.5l43 78q99 -49 182 -49q54 0 82.5 17.5t28.5 52.5q0 31 -19.5 42t-44.5 11q-35 1 -61 -14l-74 28z" />
    <glyph glyph-name="Tcaron" unicode="&#x164;" horiz-adv-x="1294" 
d="M791 1151v-1151h-287v1151h-412v283h1110v-283h-411zM790 1526h-286l-250 327h190l205 -153l205 153h186z" />
    <glyph glyph-name="tcaron" unicode="&#x165;" horiz-adv-x="905" 
d="M772 1176h-160l25 464h268zM737 43q-35 -28 -94 -47t-125 -19q-65 0 -118 24t-90.5 67.5t-58 102.5t-20.5 130v508h-180v266h180v277l283 141v-418h258v-266h-258v-432q0 -39 7 -64t20 -39.5t32.5 -20t44.5 -5.5q38 0 74.5 19t85.5 63z" />
    <glyph glyph-name="Tbar" unicode="&#x166;" horiz-adv-x="1294" 
d="M791 563v-563h-287v563h-318v283h318v305h-412v283h1110v-283h-411v-305h313v-283h-313z" />
    <glyph glyph-name="tbar" unicode="&#x167;" horiz-adv-x="905" 
d="M737 43q-35 -28 -94 -47t-125 -19q-65 0 -118 24t-90.5 67.5t-58 102.5t-20.5 130v135h-180v266h180v107h-180v266h180v277l283 141v-418h258v-266h-258v-107h258v-266h-258v-59q0 -39 7 -64t20 -39.5t32.5 -20t44.5 -5.5q37 0 74.5 19.5t85.5 62.5z" />
    <glyph glyph-name="Utilde" unicode="&#x168;" horiz-adv-x="1509" 
d="M1335 633q0 -156 -39.5 -278t-114.5 -206t-183 -128t-244 -44q-130 0 -236.5 43t-183 126t-118.5 204.5t-42 278.5v805h287v-801q0 -174 79 -274.5t214 -100.5q136 0 215.5 100t79.5 271v805h286v-801zM1156 1814q0 -68 -17.5 -123t-48.5 -93t-74.5 -58.5t-95.5 -20.5
q-32 0 -57 3.5t-48 11t-47 19.5t-55 30q-23 14 -51.5 27.5t-54.5 13.5q-29 0 -45 -22t-25 -76h-184q0 68 17 122.5t48 92.5t74.5 58.5t95.5 20.5q32 0 57 -3t48 -10.5t47 -19.5t55 -30q24 -14 52 -27.5t55 -13.5q29 0 44.5 22t24.5 76h185z" />
    <glyph glyph-name="utilde" unicode="&#x169;" horiz-adv-x="1196" 
d="M776 0v72q-37 -39 -102 -67t-150 -28q-194 0 -295.5 125t-101.5 367v606h283v-581q0 -130 41 -190t141 -60q101 0 142.5 61.5t41.5 181.5v588h283v-1075h-283zM1000 1507q0 -68 -17.5 -123t-48.5 -93t-74.5 -58.5t-95.5 -20.5q-32 0 -57 3.5t-48 11t-47 19.5t-55 30
q-23 14 -51.5 27.5t-54.5 13.5q-29 0 -45 -22t-25 -76h-184q0 68 17 122.5t48 92.5t74.5 58.5t95.5 20.5q32 0 57 -3t48 -10.5t47 -19.5t55 -30q24 -14 52 -27.5t55 -13.5q29 0 44.5 22t24.5 76h185z" />
    <glyph glyph-name="Umacron" unicode="&#x16a;" horiz-adv-x="1509" 
d="M1335 633q0 -156 -39.5 -278t-114.5 -206t-183 -128t-244 -44q-130 0 -236.5 43t-183 126t-118.5 204.5t-42 278.5v805h287v-801q0 -174 79 -274.5t214 -100.5q136 0 215.5 100t79.5 271v805h286v-801zM457 1556v215h594v-215h-594z" />
    <glyph glyph-name="umacron" unicode="&#x16b;" horiz-adv-x="1196" 
d="M776 0v72q-37 -39 -102 -67t-150 -28q-194 0 -295.5 125t-101.5 367v606h283v-581q0 -130 41 -190t141 -60q101 0 142.5 61.5t41.5 181.5v588h283v-1075h-283zM301 1249v215h594v-215h-594z" />
    <glyph glyph-name="Ubreve" unicode="&#x16c;" horiz-adv-x="1509" 
d="M1335 633q0 -156 -39.5 -278t-114.5 -206t-183 -128t-244 -44q-130 0 -236.5 43t-183 126t-118.5 204.5t-42 278.5v805h287v-801q0 -174 79 -274.5t214 -100.5q136 0 215.5 100t79.5 271v805h286v-801zM752 1526q-84 0 -149.5 22t-113.5 64t-77.5 102.5t-40.5 138.5h172
q20 -68 71 -100.5t142 -32.5q93 0 143.5 31t71.5 102h166q-11 -78 -42.5 -138.5t-81 -102.5t-115.5 -64t-146 -22z" />
    <glyph glyph-name="ubreve" unicode="&#x16d;" horiz-adv-x="1196" 
d="M776 0v72q-37 -39 -102 -67t-150 -28q-194 0 -295.5 125t-101.5 367v606h283v-581q0 -130 41 -190t141 -60q101 0 142.5 61.5t41.5 181.5v588h283v-1075h-283zM596 1219q-84 0 -149.5 22t-113.5 64t-77.5 102.5t-40.5 138.5h172q20 -68 71 -100.5t142 -32.5
q93 0 143.5 31t71.5 102h166q-11 -78 -42.5 -138.5t-81 -102.5t-115.5 -64t-146 -22z" />
    <glyph glyph-name="Uring" unicode="&#x16e;" horiz-adv-x="1509" 
d="M1335 633q0 -156 -39.5 -278t-114.5 -206t-183 -128t-244 -44q-130 0 -236.5 43t-183 126t-118.5 204.5t-42 278.5v805h287v-801q0 -174 79 -274.5t214 -100.5q136 0 215.5 100t79.5 271v805h286v-801zM1030 1689q0 -59 -21 -109t-58 -86t-87.5 -56.5t-109.5 -20.5
t-109.5 20.5t-87.5 56.5t-58 86t-21 109t21 109.5t58 87.5t87.5 58t109.5 21t109.5 -21t87.5 -58t58 -87.5t21 -109.5zM875 1689q0 26 -9.5 48.5t-25.5 39t-38.5 26t-47.5 9.5q-26 0 -48 -9.5t-38 -26t-25.5 -39t-9.5 -48.5t9.5 -48.5t25.5 -39t38 -26t48 -9.5
q25 0 47.5 9.5t38.5 26t25.5 39t9.5 48.5z" />
    <glyph glyph-name="uring" unicode="&#x16f;" horiz-adv-x="1196" 
d="M776 0v72q-37 -39 -102 -67t-150 -28q-194 0 -295.5 125t-101.5 367v606h283v-581q0 -130 41 -190t141 -60q101 0 142.5 61.5t41.5 181.5v588h283v-1075h-283zM874 1491q0 -59 -21 -109t-58 -86t-87.5 -56.5t-109.5 -20.5t-109.5 20.5t-87.5 56.5t-58 86t-21 109
t21 109.5t58 87.5t87.5 58t109.5 21t109.5 -21t87.5 -58t58 -87.5t21 -109.5zM719 1491q0 26 -9.5 48.5t-25.5 39t-38.5 26t-47.5 9.5q-26 0 -48 -9.5t-38 -26t-25.5 -39t-9.5 -48.5t9.5 -48.5t25.5 -39t38 -26t48 -9.5q25 0 47.5 9.5t38.5 26t25.5 39t9.5 48.5z" />
    <glyph glyph-name="Uhungarumlaut" unicode="&#x170;" horiz-adv-x="1509" 
d="M1335 633q0 -156 -39.5 -278t-114.5 -206t-183 -128t-244 -44q-130 0 -236.5 43t-183 126t-118.5 204.5t-42 278.5v805h287v-801q0 -174 79 -274.5t214 -100.5q136 0 215.5 100t79.5 271v805h286v-801zM1061 1526h-240l178 327h359zM610 1526h-239l178 327h358z" />
    <glyph glyph-name="uhungarumlaut" unicode="&#x171;" horiz-adv-x="1196" 
d="M776 0v72q-37 -39 -102 -67t-150 -28q-194 0 -295.5 125t-101.5 367v606h283v-581q0 -130 41 -190t141 -60q101 0 142.5 61.5t41.5 181.5v588h283v-1075h-283zM862 1219h-240l178 327h359zM411 1219h-239l178 327h358z" />
    <glyph glyph-name="Uogonek" unicode="&#x172;" horiz-adv-x="1509" 
d="M1049 629v805h286v-801q0 -128 -27 -233.5t-78.5 -186t-126 -134.5t-169.5 -79q-98 -33 -136 -70.5t-38 -79.5q0 -39 25 -58t69 -19q21 0 43 7t39 17l61 -123q-63 -42 -122 -64t-130 -22q-51 0 -91.5 15t-69 40.5t-43.5 58t-15 67.5q0 76 45.5 131t102.5 82
q-113 13 -205 61.5t-157.5 130.5t-101.5 196.5t-36 258.5v805h287v-801q0 -86 20 -155.5t58 -118.5t92 -75t123 -26q68 0 122.5 25.5t93 73.5t59 117t20.5 155z" />
    <glyph glyph-name="uogonek" unicode="&#x173;" horiz-adv-x="1196" 
d="M776 0v72q-37 -39 -102 -67t-150 -28q-194 0 -295.5 125t-101.5 367v606h283v-581q0 -130 41 -190t141 -60q101 0 142.5 61.5t41.5 181.5v588h283v-1075h-283zM1059 0q-62 -4 -107 -19t-74 -36.5t-43 -46t-14 -48.5q0 -37 24 -57t70 -20q21 0 43 7t39 17l62 -123
q-62 -41 -120 -63.5t-132 -22.5q-51 0 -91.5 15t-69 40.5t-43.5 58t-15 67.5q0 44 16 80.5t42.5 65t60 50t69.5 35.5h283z" />
    <glyph glyph-name="Wcircumflex" unicode="&#x174;" horiz-adv-x="1804" 
d="M1702 1434l-299 -1434h-281l-224 939l-228 -939h-268l-300 1434h300l159 -901l217 901h250l220 -901l159 901h295zM1102 1526l-205 153l-205 -153h-186l250 327h286l250 -327h-190z" />
    <glyph glyph-name="wcircumflex" unicode="&#x175;" horiz-adv-x="1520" 
d="M1159 0h-235l-164 646l-164 -646h-236l-309 1075h287l145 -616l164 616h234l163 -616l146 616h278zM963 1219l-205 153l-205 -153h-186l250 327h286l250 -327h-190z" />
    <glyph glyph-name="Ycircumflex" unicode="&#x176;" horiz-adv-x="1462" 
d="M1418 1434l-543 -867v-567h-287v561l-543 873h330l358 -600l359 600h326zM936 1526l-205 153l-205 -153h-186l250 327h286l250 -327h-190z" />
    <glyph glyph-name="ycircumflex" unicode="&#x177;" horiz-adv-x="1208" 
d="M604 -379h-278l143 379l-418 1075h311l246 -724l246 724h303zM807 1219l-205 153l-205 -153h-186l250 327h286l250 -327h-190z" />
    <glyph glyph-name="Ydieresis" unicode="&#x178;" horiz-adv-x="1462" 
d="M1418 1434l-543 -867v-567h-287v561l-543 873h330l358 -600l359 600h326zM1114 1663q0 -32 -13 -60t-34.5 -50t-50.5 -34.5t-60 -12.5q-33 0 -62.5 12.5t-51.5 34.5t-35 50t-13 60q0 33 13 62t35 51t51.5 34.5t62.5 12.5q31 0 60 -12.5t50.5 -34.5t34.5 -51t13 -62z
M672 1663q0 -32 -13 -60t-35 -50t-51 -34.5t-61 -12.5t-61 12.5t-51 34.5t-35 50t-13 60q0 33 13 62t35 51t51 34.5t61 12.5t61 -12.5t51 -34.5t35 -51t13 -62z" />
    <glyph glyph-name="Zacute" unicode="&#x179;" horiz-adv-x="1409" 
d="M1270 0h-1131v254l770 917h-729v263h1080v-254l-762 -918h772v-262zM715 1526h-239l178 327h358z" />
    <glyph glyph-name="zacute" unicode="&#x17a;" horiz-adv-x="1135" 
d="M123 0v205l516 614h-481v256h854v-205l-502 -614h502v-256h-889zM577 1219h-239l178 327h358z" />
    <glyph glyph-name="Zdotaccent" unicode="&#x17b;" horiz-adv-x="1409" 
d="M1270 0h-1131v254l770 917h-729v263h1080v-254l-762 -918h772v-262zM863 1683q0 -32 -13 -60t-34.5 -50t-50.5 -34.5t-60 -12.5q-33 0 -62.5 12.5t-51.5 34.5t-35 50t-13 60q0 33 13 62t35 51t51.5 34.5t62.5 12.5q31 0 60 -12.5t50.5 -34.5t34.5 -51t13 -62z" />
    <glyph glyph-name="zdotaccent" unicode="&#x17c;" horiz-adv-x="1135" 
d="M123 0v205l516 614h-481v256h854v-205l-502 -614h502v-256h-889zM725 1376q0 -32 -13 -60t-34.5 -50t-50.5 -34.5t-60 -12.5q-33 0 -62.5 12.5t-51.5 34.5t-35 50t-13 60q0 33 13 62t35 51t51.5 34.5t62.5 12.5q31 0 60 -12.5t50.5 -34.5t34.5 -51t13 -62z" />
    <glyph glyph-name="Zcaron" unicode="&#x17d;" horiz-adv-x="1409" 
d="M1270 0h-1131v254l770 917h-729v263h1080v-254l-762 -918h772v-262zM843 1526h-286l-250 327h190l205 -153l205 153h186z" />
    <glyph glyph-name="zcaron" unicode="&#x17e;" horiz-adv-x="1135" 
d="M123 0v205l516 614h-481v256h854v-205l-502 -614h502v-256h-889zM725 1219h-286l-250 327h190l205 -153l205 153h186z" />
    <glyph glyph-name="longs" unicode="&#x17f;" horiz-adv-x="758" 
d="M207 1204q0 75 20.5 129t59.5 88t96 50t131 16q57 0 101 -8.5t77 -22.5v-227q-21 11 -44 16.5t-54 5.5q-33 0 -54 -5.5t-31.5 -16.5t-15 -28t-4.5 -36v-1165h-282v1204z" />
    <glyph glyph-name="uni018F" unicode="&#x18f;" horiz-adv-x="1473" 
d="M150 403q-46 134 -48 304v163h965q-14 70 -43 127.5t-71 97.5t-95 61.5t-119 21.5q-100 0 -165.5 -42t-104.5 -116l-262 121q35 69 84 127.5t114.5 100.5t149.5 65.5t188 23.5q144 0 259.5 -54t196.5 -152.5t125 -233.5t44 -299q0 -174 -46 -311.5t-130 -232.5
t-201 -146.5t-256 -51.5q-141 0 -257 50.5t-198.5 144.5t-129.5 231zM1049 520q12 45 18 96h-661q6 -49 18 -92q25 -84 70 -142t107.5 -89t137.5 -31q74 0 136.5 30t105.5 87t68 141z" />
    <glyph glyph-name="florin" unicode="&#x192;" 
d="M1133 1219q-28 9 -74 15.5t-109 6.5q-74 0 -114 -30t-54 -95l-16 -78h295l-47 -227h-291l-174 -811h-289l174 811h-223l49 227h223l17 88q18 88 52 150.5t85.5 102.5t121.5 58.5t159 18.5q83 0 148.5 -9.5t109.5 -25.5z" />
    <glyph glyph-name="Aringacute" unicode="&#x1fa;" horiz-adv-x="1536" 
d="M798 1874h-239l178 327h358zM1139 0l-113 319h-524l-113 -319h-307l504 1317q-44 37 -68 90.5t-24 118.5q0 59 21 109.5t58 87.5t87.5 58t109.5 21t110 -21t88 -58t58 -87.5t21 -109.5q0 -65 -25 -118.5t-70 -90.5l502 -1317h-315zM891 1526q0 26 -9.5 48.5t-25.5 39
t-38.5 26t-47.5 9.5q-26 0 -48 -9.5t-38 -26t-25.5 -39t-9.5 -48.5t9.5 -48.5t25.5 -39t38 -26t48 -9.5q25 0 47.5 9.5t38.5 26t25.5 39t9.5 48.5zM928 592l-164 467l-164 -467h328z" />
    <glyph glyph-name="aringacute" unicode="&#x1fb;" horiz-adv-x="1139" 
d="M579 1844h-239l178 327h358zM729 0v72q-19 -20 -43 -36.5t-58 -31t-69 -21t-72 -6.5q-75 0 -147 23.5t-128.5 70.5t-91 119t-34.5 170q0 89 34 156t93 111.5t138.5 67t170.5 22.5q75 0 124 -13t83 -30v53q0 60 -40 98.5t-114 38.5q-94 0 -153 -13.5t-141 -57.5l-109 196
q102 60 193.5 84.5t209.5 24.5q98 0 178.5 -25t138 -73t89 -118t31.5 -161v-721h-283zM729 451q-18 11 -37 19.5t-42 14t-51.5 8.5t-66.5 3q-80 0 -121.5 -35.5t-41.5 -100.5q0 -28 8.5 -54t28 -45.5t50.5 -31.5t76 -12q35 0 65.5 8t56 21.5t44.5 31.5t31 37v136zM845 1491
q0 -59 -21 -109t-58 -86t-87.5 -56.5t-109.5 -20.5t-109.5 20.5t-87.5 56.5t-58 86t-21 109t21 109.5t58 87.5t87.5 58t109.5 21t109.5 -21t87.5 -58t58 -87.5t21 -109.5zM690 1491q0 26 -9.5 48.5t-25.5 39t-38.5 26t-47.5 9.5q-26 0 -48 -9.5t-38 -26t-25.5 -39
t-9.5 -48.5t9.5 -48.5t25.5 -39t38 -26t48 -9.5q25 0 47.5 9.5t38.5 26t25.5 39t9.5 48.5z" />
    <glyph glyph-name="AEacute" unicode="&#x1fc;" horiz-adv-x="2126" 
d="M1974 1434v-275h-667v-258h534v-270h-534v-357h698v-274h-973v256h-510l-166 -256h-327l962 1434h983zM686 508h346v532zM1179 1526h-239l178 327h358z" />
    <glyph glyph-name="aeacute" unicode="&#x1fd;" horiz-adv-x="1726" 
d="M1638 537q0 -31 -1 -53t-3 -38h-643q4 -55 24.5 -93.5t51.5 -62.5t69 -35t76 -11q30 0 56.5 5t52 16t42.5 23t34 31l200 -167q-32 -42 -76 -74.5t-94.5 -55t-105.5 -34t-109 -11.5q-127 0 -220.5 45t-155.5 119q-77 -86 -160.5 -125t-188.5 -39q-75 0 -147 23.5
t-128.5 70.5t-91 119t-34.5 170q0 89 34 156t93 111.5t138.5 67t170.5 22.5q75 0 124 -13t83 -30v53q0 60 -40.5 98.5t-113.5 38.5q-101 0 -164.5 -17t-129.5 -54l-109 196q93 55 185.5 82t217.5 27q115 0 192 -31.5t132 -93.5q53 57 124.5 91t162.5 34q108 0 192 -44.5
t141.5 -121t88 -178.5t30.5 -217zM1364 659q-3 36 -15.5 71t-36 62t-58.5 43.5t-83 16.5q-38 0 -69 -15t-53.5 -41t-36 -61t-17.5 -76h369zM729 451q-18 11 -37 19.5t-42 14t-51.5 8.5t-66.5 3q-80 0 -121.5 -35.5t-41.5 -100.5q0 -68 43 -105.5t120 -37.5q35 0 65.5 8
t56 21.5t44.5 31.5t31 37v68v68zM923 1219h-239l178 327h358z" />
    <glyph glyph-name="Oslashacute" unicode="&#x1fe;" horiz-adv-x="1473" 
d="M1354 717q0 -164 -42.5 -300t-122.5 -233.5t-195.5 -152t-262.5 -54.5q-96 0 -211 39l-57 -118h-270l124 254q-97 99 -152.5 242t-55.5 323q0 163 42 299t122 234t195.5 152t262.5 54q108 0 203 -37l57 117h271l-121 -250q48 -47 87.5 -107.5t69.5 -140t43 -156.5
t13 -165zM815 1176q-40 10 -84 10q-89 0 -153 -36t-105 -99.5t-60.5 -149t-19.5 -184.5q0 -84 14 -158t42 -133zM1069 717q0 86 -14.5 162.5t-46.5 138.5l-369 -758q43 -12 92 -12q89 0 153 36t105 99.5t60.5 149t19.5 184.5zM819 1526h-239l178 327h358z" />
    <glyph glyph-name="oslashacute" unicode="&#x1ff;" horiz-adv-x="1137" 
d="M1055 537q0 -124 -36.5 -227t-102 -177t-155 -115t-194.5 -41q-72 0 -159 27l-56 -106h-252l123 231q-66 74 -103.5 177.5t-37.5 230.5q0 123 36.5 226.5t101 177.5t153.5 115.5t194 41.5q42 0 81 -6.5t75 -20.5l55 107h252l-121 -230q69 -75 107.5 -179.5t38.5 -231.5z
M621 858q-26 6 -54 6q-56 0 -97 -25.5t-68 -70t-40.5 -104t-13.5 -127.5q0 -44 5 -82.5t16 -73.5zM788 537q0 46 -6 86.5t-18 76.5l-254 -481q26 -8 57 -8q56 0 97.5 28t69 73.5t41 104t13.5 120.5zM641 1219h-239l178 327h358z" />
    <glyph glyph-name="Scommaaccent" unicode="&#x218;" horiz-adv-x="1354" 
d="M1235 434q0 -102 -33 -186t-102 -144.5t-175 -93.5t-253 -33q-90 0 -173 18.5t-155 52t-130.5 82t-98.5 108.5l207 184q75 -88 169 -126t197 -38q73 0 118 10.5t75.5 29t43.5 43.5t13 73q0 34 -12 60.5t-46.5 48.5t-97 42t-164.5 43q-99 23 -181.5 53t-141.5 78
t-92 119.5t-33 177.5q0 97 40 175t109.5 132.5t163 83.5t199.5 29q82 0 155.5 -14.5t144 -47.5t119.5 -70t103 -93l-207 -201q-41 42 -72 65t-71 42.5t-84 30t-98 10.5q-58 0 -97 -11.5t-63 -29.5t-34.5 -41t-10.5 -47q0 -34 13 -58t46 -42.5t88.5 -35t141.5 -36.5
q122 -29 203 -60.5t143 -80.5t97.5 -124t35.5 -178zM685 -491h-149l22 392h233z" />
    <glyph glyph-name="scommaaccent" unicode="&#x219;" horiz-adv-x="1100" 
d="M954 993l-90 -223q-80 43 -162.5 64.5t-150.5 21.5q-75 0 -110 -14.5t-35 -55.5q0 -17 8 -30t32 -26t67.5 -29t115.5 -39q72 -24 137 -51.5t114 -66.5t78 -94.5t29 -136.5q0 -93 -34.5 -157t-94 -103.5t-139 -57.5t-170.5 -18q-123 0 -242 33.5t-209 91.5l95 215
q86 -48 177.5 -73t194.5 -25q80 0 112 19.5t32 62.5q0 18 -8 32.5t-26.5 27t-48.5 24.5t-75 25q-97 29 -175 58t-133.5 69.5t-85.5 98t-30 142.5q0 84 31.5 144.5t88.5 99.5t136 57.5t174 18.5q102 0 206.5 -28.5t190.5 -76.5zM559 -491h-149l22 392h233z" />
    <glyph glyph-name="Tcommaaccent" unicode="&#x21a;" horiz-adv-x="1294" 
d="M791 1151v-1151h-287v1151h-412v283h1110v-283h-411zM669 -491h-149l22 392h233z" />
    <glyph glyph-name="tcommaaccent" unicode="&#x21b;" horiz-adv-x="905" 
d="M737 43q-35 -28 -94 -47t-125 -19q-65 0 -118 24t-90.5 67.5t-58 102.5t-20.5 130v508h-180v266h180v277l283 141v-418h258v-266h-258v-432q0 -39 7 -64t20 -39.5t32.5 -20t44.5 -5.5q38 0 74.5 19t85.5 63zM474 -491h-149l22 392h233z" />
    <glyph glyph-name="afii10846" unicode="&#x259;" horiz-adv-x="1102" 
d="M82 539q0 30 1 51.5t3 38.5h643q-4 55 -24.5 94t-51 62.5t-68.5 34.5t-77 11q-29 0 -54.5 -5t-50 -15t-44 -24.5t-35.5 -30.5l-201 168q33 41 77 73.5t94 55t105.5 34t108.5 11.5q90 0 159.5 -21.5t123 -57.5t94.5 -83t68.5 -106.5t44 -131t16.5 -159.5
q0 -123 -37 -226.5t-101.5 -178.5t-151.5 -116t-189 -41q-109 0 -193 44.5t-141.5 121t-88 179t-30.5 217.5zM356 416q4 -35 16.5 -71t36 -62.5t58.5 -43t82 -16.5q39 0 69.5 15.5t53 41t36 60.5t17.5 76h-369z" />
    <glyph glyph-name="circumflex" unicode="&#x2c6;" horiz-adv-x="1024" 
d="M715 1219l-205 153l-205 -153h-186l250 327h286l250 -327h-190z" />
    <glyph glyph-name="caron" unicode="&#x2c7;" horiz-adv-x="1024" 
d="M655 1219h-286l-250 327h190l205 -153l205 153h186z" />
    <glyph glyph-name="breve" unicode="&#x2d8;" horiz-adv-x="1024" 
d="M510 1219q-84 0 -149.5 22t-113.5 64t-77.5 102.5t-40.5 138.5h172q20 -68 71 -100.5t142 -32.5q93 0 143.5 31t71.5 102h166q-11 -78 -42.5 -138.5t-81 -102.5t-115.5 -64t-146 -22z" />
    <glyph glyph-name="dotaccent" unicode="&#x2d9;" horiz-adv-x="1024" 
d="M670 1376q0 -32 -13 -60t-34.5 -50t-50.5 -34.5t-60 -12.5q-33 0 -62.5 12.5t-51.5 34.5t-35 50t-13 60q0 33 13 62t35 51t51.5 34.5t62.5 12.5q31 0 60 -12.5t50.5 -34.5t34.5 -51t13 -62z" />
    <glyph glyph-name="ring" unicode="&#x2da;" horiz-adv-x="1024" 
d="M788 1491q0 -59 -21 -109t-58 -86t-87.5 -56.5t-109.5 -20.5t-109.5 20.5t-87.5 56.5t-58 86t-21 109t21 109.5t58 87.5t87.5 58t109.5 21t109.5 -21t87.5 -58t58 -87.5t21 -109.5zM633 1491q0 26 -9.5 48.5t-25.5 39t-38.5 26t-47.5 9.5q-26 0 -48 -9.5t-38 -26
t-25.5 -39t-9.5 -48.5t9.5 -48.5t25.5 -39t38 -26t48 -9.5q25 0 47.5 9.5t38.5 26t25.5 39t9.5 48.5z" />
    <glyph glyph-name="ogonek" unicode="&#x2db;" horiz-adv-x="1024" 
d="M723 0q-62 -4 -107 -19t-74 -36.5t-43 -46t-14 -48.5q0 -37 24 -57t70 -20q21 0 43 7t39 17l62 -123q-62 -41 -120 -63.5t-132 -22.5q-51 0 -91.5 15t-69 40.5t-43.5 58t-15 67.5q0 44 16 80.5t42.5 65t60 50t69.5 35.5h283z" />
    <glyph glyph-name="tilde" unicode="&#x2dc;" horiz-adv-x="1024" 
d="M920 1507q0 -68 -17.5 -123t-48.5 -93t-74.5 -58.5t-95.5 -20.5q-32 0 -57 3.5t-48 11t-47 19.5t-55 30q-23 14 -51.5 27.5t-54.5 13.5q-29 0 -45 -22t-25 -76h-184q0 68 17 122.5t48 92.5t74.5 58.5t95.5 20.5q32 0 57 -3t48 -10.5t47 -19.5t55 -30q24 -14 52 -27.5
t55 -13.5q29 0 44.5 22t24.5 76h185z" />
    <glyph glyph-name="hungarumlaut" unicode="&#x2dd;" horiz-adv-x="1024" 
d="M756 1219h-240l178 327h359zM305 1219h-239l178 327h358z" />
    <glyph glyph-name="tonos" unicode="&#x384;" horiz-adv-x="1075" 
d="M522 1219h-239l178 327h358z" />
    <glyph glyph-name="dieresistonos" unicode="&#x385;" horiz-adv-x="1231" 
d="M608 1219h-186l151 352h304zM1065 1343q0 -29 -10.5 -55t-29.5 -45.5t-44 -31t-53 -11.5q-26 0 -50 11.5t-42 31t-28.5 45.5t-10.5 55q0 30 10.5 56.5t28.5 46.5t42 31.5t50 11.5q28 0 53 -11.5t44 -31.5t29.5 -46.5t10.5 -56.5zM414 1343q0 -29 -10.5 -55t-29 -45.5
t-44 -31t-54.5 -11.5q-25 0 -48 11.5t-40 31t-27.5 45.5t-10.5 55q0 30 10.5 56.5t27.5 46.5t40 31.5t48 11.5q29 0 54.5 -11.5t44 -31.5t29 -46.5t10.5 -56.5z" />
    <glyph glyph-name="Alphatonos" unicode="&#x386;" horiz-adv-x="1536" 
d="M1454 0h-315l-113 319h-524l-113 -319h-307l549 1434h278zM928 592l-164 467l-164 -467h328zM155 1109h-239l178 327h358z" />
    <glyph glyph-name="Epsilontonos" unicode="&#x388;" horiz-adv-x="1331" 
d="M1210 0h-1026v1434h996v-281h-709v-248h576v-278h-576v-346h739v-281zM-172 1109h-239l178 327h358z" />
    <glyph glyph-name="Etatonos" unicode="&#x389;" horiz-adv-x="1530" 
d="M1059 0v602h-588v-602h-287v1434h287v-549h588v549h287v-1434h-287zM-172 1109h-239l178 327h358z" />
    <glyph glyph-name="Iotatonos" unicode="&#x38a;" horiz-adv-x="696" 
d="M205 0v1434h287v-1434h-287zM-172 1109h-239l178 327h358z" />
    <glyph glyph-name="Omicrontonos" unicode="&#x38c;" horiz-adv-x="1473" 
d="M1368 719q0 -174 -46.5 -311.5t-130 -233t-200 -146.5t-256.5 -51q-141 0 -257 50t-199 145t-129 232t-46 311t46.5 311.5t130.5 233t201 146t257 50.5t255.5 -50t198.5 -145t129 -231.5t46 -310.5zM1073 715q0 109 -25 194t-70 143t-107.5 88.5t-137.5 30.5t-137 -29.5
t-105.5 -87t-67.5 -142t-24 -193.5t25 -194t70 -143.5t107.5 -89t137.5 -30.5t137 30t105.5 87.5t67.5 142t24 193.5zM-70 1109h-239l178 327h358z" />
    <glyph glyph-name="Upsilontonos" unicode="&#x38e;" horiz-adv-x="1462" 
d="M1418 1434l-543 -867v-567h-287v561l-543 873h330l358 -600l359 600h326zM-275 1109h-239l178 327h358z" />
    <glyph glyph-name="Omegatonos" unicode="&#x38f;" horiz-adv-x="1505" 
d="M406 782q0 -86 15 -158t44.5 -135t73.5 -118.5t102 -108.5v-262h-520v262h209q-46 45 -88 101.5t-71 120.5t-44.5 135.5t-15.5 154.5q0 155 49.5 281t136 215t204.5 137.5t255 48.5q140 0 257.5 -50t202 -140t132 -215.5t47.5 -276.5q0 -83 -15.5 -154t-45.5 -134.5
t-73 -120.5t-90 -103h213v-262h-520v262q58 51 101.5 107.5t76 125t45.5 137t13 146.5q0 81 -23.5 153t-68.5 125t-110 84t-148 31q-75 0 -138 -26.5t-108.5 -76.5t-71.5 -122.5t-26 -163.5zM-47 1109h-239l178 327h358z" />
    <glyph glyph-name="iotadieresistonos" unicode="&#x390;" horiz-adv-x="578" 
d="M147 0v1075h283v-1075h-283zM384 1219h-186l151 352h304zM841 1343q0 -29 -10.5 -55t-29.5 -45.5t-44 -31t-53 -11.5q-26 0 -50 11.5t-42 31t-28.5 45.5t-10.5 55q0 30 10.5 56.5t28.5 46.5t42 31.5t50 11.5q28 0 53 -11.5t44 -31.5t29.5 -46.5t10.5 -56.5zM190 1343
q0 -29 -10.5 -55t-29 -45.5t-44 -31t-54.5 -11.5q-25 0 -48 11.5t-40 31t-27.5 45.5t-10.5 55q0 30 10.5 56.5t27.5 46.5t40 31.5t48 11.5q29 0 54.5 -11.5t44 -31.5t29 -46.5t10.5 -56.5z" />
    <glyph glyph-name="Alpha" unicode="&#x391;" horiz-adv-x="1536" 
d="M1454 0h-315l-113 319h-524l-113 -319h-307l549 1434h278zM928 592l-164 467l-164 -467h328z" />
    <glyph glyph-name="Beta" unicode="&#x392;" horiz-adv-x="1454" 
d="M1346 463q0 -222 -139 -342.5t-371 -120.5h-652v1434h658q104 0 188 -25t143 -73t91 -118.5t32 -162.5q0 -49 -10.5 -90t-31.5 -77t-46 -62t-63 -50q43 -19 80 -48t64 -68t42 -88.5t15 -108.5zM1006 1032q0 32 -9 56t-27.5 42t-53 28.5t-87.5 10.5h-364v-272h379
q45 0 75.5 10t50 27.5t28 42.5t8.5 55zM1051 459q0 48 -12.5 81t-35.5 55.5t-61.5 35t-95.5 12.5h-381v-371h381q55 0 94 13.5t64 41t36 60t11 72.5z" />
    <glyph glyph-name="Gamma" unicode="&#x393;" horiz-adv-x="1217" 
d="M471 1151v-1151h-287v1434h971v-283h-684z" />
    <glyph glyph-name="uni0394" unicode="&#x394;" horiz-adv-x="1573" 
d="M72 0l577 1434h279l573 -1434h-1429zM485 281h594l-300 798z" />
    <glyph glyph-name="Epsilon" unicode="&#x395;" horiz-adv-x="1331" 
d="M1210 0h-1026v1434h996v-281h-709v-248h576v-278h-576v-346h739v-281z" />
    <glyph glyph-name="Zeta" unicode="&#x396;" horiz-adv-x="1409" 
d="M1270 0h-1131v254l770 917h-729v263h1080v-254l-762 -918h772v-262z" />
    <glyph glyph-name="Eta" unicode="&#x397;" horiz-adv-x="1530" 
d="M1059 0v602h-588v-602h-287v1434h287v-549h588v549h287v-1434h-287z" />
    <glyph glyph-name="Theta" unicode="&#x398;" horiz-adv-x="1518" 
d="M555 872h408v-256h-408v256zM1114 715q0 109 -26.5 194t-74 143t-113.5 88.5t-144 30.5t-143 -29.5t-111.5 -87t-72.5 -142t-26 -193.5t26.5 -194t74.5 -143.5t114 -89t144 -30.5t143 30t111.5 87.5t72 142t25.5 193.5zM1409 719q0 -174 -48 -311.5t-134.5 -233
t-206 -146.5t-262.5 -51q-144 0 -263 50t-205 145t-133.5 232t-47.5 311t48 311.5t134.5 233t206.5 146t264 50.5q143 0 262 -50t204.5 -145t133 -231.5t47.5 -310.5z" />
    <glyph glyph-name="Iota" unicode="&#x399;" horiz-adv-x="696" 
d="M205 0v1434h287v-1434h-287z" />
    <glyph glyph-name="Kappa" unicode="&#x39a;" horiz-adv-x="1475" 
d="M1434 0h-344l-390 692l-229 -270v-422h-287v1434h287v-623l510 623h346l-420 -496z" />
    <glyph glyph-name="Lambda" unicode="&#x39b;" horiz-adv-x="1499" 
d="M397 0h-305l520 1434h279l516 -1434h-311l-353 1033z" />
    <glyph glyph-name="Mu" unicode="&#x39c;" horiz-adv-x="1710" 
d="M1526 0h-287v816l-387 -849l-387 849v-816h-281v1434h277l397 -867l385 867h283v-1434z" />
    <glyph glyph-name="Nu" unicode="&#x39d;" horiz-adv-x="1530" 
d="M1346 0h-256l-623 925v-925h-283v1434h275l604 -902v902h283v-1434z" />
    <glyph glyph-name="Xi" unicode="&#x39e;" horiz-adv-x="1360" 
d="M131 0v281h406v346h-269v278h269v248h-400v281h1086v-281h-400v-248h269v-278h-269v-346h406v-281h-1098z" />
    <glyph glyph-name="Omicron" unicode="&#x39f;" horiz-adv-x="1473" 
d="M1368 719q0 -174 -46.5 -311.5t-130 -233t-200 -146.5t-256.5 -51q-141 0 -257 50t-199 145t-129 232t-46 311t46.5 311.5t130.5 233t201 146t257 50.5t255.5 -50t198.5 -145t129 -231.5t46 -310.5zM1073 715q0 109 -25 194t-70 143t-107.5 88.5t-137.5 30.5t-137 -29.5
t-105.5 -87t-67.5 -142t-24 -193.5t25 -194t70 -143.5t107.5 -89t137.5 -30.5t137 30t105.5 87.5t67.5 142t24 193.5z" />
    <glyph glyph-name="Pi" unicode="&#x3a0;" horiz-adv-x="1499" 
d="M1028 0v1139h-557v-1139h-287v1434h1131v-1434h-287z" />
    <glyph glyph-name="Rho" unicode="&#x3a1;" horiz-adv-x="1393" 
d="M1305 979q0 -125 -39.5 -214t-109 -146t-164.5 -84t-206 -27h-315v-508h-287v1434h627q101 0 191 -28t157.5 -85t106.5 -142.5t39 -199.5zM1010 973q0 44 -13 78.5t-41.5 57.5t-67.5 34.5t-87 11.5h-330v-369h334q100 0 152.5 46.5t52.5 140.5z" />
    <glyph glyph-name="Sigma" unicode="&#x3a3;" horiz-adv-x="1380" 
d="M550 1171l394 -401l-435 -485h751v-285h-1121v256l443 498l-418 426v254h1071v-263h-685z" />
    <glyph glyph-name="Tau" unicode="&#x3a4;" horiz-adv-x="1294" 
d="M791 1151v-1151h-287v1151h-412v283h1110v-283h-411z" />
    <glyph glyph-name="Upsilon" unicode="&#x3a5;" horiz-adv-x="1462" 
d="M1418 1434l-543 -867v-567h-287v561l-543 873h330l358 -600l359 600h326z" />
    <glyph glyph-name="Phi" unicode="&#x3a6;" horiz-adv-x="1737" 
d="M1642 733q0 -128 -43.5 -230t-125 -175.5t-198 -117t-263.5 -54.5v-156h-287v156q-146 10 -263 53.5t-198.5 117t-125.5 176t-44 230.5t45.5 229.5t128 175t199 117.5t258.5 58v121h287v-121q144 -12 260 -56t198.5 -117.5t127 -176t44.5 -230.5zM1352 733q0 71 -23 128
t-66.5 98t-106.5 65.5t-144 30.5v-639q78 5 141 25.5t107.5 58.5t68 95.5t23.5 137.5zM725 1055q-75 -3 -137.5 -25.5t-107.5 -63t-70 -98.5t-25 -131q0 -84 23 -141t64 -92.5t102 -58t151 -29.5v639z" />
    <glyph glyph-name="Chi" unicode="&#x3a7;" horiz-adv-x="1438" 
d="M1346 0h-342l-285 483l-285 -483h-342l455 733l-434 701h342l264 -452l264 452h342l-436 -701z" />
    <glyph glyph-name="Psi" unicode="&#x3a8;" horiz-adv-x="1634" 
d="M1522 899q0 -137 -41 -237t-115 -167.5t-177 -104.5t-228 -48v-342h-287v342q-119 9 -221.5 44t-178 102t-118.5 168.5t-43 242.5v535h282v-535q0 -155 72.5 -224.5t206.5 -72.5v832h287v-834q146 5 212 82t66 223v529h283v-535z" />
    <glyph glyph-name="uni03A9" unicode="&#x3a9;" horiz-adv-x="1505" 
d="M406 782q0 -86 15 -158t44.5 -135t73.5 -118.5t102 -108.5v-262h-520v262h209q-46 45 -88 101.5t-71 120.5t-44.5 135.5t-15.5 154.5q0 155 49.5 281t136 215t204.5 137.5t255 48.5q140 0 257.5 -50t202 -140t132 -215.5t47.5 -276.5q0 -83 -15.5 -154t-45.5 -134.5
t-73 -120.5t-90 -103h213v-262h-520v262q58 51 101.5 107.5t76 125t45.5 137t13 146.5q0 81 -23.5 153t-68.5 125t-110 84t-148 31q-75 0 -138 -26.5t-108.5 -76.5t-71.5 -122.5t-26 -163.5z" />
    <glyph glyph-name="Iotadieresis" unicode="&#x3aa;" horiz-adv-x="696" 
d="M205 0v1434h287v-1434h-287zM731 1673q0 -32 -13 -60t-34.5 -50t-50.5 -34.5t-60 -12.5q-33 0 -62.5 12.5t-51.5 34.5t-35 50t-13 60q0 33 13 62t35 51t51.5 34.5t62.5 12.5q31 0 60 -12.5t50.5 -34.5t34.5 -51t13 -62zM289 1673q0 -32 -13 -60t-35 -50t-51 -34.5
t-61 -12.5t-61 12.5t-51 34.5t-35 50t-13 60q0 33 13 62t35 51t51 34.5t61 12.5t61 -12.5t51 -34.5t35 -51t13 -62z" />
    <glyph glyph-name="Upsilondieresis" unicode="&#x3ab;" horiz-adv-x="1462" 
d="M1418 1434l-543 -867v-567h-287v561l-543 873h330l358 -600l359 600h326zM1114 1663q0 -32 -13 -60t-34.5 -50t-50.5 -34.5t-60 -12.5q-33 0 -62.5 12.5t-51.5 34.5t-35 50t-13 60q0 33 13 62t35 51t51.5 34.5t62.5 12.5q31 0 60 -12.5t50.5 -34.5t34.5 -51t13 -62z
M672 1663q0 -32 -13 -60t-35 -50t-51 -34.5t-61 -12.5t-61 12.5t-51 34.5t-35 50t-13 60q0 33 13 62t35 51t51 34.5t61 12.5t61 -12.5t51 -34.5t35 -51t13 -62z" />
    <glyph glyph-name="alphatonos" unicode="&#x3ac;" horiz-adv-x="1147" 
d="M727 0v68q-57 -48 -109 -69.5t-118 -21.5q-73 0 -147.5 27t-134.5 92.5t-98 176t-38 278.5q0 136 33 239t90 171t133 102.5t162 34.5q65 0 116.5 -18.5t110.5 -65.5v61h283v-1075h-283zM727 739q-35 45 -81 68.5t-109 23.5q-38 0 -69 -15t-53 -48t-34 -85t-12 -126
q0 -172 50.5 -242.5t133.5 -70.5q57 0 97 21t77 69v405zM679 1219h-239l178 327h358z" />
    <glyph glyph-name="epsilontonos" unicode="&#x3ad;" horiz-adv-x="1083" 
d="M547 453q-51 0 -84.5 -9t-53.5 -24t-28 -34t-8 -40q0 -49 47.5 -74.5t150.5 -25.5q37 0 77.5 6.5t82 20t82 34t78.5 49.5l141 -209q-54 -43 -102 -70t-115 -53t-137.5 -37.5t-147.5 -11.5q-92 0 -173 16.5t-141 54t-95 98t-35 147.5q0 57 15.5 102t42 79t62.5 58.5
t77 40.5q-30 14 -56.5 34t-46.5 47t-31.5 62t-11.5 79q0 79 36 136.5t96 95t138.5 55.5t163.5 18q131 0 230 -32.5t184 -92.5l-127 -209q-36 25 -73.5 41.5t-73.5 26t-69.5 13t-61.5 3.5q-81 0 -124.5 -22.5t-43.5 -65.5q0 -18 7.5 -34t24 -27.5t43 -18t64.5 -6.5h215v-221
h-219zM690 1219h-239l178 327h358z" />
    <glyph glyph-name="etatonos" unicode="&#x3ae;" horiz-adv-x="1196" 
d="M1069 -254l-283 -141v977q0 127 -40.5 188t-141.5 61q-44 0 -78 -12t-57.5 -40t-36 -74.5t-12.5 -116.5v-588h-283v1075h283v-71q18 18 43.5 35t59.5 31.5t71.5 21t77.5 6.5q103 0 177.5 -34.5t123.5 -98t72.5 -154.5t23.5 -205v-860zM729 1219h-239l178 327h358z" />
    <glyph glyph-name="iotatonos" unicode="&#x3af;" horiz-adv-x="578" 
d="M147 0v1075h283v-1075h-283zM419 1219h-239l178 327h358z" />
    <glyph glyph-name="upsilondieresistonos" unicode="&#x3b0;" horiz-adv-x="1178" 
d="M936.5 97q-118.5 -120 -348.5 -120q-97 0 -169.5 19.5t-124 53t-85 79.5t-52.5 98.5t-26.5 109t-7.5 112.5v626h283v-610q0 -59 13 -99.5t37 -66.5t57 -37.5t73 -11.5q37 0 70.5 9t59 33t41 66t15.5 107v610h283v-626q0 -232 -118.5 -352zM589 1219h-186l151 352h304z
M1046 1343q0 -29 -10.5 -55t-29.5 -45.5t-44 -31t-53 -11.5q-26 0 -50 11.5t-42 31t-28.5 45.5t-10.5 55q0 30 10.5 56.5t28.5 46.5t42 31.5t50 11.5q28 0 53 -11.5t44 -31.5t29.5 -46.5t10.5 -56.5zM395 1343q0 -29 -10.5 -55t-29 -45.5t-44 -31t-54.5 -11.5
q-25 0 -48 11.5t-40 31t-27.5 45.5t-10.5 55q0 30 10.5 56.5t27.5 46.5t40 31.5t48 11.5q29 0 54.5 -11.5t44 -31.5t29 -46.5t10.5 -56.5z" />
    <glyph glyph-name="alpha" unicode="&#x3b1;" horiz-adv-x="1147" 
d="M727 0v68q-57 -48 -109 -69.5t-118 -21.5q-73 0 -147.5 27t-134.5 92.5t-98 176t-38 278.5q0 136 33 239t90 171t133 102.5t162 34.5q65 0 116.5 -18.5t110.5 -65.5v61h283v-1075h-283zM727 739q-35 45 -81 68.5t-109 23.5q-38 0 -69 -15t-53 -48t-34 -85t-12 -126
q0 -172 50.5 -242.5t133.5 -70.5q57 0 97 21t77 69v405z" />
    <glyph glyph-name="beta" unicode="&#x3b2;" horiz-adv-x="1151" 
d="M137 -395v1437q0 115 33 199t90 139t133.5 81t163.5 26q86 0 160 -24t128 -70.5t85 -115.5t31 -159q0 -50 -13.5 -93.5t-36.5 -80t-54 -64.5t-66 -46q46 -16 95.5 -44t90 -73t66.5 -110.5t26 -155.5q0 -118 -37.5 -206.5t-100 -148t-142.5 -89.5t-164 -30
q-48 0 -103.5 14t-103.5 48v-295zM418 283q40 -22 77.5 -30.5t82.5 -8.5q40 0 77 12.5t65.5 39t45 66.5t16.5 95q0 67 -18 110.5t-50.5 69t-77.5 35.5t-99 10h-9v246h17q77 0 111 47.5t34 126.5q0 75 -38.5 112t-98.5 37q-65 0 -100 -46t-35 -134v-788z" />
    <glyph glyph-name="gamma" unicode="&#x3b3;" horiz-adv-x="1130" 
d="M776 1075h303l-372 -1075v-254l-283 -141v395l-373 1075h311l205 -730z" />
    <glyph glyph-name="delta" unicode="&#x3b4;" horiz-adv-x="1133" 
d="M582 1217l217 -197q48 -44 93 -91.5t80.5 -105t57 -128t21.5 -160.5q0 -134 -39.5 -238t-106.5 -175t-155.5 -108t-186.5 -37q-93 0 -180 34.5t-153.5 101.5t-107 166.5t-40.5 230.5q0 100 27.5 182.5t76.5 145t116.5 103.5t146.5 56l-236 228v239h748v-247h-379z
M639 813h-41q-35 -1 -82.5 -19t-81.5 -54.5t-51.5 -93.5t-17.5 -130t16.5 -123.5t43.5 -82t63 -46t75 -14.5q41 0 77.5 17.5t64 53t43.5 89t16 125.5q0 46 -7.5 83.5t-21 68.5t-34.5 60.5t-62 65.5z" />
    <glyph glyph-name="epsilon" unicode="&#x3b5;" horiz-adv-x="1083" 
d="M547 453q-51 0 -84.5 -9t-53.5 -24t-28 -34t-8 -40q0 -49 47.5 -74.5t150.5 -25.5q37 0 77.5 6.5t82 20t82 34t78.5 49.5l141 -209q-54 -43 -102 -70t-115 -53t-137.5 -37.5t-147.5 -11.5q-92 0 -173 16.5t-141 54t-95 98t-35 147.5q0 57 15.5 102t42 79t62.5 58.5
t77 40.5q-30 14 -56.5 34t-46.5 47t-31.5 62t-11.5 79q0 79 36 136.5t96 95t138.5 55.5t163.5 18q131 0 230 -32.5t184 -92.5l-127 -209q-36 25 -73.5 41.5t-73.5 26t-69.5 13t-61.5 3.5q-81 0 -124.5 -22.5t-43.5 -65.5q0 -18 7.5 -34t24 -27.5t43 -18t64.5 -6.5h215v-221
h-219z" />
    <glyph glyph-name="zeta" unicode="&#x3b6;" horiz-adv-x="1036" 
d="M631 1200h-445v264h832v-256q-146 -93 -265.5 -190.5t-204 -196.5t-131 -196.5t-46.5 -188.5q0 -51 17 -83t45.5 -50t67 -24.5t81.5 -6.5h153q139 0 215 -59.5t76 -177.5q0 -86 -45 -175t-160 -198l-164 121q55 46 82 87t27 77q0 28 -18 40.5t-58 12.5h-145
q-95 0 -179.5 20t-147.5 67t-99.5 125t-36.5 194q0 93 29 188.5t94.5 194t171.5 202t254 209.5z" />
    <glyph glyph-name="eta" unicode="&#x3b7;" horiz-adv-x="1196" 
d="M1069 -254l-283 -141v977q0 127 -40.5 188t-141.5 61q-44 0 -78 -12t-57.5 -40t-36 -74.5t-12.5 -116.5v-588h-283v1075h283v-71q18 18 43.5 35t59.5 31.5t71.5 21t77.5 6.5q103 0 177.5 -34.5t123.5 -98t72.5 -154.5t23.5 -205v-860z" />
    <glyph glyph-name="theta" unicode="&#x3b8;" horiz-adv-x="1124" 
d="M1022 735q0 -170 -27.5 -310t-84.5 -239.5t-144 -154t-205 -54.5q-117 0 -203.5 54.5t-143.5 153.5t-84.5 238.5t-27.5 309.5t27.5 309t84 238t143 153t204.5 54q117 0 204 -54t144 -152.5t85 -237t28 -308.5zM741 864q-4 78 -12 148.5t-27.5 123.5t-54 84t-90.5 31
q-54 0 -87 -32t-51.5 -85.5t-26.5 -123.5t-11 -146h360zM379 631q4 -82 12 -157.5t27.5 -133.5t53.5 -92.5t89 -34.5q61 0 95.5 33.5t52.5 91t24 133.5t8 160h-362z" />
    <glyph glyph-name="iota" unicode="&#x3b9;" horiz-adv-x="578" 
d="M147 0v1075h283v-1075h-283z" />
    <glyph glyph-name="kappa" unicode="&#x3ba;" horiz-adv-x="1161" 
d="M741 1075h340l-313 -389l336 -686h-322l-219 455l-143 -166v-289h-283v1075h283v-434z" />
    <glyph glyph-name="lambda" unicode="&#x3bb;" horiz-adv-x="1208" 
d="M356 0h-305l432 1026l-51 139q-16 44 -48.5 65t-86.5 21q-29 0 -66.5 -5.5t-66.5 -16.5v223q37 15 95 25t106 10q77 0 130 -22t90.5 -61.5t64 -93.5t50.5 -118l457 -1192h-301l-249 742z" />
    <glyph glyph-name="uni03BC" unicode="&#x3bc;" horiz-adv-x="1206" 
d="M786 0v72q-37 -39 -101.5 -67t-149.5 -28q-16 0 -46 2t-69 11v-244l-283 -141v1470h283v-581q0 -72 12 -120.5t35 -77t57 -40.5t78 -12t78 12t57.5 40t36 74.5t12.5 116.5v588h283v-1075h-283z" />
    <glyph glyph-name="nu" unicode="&#x3bd;" horiz-adv-x="1167" 
d="M729 0h-291l-387 1075h311l226 -709l225 709h303z" />
    <glyph glyph-name="xi" unicode="&#x3be;" horiz-adv-x="1053" 
d="M325 1217h-151v247h840v-264h-291q-62 0 -112 -10t-85.5 -31t-55 -53.5t-19.5 -77.5q0 -31 13.5 -58.5t40.5 -48t66.5 -32.5t92.5 -12h233v-261h-279q-47 0 -91.5 -11t-79.5 -34t-56.5 -58.5t-21.5 -84.5q0 -46 19.5 -76t48.5 -48t62 -25t60 -7h172q57 0 109.5 -11.5
t93 -39t64.5 -73t24 -113.5q0 -92 -52.5 -187.5t-152.5 -185.5l-164 121q59 48 84 89t25 75q0 28 -18 40.5t-58 12.5h-135q-106 0 -193 22t-149.5 70t-96.5 123t-34 182q0 74 27.5 136.5t71.5 111.5t99 83t111 52q-100 23 -159.5 80.5t-59.5 145.5q0 68 40.5 122t116.5 89z
" />
    <glyph glyph-name="omicron" unicode="&#x3bf;" horiz-adv-x="1137" 
d="M1055 537q0 -124 -36.5 -227t-102 -177t-155 -115t-194.5 -41t-194 41t-153.5 115t-101 177t-36.5 227q0 123 36.5 226.5t101 177.5t153.5 115.5t194 41.5t194.5 -41.5t155 -115.5t102 -177.5t36.5 -226.5zM768 537q0 61 -12.5 113.5t-37.5 91.5t-62.5 61t-88.5 22
t-88 -22t-61.5 -60.5t-36.5 -91t-12 -114.5t12 -115t36.5 -91t61.5 -59.5t88 -21.5t88.5 23.5t62.5 63.5t37.5 92t12.5 108z" />
    <glyph glyph-name="pi" unicode="&#x3c0;" horiz-adv-x="1300" 
d="M61 1075h1178v-256h-131v-819h-283v819h-348v-819h-282v819h-134v256z" />
    <glyph glyph-name="rho" unicode="&#x3c1;" horiz-adv-x="1124" 
d="M395 -254l-282 -141v940q0 129 28.5 231.5t86 174t143.5 109.5t200 38q110 0 197.5 -37.5t148 -108.5t93 -173t32.5 -232q0 -141 -32 -248t-88.5 -178.5t-133 -107.5t-165.5 -36q-72 0 -126.5 23t-101.5 63v-317zM754 539q0 65 -8.5 118t-30 90.5t-57 57.5t-89.5 20
q-53 0 -86.5 -20t-53 -57.5t-27 -90.5t-7.5 -118v-222q32 -37 74.5 -57t105.5 -20q43 0 76.5 15t56 50.5t34.5 92.5t12 141z" />
    <glyph glyph-name="sigma1" unicode="&#x3c2;" horiz-adv-x="1094" 
d="M887 20q0 -51 -15.5 -98t-43.5 -91t-66.5 -86t-83.5 -83l-164 121q56 46 82.5 81t26.5 73q0 17 -8.5 29.5t-29 25t-55 26.5t-86.5 33q-70 26 -135 65.5t-115.5 99t-81 141t-30.5 192.5t36.5 211t103 175t159 119t203.5 44q76 0 141.5 -18t119.5 -49.5t97.5 -75.5
t77.5 -95l-186 -188q-24 34 -49.5 62t-55 48t-64 31.5t-77.5 11.5q-51 0 -92 -21.5t-69 -57.5t-43 -84t-15 -101q0 -60 18 -105t48.5 -78.5t71 -56.5t85.5 -38q62 -22 116 -42.5t93.5 -49t62.5 -69.5t23 -102z" />
    <glyph glyph-name="sigma" unicode="&#x3c3;" horiz-adv-x="1167" 
d="M369 539q0 -61 12 -113.5t36.5 -91.5t61.5 -61.5t88 -22.5t88.5 23.5t62.5 63t37.5 92t12.5 110.5q0 86 -19 160t-65 120h-84q-44 0 -85.5 -13t-74 -45.5t-52 -86.5t-19.5 -135zM962 819q50 -56 71.5 -126t21.5 -150q0 -131 -38.5 -236t-105 -178.5t-155 -112.5
t-187.5 -39q-101 0 -189.5 39t-154.5 112t-104.5 176.5t-38.5 232.5q0 144 42 246.5t113 167t164.5 94.5t196.5 30h508v-256h-144z" />
    <glyph glyph-name="tau" unicode="&#x3c4;" horiz-adv-x="1042" 
d="M961 1075v-258h-322v-436q0 -71 22 -102t80 -31q45 0 85 24t77 58l-41 -287q-40 -29 -96.5 -47.5t-118.5 -18.5q-56 0 -108.5 15.5t-93 52t-65 97.5t-24.5 153v522h-305v258h910z" />
    <glyph glyph-name="upsilon" unicode="&#x3c5;" horiz-adv-x="1178" 
d="M936.5 97q-118.5 -120 -348.5 -120q-97 0 -169.5 19.5t-124 53t-85 79.5t-52.5 98.5t-26.5 109t-7.5 112.5v626h283v-610q0 -59 13 -99.5t37 -66.5t57 -37.5t73 -11.5q37 0 70.5 9t59 33t41 66t15.5 107v610h283v-626q0 -232 -118.5 -352z" />
    <glyph glyph-name="phi" unicode="&#x3c6;" horiz-adv-x="1511" 
d="M614 -395v379q-110 12 -206.5 55t-169 114t-114.5 168t-42 216q0 120 42 217.5t114.5 168t169 114t206.5 55.5v172l283 141v-313q113 -12 210.5 -54.5t169 -113.5t112.5 -168.5t41 -218.5q0 -120 -41 -217t-112.5 -167.5t-169 -113.5t-210.5 -55v-238zM1147 537
q0 79 -21.5 134t-56.5 91t-80 55t-92 25v-609q47 7 92 26t80 54t56.5 90t21.5 134zM614 842q-47 -6 -91.5 -25t-79.5 -55t-56.5 -91t-21.5 -134t21.5 -134t56.5 -90t79.5 -54t91.5 -26v609z" />
    <glyph glyph-name="chi" unicode="&#x3c7;" horiz-adv-x="1217" 
d="M393 0h-348l397 555l-358 520h354l176 -275l179 275h337l-356 -508l397 -567h-358l-217 330z" />
    <glyph glyph-name="psi" unicode="&#x3c8;" horiz-adv-x="1528" 
d="M623 -14q-118 10 -212.5 41.5t-160.5 92t-101.5 154t-35.5 226.5v575h278v-563q0 -119 59.5 -190.5t172.5 -83.5v1026l282 141v-1167q113 12 172.5 82.5t59.5 191.5v563h278v-573q0 -133 -34.5 -226.5t-100.5 -154.5t-160.5 -93t-214.5 -42v-240l-282 -141v381z" />
    <glyph glyph-name="omega" unicode="&#x3c9;" horiz-adv-x="1573" 
d="M672 1075q-72 -71 -128 -138.5t-95 -138t-59.5 -147t-20.5 -166.5q0 -65 9.5 -109.5t28 -72.5t46 -40.5t63.5 -12.5q28 0 52 8t42 26t28.5 47t10.5 70v355h283v-355q0 -41 10.5 -70t28 -47t41.5 -26t51 -8q31 0 56.5 12.5t45.5 40.5t29.5 73.5t9.5 108.5q0 89 -21.5 165
t-60 146t-93 137.5t-120.5 141.5h320q66 -62 115 -133t82 -145.5t49 -151.5t16 -151q0 -92 -22 -184.5t-71 -166.5t-128.5 -120t-194.5 -46q-65 0 -113 19t-83 47.5t-57.5 62.5t-35.5 64q-14 -33 -38 -66.5t-60 -61.5t-85.5 -46.5t-115.5 -18.5q-111 0 -188.5 40
t-125.5 108.5t-69.5 159.5t-21.5 194q0 87 19.5 166t55 152.5t85 142.5t110.5 135h320z" />
    <glyph glyph-name="iotadieresis" unicode="&#x3ca;" horiz-adv-x="578" 
d="M147 0v1075h283v-1075h-283zM696 1368q0 -32 -13 -60t-34.5 -50t-50.5 -34.5t-60 -12.5q-33 0 -62.5 12.5t-51.5 34.5t-35 50t-13 60q0 33 13 62t35 51t51.5 34.5t62.5 12.5q31 0 60 -12.5t50.5 -34.5t34.5 -51t13 -62zM254 1368q0 -32 -13 -60t-35 -50t-51 -34.5
t-61 -12.5t-61 12.5t-51 34.5t-35 50t-13 60q0 33 13 62t35 51t51 34.5t61 12.5t61 -12.5t51 -34.5t35 -51t13 -62z" />
    <glyph glyph-name="upsilondieresis" unicode="&#x3cb;" horiz-adv-x="1178" 
d="M936.5 97q-118.5 -120 -348.5 -120q-97 0 -169.5 19.5t-124 53t-85 79.5t-52.5 98.5t-26.5 109t-7.5 112.5v626h283v-610q0 -59 13 -99.5t37 -66.5t57 -37.5t73 -11.5q37 0 70.5 9t59 33t41 66t15.5 107v610h283v-626q0 -232 -118.5 -352zM989 1368q0 -32 -13 -60
t-34.5 -50t-50.5 -34.5t-60 -12.5q-33 0 -62.5 12.5t-51.5 34.5t-35 50t-13 60q0 33 13 62t35 51t51.5 34.5t62.5 12.5q31 0 60 -12.5t50.5 -34.5t34.5 -51t13 -62zM547 1368q0 -32 -13 -60t-35 -50t-51 -34.5t-61 -12.5t-61 12.5t-51 34.5t-35 50t-13 60q0 33 13 62t35 51
t51 34.5t61 12.5t61 -12.5t51 -34.5t35 -51t13 -62z" />
    <glyph glyph-name="omicrontonos" unicode="&#x3cc;" horiz-adv-x="1137" 
d="M1055 537q0 -124 -36.5 -227t-102 -177t-155 -115t-194.5 -41t-194 41t-153.5 115t-101 177t-36.5 227q0 123 36.5 226.5t101 177.5t153.5 115.5t194 41.5t194.5 -41.5t155 -115.5t102 -177.5t36.5 -226.5zM768 537q0 61 -12.5 113.5t-37.5 91.5t-62.5 61t-88.5 22
t-88 -22t-61.5 -60.5t-36.5 -91t-12 -114.5t12 -115t36.5 -91t61.5 -59.5t88 -21.5t88.5 23.5t62.5 63.5t37.5 92t12.5 108zM706 1219h-239l178 327h358z" />
    <glyph glyph-name="upsilontonos" unicode="&#x3cd;" horiz-adv-x="1178" 
d="M936.5 97q-118.5 -120 -348.5 -120q-97 0 -169.5 19.5t-124 53t-85 79.5t-52.5 98.5t-26.5 109t-7.5 112.5v626h283v-610q0 -59 13 -99.5t37 -66.5t57 -37.5t73 -11.5q37 0 70.5 9t59 33t41 66t15.5 107v610h283v-626q0 -232 -118.5 -352zM700 1219h-239l178 327h358z
" />
    <glyph glyph-name="omegatonos" unicode="&#x3ce;" horiz-adv-x="1573" 
d="M672 1075q-72 -71 -128 -138.5t-95 -138t-59.5 -147t-20.5 -166.5q0 -65 9.5 -109.5t28 -72.5t46 -40.5t63.5 -12.5q28 0 52 8t42 26t28.5 47t10.5 70v355h283v-355q0 -41 10.5 -70t28 -47t41.5 -26t51 -8q31 0 56.5 12.5t45.5 40.5t29.5 73.5t9.5 108.5q0 89 -21.5 165
t-60 146t-93 137.5t-120.5 141.5h320q66 -62 115 -133t82 -145.5t49 -151.5t16 -151q0 -92 -22 -184.5t-71 -166.5t-128.5 -120t-194.5 -46q-65 0 -113 19t-83 47.5t-57.5 62.5t-35.5 64q-14 -33 -38 -66.5t-60 -61.5t-85.5 -46.5t-115.5 -18.5q-111 0 -188.5 40
t-125.5 108.5t-69.5 159.5t-21.5 194q0 87 19.5 166t55 152.5t85 142.5t110.5 135h320zM909 1219h-239l178 327h358z" />
    <glyph glyph-name="afii10023" unicode="&#x401;" horiz-adv-x="1331" 
d="M1210 0h-1026v1434h996v-281h-709v-248h576v-278h-576v-346h739v-281zM1069 1683q0 -32 -13 -60t-34.5 -50t-50.5 -34.5t-60 -12.5q-33 0 -62.5 12.5t-51.5 34.5t-35 50t-13 60q0 33 13 62t35 51t51.5 34.5t62.5 12.5q31 0 60 -12.5t50.5 -34.5t34.5 -51t13 -62z
M627 1683q0 -32 -13 -60t-35 -50t-51 -34.5t-61 -12.5t-61 12.5t-51 34.5t-35 50t-13 60q0 33 13 62t35 51t51 34.5t61 12.5t61 -12.5t51 -34.5t35 -51t13 -62z" />
    <glyph glyph-name="afii10051" unicode="&#x402;" horiz-adv-x="1751" 
d="M1202 1151h-411v-248q23 21 56 40t74.5 33.5t90 23t102.5 8.5q133 0 230 -40.5t160 -116.5t93.5 -184t30.5 -243v-156q0 -203 -107.5 -347t-312.5 -202l-75 281q114 43 161 106.5t47 161.5v156q0 87 -18 146t-53 94t-86 50t-117 15q-85 0 -158.5 -29t-117.5 -79v-621
h-287v1151h-412v283h1110v-283z" />
    <glyph glyph-name="afii10052" unicode="&#x403;" horiz-adv-x="1331" 
d="M471 1153v-1153h-287v1434h996v-281h-709zM710 1526h-239l178 327h358z" />
    <glyph glyph-name="afii10053" unicode="&#x404;" horiz-adv-x="1372" 
d="M1266 301q-37 -76 -88 -136t-117 -102t-146.5 -64t-178.5 -22q-141 0 -256.5 52t-198 148t-127.5 233t-45 307q0 163 48 299t130.5 234t200.5 152t252 54q193 0 323.5 -80.5t207.5 -236.5l-263 -121q-38 74 -104.5 116t-165.5 42q-65 0 -119 -22t-95.5 -62t-70 -97
t-43.5 -127h573v-254h-582q11 -78 38.5 -143.5t71.5 -113.5t101.5 -73.5t127.5 -25.5q97 0 164.5 44t123.5 138z" />
    <glyph glyph-name="afii10054" unicode="&#x405;" horiz-adv-x="1354" 
d="M1235 434q0 -102 -33 -186t-102 -144.5t-175 -93.5t-253 -33q-90 0 -173 18.5t-155 52t-130.5 82t-98.5 108.5l207 184q75 -88 169 -126t197 -38q73 0 118 10.5t75.5 29t43.5 43.5t13 73q0 34 -12 60.5t-46.5 48.5t-97 42t-164.5 43q-99 23 -181.5 53t-141.5 78
t-92 119.5t-33 177.5q0 97 40 175t109.5 132.5t163 83.5t199.5 29q82 0 155.5 -14.5t144 -47.5t119.5 -70t103 -93l-207 -201q-41 42 -72 65t-71 42.5t-84 30t-98 10.5q-58 0 -97 -11.5t-63 -29.5t-34.5 -41t-10.5 -47q0 -34 13 -58t46 -42.5t88.5 -35t141.5 -36.5
q122 -29 203 -60.5t143 -80.5t97.5 -124t35.5 -178z" />
    <glyph glyph-name="afii10055" unicode="&#x406;" horiz-adv-x="696" 
d="M205 0v1434h287v-1434h-287z" />
    <glyph glyph-name="afii10056" unicode="&#x407;" horiz-adv-x="696" 
d="M205 0v1434h287v-1434h-287zM731 1673q0 -32 -13 -60t-34.5 -50t-50.5 -34.5t-60 -12.5q-33 0 -62.5 12.5t-51.5 34.5t-35 50t-13 60q0 33 13 62t35 51t51.5 34.5t62.5 12.5q31 0 60 -12.5t50.5 -34.5t34.5 -51t13 -62zM289 1673q0 -32 -13 -60t-35 -50t-51 -34.5
t-61 -12.5t-61 12.5t-51 34.5t-35 50t-13 60q0 33 13 62t35 51t51 34.5t61 12.5t61 -12.5t51 -34.5t35 -51t13 -62z" />
    <glyph glyph-name="afii10057" unicode="&#x408;" horiz-adv-x="1331" 
d="M1157 598q0 -303 -140 -462t-403 -159q-107 0 -196 31t-158.5 87t-118 134t-75.5 172l280 76q24 -63 45.5 -97.5t54 -62.5t73.5 -41.5t95 -13.5q68 0 116.5 21.5t79.5 64.5t45.5 103t14.5 139v844h287v-836z" />
    <glyph glyph-name="afii10058" unicode="&#x409;" horiz-adv-x="2212" 
d="M1280 926h340q101 0 191 -28t157.5 -85t106.5 -142.5t39 -199.5q0 -125 -39.5 -214t-109 -146t-164.5 -84t-206 -27h-602v1153h-377l-88 -627q-36 -231 -155 -367t-273 -182l-75 281q102 43 151 103t66 165l129 908h909v-508zM1819 465q0 94 -57 138t-152 44h-330v-368
h334q100 0 152.5 46t52.5 140z" />
    <glyph glyph-name="afii10059" unicode="&#x40a;" horiz-adv-x="2234" 
d="M1309 926h340q101 0 191 -28t157 -85t106 -142.5t39 -199.5q0 -125 -39 -214t-108.5 -146t-164.5 -84t-206 -27h-602v647h-551v-647h-287v1434h287v-508h551v508h287v-508zM1847 465q0 94 -57 138t-152 44h-329v-368h333q101 0 153 46t52 140z" />
    <glyph glyph-name="afii10060" unicode="&#x40b;" horiz-adv-x="1751" 
d="M1202 1151h-411v-248q23 21 56 40t74.5 33.5t90 23t102.5 8.5q133 0 230 -40.5t160 -116.5t93.5 -184t30.5 -243v-424h-287v424q0 87 -18 146t-53 94t-86 50t-117 15q-87 0 -160 -29.5t-116 -78.5v-621h-287v1151h-412v283h1110v-283z" />
    <glyph glyph-name="afii10061" unicode="&#x40c;" horiz-adv-x="1475" 
d="M1434 0h-344l-390 692l-229 -270v-422h-287v1434h287v-623l510 623h346l-420 -496zM710 1526h-239l178 327h358z" />
    <glyph glyph-name="afii10062" unicode="&#x40e;" horiz-adv-x="1462" 
d="M1092 1434h321l-751 -1434h-287l213 416l-543 1018h330l358 -707zM733 1526q-92 0 -168.5 24.5t-132 68t-86.5 103.5t-31 131h195q0 -29 16.5 -53.5t46 -42t70.5 -27.5t90 -10t90 10t70.5 27.5t46 42t16.5 53.5h195q0 -71 -31 -131t-86.5 -103.5t-132.5 -68t-168 -24.5z
" />
    <glyph glyph-name="afii10145" unicode="&#x40f;" horiz-adv-x="1530" 
d="M1346 0h-435l-14 -352h-276v352h-437v1434h287v-1153h588v1153h287v-1434z" />
    <glyph glyph-name="afii10017" unicode="&#x410;" horiz-adv-x="1536" 
d="M1454 0h-315l-113 319h-524l-113 -319h-307l549 1434h278zM928 592l-164 467l-164 -467h328z" />
    <glyph glyph-name="afii10018" unicode="&#x411;" horiz-adv-x="1464" 
d="M1051 459q0 93 -50 138.5t-155 45.5h-381v-371h381q105 0 155 51t50 136zM465 1163v-266h383q114 0 206 -26t157 -79.5t100 -135.5t35 -193q0 -113 -36.5 -199.5t-103.5 -145t-161 -88.5t-209 -30h-652v1434h1073v-271h-792z" />
    <glyph glyph-name="afii10019" unicode="&#x412;" horiz-adv-x="1454" 
d="M1346 463q0 -222 -139 -342.5t-371 -120.5h-652v1434h658q104 0 188 -25t143 -73t91 -118.5t32 -162.5q0 -49 -10.5 -90t-31.5 -77t-46 -62t-63 -50q43 -19 80 -48t64 -68t42 -88.5t15 -108.5zM1006 1032q0 32 -9 56t-27.5 42t-53 28.5t-87.5 10.5h-364v-272h379
q45 0 75.5 10t50 27.5t28 42.5t8.5 55zM1051 459q0 48 -12.5 81t-35.5 55.5t-61.5 35t-95.5 12.5h-381v-371h381q55 0 94 13.5t64 41t36 60t11 72.5z" />
    <glyph glyph-name="afii10020" unicode="&#x413;" horiz-adv-x="1331" 
d="M471 1153v-1153h-287v1434h996v-281h-709z" />
    <glyph glyph-name="afii10021" unicode="&#x414;" horiz-adv-x="1468" 
d="M997 1153h-387l-37 -268q-12 -91 -23.5 -162t-22.5 -127t-21 -100t-20.5 -80.5t-21.5 -69t-22 -65.5h555v872zM365 1434h919v-1153h133v-633h-276l-15 352h-792l-15 -352h-276v633h113q32 98 49.5 165.5t31.5 136.5t25.5 140t24.5 162z" />
    <glyph glyph-name="afii10022" unicode="&#x415;" horiz-adv-x="1331" 
d="M1210 0h-1026v1434h996v-281h-709v-248h576v-278h-576v-346h739v-281z" />
    <glyph glyph-name="afii10024" unicode="&#x416;" horiz-adv-x="2232" 
d="M1260 1434v-586l479 586h346l-420 -496l526 -938h-344l-389 692l-198 -235v-457h-287v451l-205 241l-383 -692h-338l520 930l-426 504h353l479 -587v587h287z" />
    <glyph glyph-name="afii10025" unicode="&#x417;" 
d="M659 872q43 0 74 13t50.5 35t28.5 50t9 58t-10.5 59.5t-34.5 52.5t-63 37.5t-97 14.5q-99 0 -180.5 -39.5t-150.5 -114.5l-201 193q101 106 229.5 165.5t294.5 59.5q141 0 237.5 -35.5t156 -92.5t85 -129.5t25.5 -145.5q0 -96 -44.5 -170t-125.5 -119q47 -20 87 -50
t69.5 -70.5t46 -91.5t16.5 -112q0 -85 -28.5 -168t-94.5 -148.5t-174 -106t-266 -40.5q-179 0 -327 70.5t-230 190.5l203 180q78 -89 177.5 -128.5t209.5 -39.5q66 0 111 16.5t72.5 43t39.5 60t12 68.5q0 34 -10.5 66.5t-33 58t-58 40.5t-84.5 15h-291v254h270z" />
    <glyph glyph-name="afii10026" unicode="&#x418;" horiz-adv-x="1530" 
d="M1071 1434h275v-1434h-287v953l-600 -953h-275v1434h287v-955z" />
    <glyph glyph-name="afii10027" unicode="&#x419;" horiz-adv-x="1530" 
d="M1071 1434h275v-1434h-287v953l-600 -953h-275v1434h287v-955zM764 1526q-92 0 -168.5 24.5t-132 68t-86.5 103.5t-31 131h195q0 -29 16.5 -53.5t46 -42t70.5 -27.5t90 -10t90 10t70.5 27.5t46 42t16.5 53.5h195q0 -71 -31 -131t-86.5 -103.5t-132.5 -68t-168 -24.5z" />
    <glyph glyph-name="afii10028" unicode="&#x41a;" horiz-adv-x="1475" 
d="M1434 0h-344l-390 692l-229 -270v-422h-287v1434h287v-623l510 623h346l-420 -496z" />
    <glyph glyph-name="afii10029" unicode="&#x41b;" horiz-adv-x="1454" 
d="M508 526q-15 -107 -52.5 -196t-92.5 -158.5t-127 -118.5t-156 -76l-76 281q50 21 87.5 45.5t63.5 57t42 73t24 92.5l129 908h920v-1434h-287v1153h-387z" />
    <glyph glyph-name="afii10030" unicode="&#x41c;" horiz-adv-x="1710" 
d="M1526 0h-287v816l-387 -849l-387 849v-816h-281v1434h277l397 -867l385 867h283v-1434z" />
    <glyph glyph-name="afii10031" unicode="&#x41d;" horiz-adv-x="1530" 
d="M1059 0v602h-588v-602h-287v1434h287v-549h588v549h287v-1434h-287z" />
    <glyph glyph-name="afii10032" unicode="&#x41e;" horiz-adv-x="1473" 
d="M1368 719q0 -174 -46.5 -311.5t-130 -233t-200 -146.5t-256.5 -51q-141 0 -257 50t-199 145t-129 232t-46 311t46.5 311.5t130.5 233t201 146t257 50.5t255.5 -50t198.5 -145t129 -231.5t46 -310.5zM1073 715q0 109 -25 194t-70 143t-107.5 88.5t-137.5 30.5t-137 -29.5
t-105.5 -87t-67.5 -142t-24 -193.5t25 -194t70 -143.5t107.5 -89t137.5 -30.5t137 30t105.5 87.5t67.5 142t24 193.5z" />
    <glyph glyph-name="afii10033" unicode="&#x41f;" horiz-adv-x="1530" 
d="M1059 0v1153h-588v-1153h-287v1434h1162v-1434h-287z" />
    <glyph glyph-name="afii10034" unicode="&#x420;" horiz-adv-x="1393" 
d="M1305 979q0 -125 -39.5 -214t-109 -146t-164.5 -84t-206 -27h-315v-508h-287v1434h627q101 0 191 -28t157.5 -85t106.5 -142.5t39 -199.5zM1010 973q0 44 -13 78.5t-41.5 57.5t-67.5 34.5t-87 11.5h-330v-369h334q100 0 152.5 46.5t52.5 140.5z" />
    <glyph glyph-name="afii10035" unicode="&#x421;" horiz-adv-x="1372" 
d="M1004 1016q-24 46 -46 69t-54 43.5t-71 31.5t-92 11q-81 0 -143.5 -33.5t-106 -93.5t-66 -143.5t-22.5 -183.5q0 -97 23 -180t66.5 -144t106.5 -96t144 -35q88 0 152.5 38t128.5 144l242 -143q-37 -76 -88 -136t-117 -102t-147.5 -64t-178.5 -22q-98 0 -178.5 23.5
t-151.5 68.5t-126 110t-88 135t-57.5 171.5t-24.5 231.5q0 163 47 299t131 234t201 152t257 54q181 0 314 -78.5t211 -238.5z" />
    <glyph glyph-name="afii10036" unicode="&#x422;" horiz-adv-x="1294" 
d="M791 1151v-1151h-287v1151h-412v283h1110v-283h-411z" />
    <glyph glyph-name="afii10037" unicode="&#x423;" horiz-adv-x="1462" 
d="M1092 1434h321l-751 -1434h-287l213 416l-543 1018h330l358 -707z" />
    <glyph glyph-name="afii10038" unicode="&#x424;" horiz-adv-x="1892" 
d="M1090 319q106 0 182.5 29t125.5 81.5t72 125.5t23 162q0 88 -23 161t-72 125.5t-125.5 81.5t-182.5 29v-795zM803 1114q-107 0 -183.5 -29t-125.5 -81.5t-72 -125.5t-23 -161q0 -89 23 -162t72 -125.5t125.5 -81.5t183.5 -29v795zM803 1513h287v-124q144 0 271.5 -38.5
t222 -120t149.5 -209t55 -304.5t-56.5 -304.5t-152.5 -209t-222.5 -120t-266.5 -38.5v-127h-287v127q-141 0 -267.5 38.5t-222.5 120t-152.5 209t-56.5 304.5t55 304.5t150 209t222.5 120t271.5 38.5v124z" />
    <glyph glyph-name="afii10039" unicode="&#x425;" horiz-adv-x="1438" 
d="M1346 0h-342l-285 483l-285 -483h-342l455 733l-434 701h342l264 -452l264 452h342l-436 -701z" />
    <glyph glyph-name="afii10040" unicode="&#x426;" horiz-adv-x="1530" 
d="M1346 281h133v-633h-277l-14 352h-1004v1434h287v-1153h588v1153h287v-1153z" />
    <glyph glyph-name="afii10041" unicode="&#x427;" horiz-adv-x="1438" 
d="M416 1114q0 -87 18 -146t53 -94t86 -50t117 -15q47 0 89 8.5t77 23.5t63 34.5t48 42.5v516h286v-1434h-286v635q-23 -21 -56.5 -40t-75 -33.5t-90 -23t-102.5 -8.5q-134 0 -231 40.5t-160 116.5t-93 184t-30 243v320h287v-320z" />
    <glyph glyph-name="afii10042" unicode="&#x428;" horiz-adv-x="2052" 
d="M1868 0h-1684v1434h287v-1153h412v1153h286v-1153h412v1153h287v-1434z" />
    <glyph glyph-name="afii10043" unicode="&#x429;" horiz-adv-x="2052" 
d="M1868 281h133v-633h-277l-14 352h-1526v1434h287v-1153h412v1153h286v-1153h412v1153h287v-1153z" />
    <glyph glyph-name="afii10044" unicode="&#x42a;" horiz-adv-x="1561" 
d="M1145 465q0 94 -57 138t-152 44h-330v-368h334q100 0 152.5 46t52.5 140zM606 926h340q102 0 191.5 -28t157 -85t106.5 -142.5t39 -199.5q0 -125 -39 -214t-108.5 -146t-164.5 -84t-206 -27h-603v1163h-319v271h606v-508z" />
    <glyph glyph-name="afii10045" unicode="&#x42b;" horiz-adv-x="2005" 
d="M471 926h340q101 0 191 -28t157.5 -85t106.5 -142.5t39 -199.5q0 -125 -39.5 -214t-109 -146t-164.5 -84t-206 -27h-602v1434h287v-508zM1010 465q0 94 -57 138t-152 44h-330v-368h334q100 0 152.5 46t52.5 140zM1534 0v1434h287v-1434h-287z" />
    <glyph glyph-name="afii10046" unicode="&#x42c;" horiz-adv-x="1425" 
d="M471 926h340q101 0 191 -28t157.5 -85t106.5 -142.5t39 -199.5q0 -125 -39.5 -214t-109 -146t-164.5 -84t-206 -27h-602v1434h287v-508zM1010 465q0 94 -57 138t-152 44h-330v-368h334q100 0 152.5 46t52.5 140z" />
    <glyph glyph-name="afii10047" unicode="&#x42d;" horiz-adv-x="1372" 
d="M344 440q56 -94 121 -138t168 -44q70 0 127 26.5t100 73.5t70.5 112.5t38.5 143.5h-580v254h574q-15 70 -43.5 127t-70 97t-95.5 62t-119 22q-99 0 -165.5 -42t-104.5 -116l-263 121q35 70 84 128t115 100t150 65.5t188 23.5q144 0 259.5 -54t196.5 -152t125 -234
t44 -299q0 -170 -45 -307t-127.5 -233t-198 -148t-256.5 -52q-98 0 -179 22t-147 64t-117 102t-88 136z" />
    <glyph glyph-name="afii10048" unicode="&#x42e;" horiz-adv-x="2079" 
d="M471 885h252q21 135 75 241t135 179.5t185.5 112t227.5 38.5q139 0 255 -50t198.5 -145t128.5 -231.5t46 -310.5t-46.5 -311.5t-130 -233t-200 -146.5t-256.5 -51q-131 0 -240 43t-190.5 124.5t-132 200t-63.5 269.5h-244v-614h-287v1434h287v-549zM1679 715
q0 109 -25 194t-70 143t-107.5 88.5t-137.5 30.5t-136.5 -29.5t-105 -87t-67.5 -142t-24 -193.5t25 -194t70 -143.5t107.5 -89t137.5 -30.5t136.5 30t105 87.5t67.5 142t24 193.5z" />
    <glyph glyph-name="afii10049" unicode="&#x42f;" horiz-adv-x="1475" 
d="M176 983q0 114 38.5 198.5t105.5 140.5t156 84t190 28h624v-1434h-280v516h-336l-258 -516h-322l291 584q-97 52 -153 150t-56 249zM471 969q0 -100 56 -149.5t161 -49.5h322v393h-316q-51 0 -92 -11.5t-70 -35.5t-45 -60.5t-16 -86.5z" />
    <glyph glyph-name="afii10065" unicode="&#x430;" horiz-adv-x="1139" 
d="M729 0v72q-19 -20 -43 -36.5t-58 -31t-69 -21t-72 -6.5q-75 0 -147 23.5t-128.5 70.5t-91 119t-34.5 170q0 89 34 156t93 111.5t138.5 67t170.5 22.5q75 0 124 -13t83 -30v53q0 60 -40 98.5t-114 38.5q-94 0 -153 -13.5t-141 -57.5l-109 196q102 60 193.5 84.5
t209.5 24.5q98 0 178.5 -25t138 -73t89 -118t31.5 -161v-721h-283zM729 451q-18 11 -37 19.5t-42 14t-51.5 8.5t-66.5 3q-80 0 -121.5 -35.5t-41.5 -100.5q0 -28 8.5 -54t28 -45.5t50.5 -31.5t76 -12q35 0 65.5 8t56 21.5t44.5 31.5t31 37v136z" />
    <glyph glyph-name="afii10066" unicode="&#x431;" horiz-adv-x="1174" 
d="M801 526q0 60 -12.5 111.5t-36.5 90t-59.5 60t-82.5 21.5q-48 0 -84 -21.5t-59.5 -59.5t-35 -89.5t-11.5 -112.5q0 -62 11.5 -113.5t35 -89t59.5 -58.5t84 -21t83.5 23.5t59.5 62.5t36 90t12 106zM807 1257q-101 0 -175.5 -24t-124.5 -64t-74.5 -92t-24.5 -108
q48 49 106 77.5t127 28.5q110 0 193.5 -40.5t139.5 -113.5t84.5 -173.5t28.5 -221.5t-36 -222t-99.5 -173.5t-150.5 -113t-189 -40.5q-103 0 -190 40.5t-150.5 113t-99 173.5t-35.5 222v381q0 130 50.5 237.5t140 185t212.5 120.5t267 43q63 0 111.5 6t93.5 17v-228
q-44 -15 -94.5 -23t-110.5 -8z" />
    <glyph glyph-name="afii10067" unicode="&#x432;" horiz-adv-x="1157" 
d="M717 1075q78 0 141 -18.5t107.5 -54.5t68 -89t23.5 -122q0 -70 -31.5 -123.5t-87.5 -85.5q32 -15 59.5 -37t47.5 -51t31 -66t11 -82q0 -84 -27 -149t-77 -108.5t-120.5 -66t-157.5 -22.5h-568v1075h580zM778 762q0 49 -30.5 74.5t-98.5 25.5h-235v-198h245
q64 0 91.5 28.5t27.5 69.5zM805 332q0 60 -32 89.5t-101 29.5h-258v-238h258q69 0 101 32.5t32 86.5z" />
    <glyph glyph-name="afii10068" unicode="&#x433;" horiz-adv-x="956" 
d="M420 836v-836h-283v1075h795v-239h-512z" />
    <glyph glyph-name="afii10069" unicode="&#x434;" horiz-adv-x="1188" 
d="M1087 213h101v-539h-262l-15 326h-585l-15 -326h-262v539h84q13 37 24.5 74t23 87t24 119.5t26.5 172.5l58 409h798v-862zM805 213v649h-273l-28 -196q-15 -103 -28 -172.5t-24.5 -119.5t-22.5 -87t-23 -74h399z" />
    <glyph glyph-name="afii10070" unicode="&#x435;" horiz-adv-x="1102" 
d="M1014 537q0 -31 -1 -53t-3 -38h-643q4 -55 24.5 -93.5t51 -62.5t68.5 -35t77 -11q29 0 54 4.5t50.5 15t45 24.5t34.5 31l201 -167q-32 -42 -76 -74.5t-95 -55t-105.5 -34t-108.5 -11.5q-89 0 -159.5 21.5t-123.5 57.5t-94 83.5t-69 106t-44 131t-16 160.5
q0 123 36.5 226.5t101 177.5t152 115.5t189.5 41.5q108 0 192 -44.5t142 -121t88.5 -178.5t30.5 -217zM739 659q-3 36 -15.5 71t-36 62t-58 43.5t-82.5 16.5q-39 0 -69.5 -15t-53 -41t-36 -61t-17.5 -76h368z" />
    <glyph glyph-name="afii10072" unicode="&#x436;" horiz-adv-x="1696" 
d="M705 326l-138 170l-205 -496h-309l309 733l-276 342h334l285 -370v370l282 142v-512l285 370h334l-277 -342l309 -733h-309l-205 496l-137 -170v-326h-282v326z" />
    <glyph glyph-name="afii10073" unicode="&#x437;" horiz-adv-x="997" 
d="M305 664h213q33 0 56 9t37.5 24t21 34.5t6.5 40.5t-7.5 41t-25.5 36t-47 26t-72 10q-68 0 -149 -29t-162 -86l-90 223q87 48 191 76.5t206 28.5q121 0 204 -27t133.5 -70.5t72.5 -98t22 -109.5q0 -42 -13 -76.5t-36 -62t-54.5 -48t-68.5 -35.5q36 -8 72.5 -26.5t66 -49
t48 -72t18.5 -95.5q0 -65 -23.5 -127.5t-78.5 -112.5t-144 -80.5t-219 -30.5q-124 0 -236 34t-196 91l90 215q84 -61 171 -94t186 -33q47 0 79 11.5t52 30t28.5 42t8.5 48.5t-8 48.5t-25 41.5t-44 28.5t-65 10.5h-219v213z" />
    <glyph glyph-name="afii10074" unicode="&#x438;" horiz-adv-x="1196" 
d="M803 1075h266v-1075h-283v606l-383 -606h-266v1075h283v-606z" />
    <glyph glyph-name="afii10075" unicode="&#x439;" horiz-adv-x="1196" 
d="M803 1075h266v-1075h-283v606l-383 -606h-266v1075h283v-606zM606 1169q-82 0 -151 21.5t-119.5 60.5t-78.5 92.5t-28 118.5h177q0 -26 14.5 -48t41 -38.5t63 -25.5t81.5 -9t82 9t63.5 25.5t41 38.5t14.5 48h176q0 -65 -28 -118.5t-78.5 -92.5t-119.5 -60.5t-151 -21.5z
" />
    <glyph glyph-name="afii10076" unicode="&#x43a;" horiz-adv-x="1128" 
d="M705 1075h333l-276 -342l309 -733h-309l-205 496l-137 -170v-326h-283v1075l283 141v-509z" />
    <glyph glyph-name="afii10077" unicode="&#x43b;" horiz-adv-x="1214" 
d="M467 395q-27 -168 -130 -273.5t-249 -144.5l-65 240q67 26 113 65.5t57 112.5l94 680h800v-1075h-282v836h-275z" />
    <glyph glyph-name="afii10078" unicode="&#x43c;" horiz-adv-x="1409" 
d="M999 0v612l-290 -637l-289 637v-612h-283v1075h340l237 -519l230 519h338v-1075h-283z" />
    <glyph glyph-name="afii10079" unicode="&#x43d;" horiz-adv-x="1196" 
d="M1069 1075v-1075h-283v451h-366v-451h-283v1075h283v-385h366v385h283z" />
    <glyph glyph-name="afii10080" unicode="&#x43e;" horiz-adv-x="1137" 
d="M1055 537q0 -124 -36.5 -227t-102 -177t-155 -115t-194.5 -41t-194 41t-153.5 115t-101 177t-36.5 227q0 123 36.5 226.5t101 177.5t153.5 115.5t194 41.5t194.5 -41.5t155 -115.5t102 -177.5t36.5 -226.5zM768 537q0 61 -12.5 113.5t-37.5 91.5t-62.5 61t-88.5 22
t-88 -22t-61.5 -60.5t-36.5 -91t-12 -114.5t12 -115t36.5 -91t61.5 -59.5t88 -21.5t88.5 23.5t62.5 63.5t37.5 92t12.5 108z" />
    <glyph glyph-name="afii10081" unicode="&#x43f;" horiz-adv-x="1196" 
d="M1069 1075v-1075h-283v836h-366v-836h-283v1075h932z" />
    <glyph glyph-name="afii10082" unicode="&#x440;" horiz-adv-x="1151" 
d="M1065 524q0 -120 -28 -220.5t-81.5 -173t-131 -113t-177.5 -40.5q-71 0 -130 24.5t-97 59.5v-315l-283 -141v1470h283v-67q47 43 104 66.5t123 23.5q86 0 162 -33t133 -103t90 -178.5t33 -259.5zM778 518q0 153 -46.5 233t-137.5 80q-57 0 -97.5 -21t-76.5 -69v-405
q18 -24 36.5 -40t42.5 -28t52 -18t59 -6q82 0 125 69t43 205z" />
    <glyph glyph-name="afii10083" unicode="&#x441;" horiz-adv-x="1100" 
d="M1026 217q-39 -52 -82.5 -96t-96.5 -76t-117 -50t-144 -18q-105 0 -197 41t-160.5 115t-107.5 177t-39 227q0 123 38.5 226.5t107.5 177.5t163.5 115.5t206.5 41.5q136 0 242 -59.5t184 -178.5l-186 -188q-24 34 -49.5 62t-54.5 48t-64 31.5t-78 11.5q-51 0 -92 -20.5
t-70 -58t-45 -90.5t-16 -119q0 -65 16 -117.5t45 -90.5t70 -58.5t92 -20.5q41 0 75.5 9t65 26.5t58 43t55.5 58.5z" />
    <glyph glyph-name="afii10084" unicode="&#x442;" horiz-adv-x="987" 
d="M633 836v-836h-283v836h-323v239h931v-239h-325z" />
    <glyph glyph-name="afii10085" unicode="&#x443;" horiz-adv-x="1208" 
d="M604 -379h-278l143 379l-418 1075h311l246 -724l246 724h303z" />
    <glyph glyph-name="afii10086" unicode="&#x444;" horiz-adv-x="1712" 
d="M1339 518q0 83 -12.5 142t-35.5 97t-55.5 56t-72.5 18q-63 0 -100 -24.5t-66 -65.5v-405q31 -45 77.5 -68.5t105.5 -23.5q77 0 118 69t41 205zM715 -395v456q-37 -35 -94.5 -59.5t-126.5 -24.5q-98 0 -174 40.5t-128 113t-79 173t-27 220.5q0 151 32 259.5t87.5 178.5
t130 103t158.5 33q67 0 124 -25.5t97 -64.5v344l282 141v-485q47 43 101.5 66.5t120.5 23.5q84 0 158 -33t129.5 -103t87.5 -178.5t32 -259.5q0 -120 -27 -220.5t-79 -173t-128 -113t-173 -40.5q-70 0 -127 24.5t-95 59.5v-315zM373 518q0 -136 41 -205t118 -69
q59 0 105.5 23.5t77.5 68.5v405q-29 41 -66 65.5t-100 24.5q-40 0 -72.5 -18t-55.5 -56t-35.5 -97t-12.5 -142z" />
    <glyph glyph-name="afii10087" unicode="&#x445;" horiz-adv-x="1176" 
d="M795 0l-207 342l-207 -342h-336l381 582l-324 493h336l150 -258l149 258h336l-323 -493l380 -582h-335z" />
    <glyph glyph-name="afii10088" unicode="&#x446;" horiz-adv-x="1221" 
d="M1069 1075v-835h102v-498l-272 -137v395h-762v1075h283v-835h366v835h283z" />
    <glyph glyph-name="afii10089" unicode="&#x447;" horiz-adv-x="1186" 
d="M1049 0h-283v459q-35 -34 -98.5 -60t-145.5 -26q-100 0 -172.5 32.5t-120 93.5t-70 148.5t-22.5 196.5v231h283v-231q0 -59 11.5 -98.5t33 -63t53.5 -33.5t74 -10q59 0 104 20t70 48v368h283v-1075z" />
    <glyph glyph-name="afii10090" unicode="&#x448;" horiz-adv-x="1804" 
d="M1677 0h-1540v1075h283v-835h346v835h283v-835h346v835h282v-1075z" />
    <glyph glyph-name="afii10091" unicode="&#x449;" horiz-adv-x="1837" 
d="M1677 1075v-835h103v-498l-273 -137v395h-1370v1075h283v-835h346v835h283v-835h346v835h282z" />
    <glyph glyph-name="afii10092" unicode="&#x44a;" horiz-adv-x="1257" 
d="M930 350q0 69 -42.5 102t-111.5 33h-237v-272h239q75 0 113.5 34t38.5 103zM539 698h301q76 0 144 -21t118.5 -64t80 -107.5t29.5 -151.5q0 -94 -29.5 -161t-81.5 -110t-123.5 -63t-156.5 -20h-565v862h-256v213h539v-377z" />
    <glyph glyph-name="afii10093" unicode="&#x44b;" horiz-adv-x="1698" 
d="M420 698h301q77 0 145 -21t118.5 -64t80 -107.5t29.5 -151.5q0 -94 -29.5 -161t-82 -110t-124 -63t-156.5 -20h-565v1075h283v-377zM811 350q0 69 -42 102t-112 33h-237v-272h239q75 0 113.5 34t38.5 103zM1278 0v1075h283v-1075h-283z" />
    <glyph glyph-name="afii10094" unicode="&#x44c;" horiz-adv-x="1139" 
d="M420 698h301q77 0 145 -21t118.5 -64t80 -107.5t29.5 -151.5q0 -94 -29.5 -161t-82 -110t-124 -63t-156.5 -20h-565v1075h283v-377zM811 350q0 69 -42 102t-112 33h-237v-272h239q75 0 113.5 34t38.5 103z" />
    <glyph glyph-name="afii10095" unicode="&#x44d;" horiz-adv-x="1100" 
d="M369 664h350q-25 91 -85 142.5t-147 51.5q-82 0 -140.5 -39t-102.5 -98l-168 170q68 93 178 150t260 57q115 0 208 -41.5t159 -115.5t101.5 -177.5t35.5 -226.5q0 -124 -39 -227t-107.5 -177t-160.5 -115t-197 -41q-80 0 -144 16t-117 43.5t-96.5 66t-82.5 83.5l162 154
q62 -68 119 -95.5t132 -27.5q96 0 158.5 62.5t81.5 171.5h-358v213z" />
    <glyph glyph-name="afii10096" unicode="&#x44e;" horiz-adv-x="1663" 
d="M420 690h205q20 92 62.5 167.5t103.5 129t137.5 82.5t165.5 29q105 0 194 -41.5t154.5 -115.5t102 -177.5t36.5 -226.5q0 -124 -36.5 -227t-102 -177t-154.5 -115t-194 -41q-96 0 -178.5 34.5t-146 96.5t-104.5 149.5t-53 193.5h-192v-451h-283v1075h283v-385zM1294 537
q0 61 -12.5 113.5t-37 91.5t-62 61t-88.5 22t-88.5 -22t-62 -60.5t-36.5 -91t-12 -114.5t12 -115t36.5 -91t62 -59.5t88.5 -21.5t88.5 23.5t62 63.5t37 92t12.5 108z" />
    <glyph glyph-name="afii10097" unicode="&#x44f;" horiz-adv-x="1196" 
d="M119 737q0 85 29 148.5t79 105.5t116.5 63t141.5 21h584v-1075h-276v387h-240l-193 -387h-301l217 438q-72 38 -114.5 111.5t-42.5 187.5zM401 731q0 -66 37.5 -98.5t106.5 -32.5h248v262h-242q-68 0 -109 -31.5t-41 -99.5z" />
    <glyph glyph-name="afii10071" unicode="&#x451;" horiz-adv-x="1102" 
d="M1014 537q0 -31 -1 -53t-3 -38h-643q4 -55 24.5 -93.5t51 -62.5t68.5 -35t77 -11q29 0 54 4.5t50.5 15t45 24.5t34.5 31l201 -167q-32 -42 -76 -74.5t-95 -55t-105.5 -34t-108.5 -11.5q-89 0 -159.5 21.5t-123.5 57.5t-94 83.5t-69 106t-44 131t-16 160.5
q0 123 36.5 226.5t101 177.5t152 115.5t189.5 41.5q108 0 192 -44.5t142 -121t88.5 -178.5t30.5 -217zM739 659q-3 36 -15.5 71t-36 62t-58 43.5t-82.5 16.5q-39 0 -69.5 -15t-53 -41t-36 -61t-17.5 -76h368zM940 1368q0 -32 -13 -60t-34.5 -50t-50.5 -34.5t-60 -12.5
q-33 0 -62.5 12.5t-51.5 34.5t-35 50t-13 60q0 33 13 62t35 51t51.5 34.5t62.5 12.5q31 0 60 -12.5t50.5 -34.5t34.5 -51t13 -62zM498 1368q0 -32 -13 -60t-35 -50t-51 -34.5t-61 -12.5t-61 12.5t-51 34.5t-35 50t-13 60q0 33 13 62t35 51t51 34.5t61 12.5t61 -12.5
t51 -34.5t35 -51t13 -62z" />
    <glyph glyph-name="afii10099" unicode="&#x452;" horiz-adv-x="1229" 
d="M453 1159v-268q37 38 102 66t150 28q103 0 177.5 -34t123.5 -98t72.5 -154.5t23.5 -204.5v-340q0 -209 -108 -352t-294 -197l-65 239q102 46 143 108.5t41 160.5v356q0 72 -12 120.5t-35 77t-57 40.5t-78 12t-78 -12t-57.5 -40t-36 -75t-12.5 -117v-475h-283v1159h-170
v144h170v49l283 141v-190h366v-144h-366z" />
    <glyph glyph-name="afii10100" unicode="&#x453;" horiz-adv-x="956" 
d="M420 836v-836h-283v1075h795v-239h-512zM538 1219h-239l178 327h358z" />
    <glyph glyph-name="afii10101" unicode="&#x454;" horiz-adv-x="1100" 
d="M731 451h-360q18 -108 81 -171t160 -63q43 0 77 8t63.5 23.5t56 38.5t55.5 53l162 -154q-39 -45 -82.5 -83.5t-96.5 -66t-117 -43.5t-144 -16q-105 0 -197 41t-160.5 115t-107.5 177t-39 227q0 123 38.5 226.5t107.5 177.5t163.5 115.5t206.5 41.5q77 0 140.5 -15.5
t115.5 -43.5t94 -65.5t76 -82.5l-168 -170q-24 30 -49 55t-53.5 43.5t-63 28.5t-78.5 10q-88 0 -148 -51.5t-85 -142.5h352v-213z" />
    <glyph glyph-name="afii10102" unicode="&#x455;" horiz-adv-x="1100" 
d="M954 993l-90 -223q-80 43 -162.5 64.5t-150.5 21.5q-75 0 -110 -14.5t-35 -55.5q0 -17 8 -30t32 -26t67.5 -29t115.5 -39q72 -24 137 -51.5t114 -66.5t78 -94.5t29 -136.5q0 -93 -34.5 -157t-94 -103.5t-139 -57.5t-170.5 -18q-123 0 -242 33.5t-209 91.5l95 215
q86 -48 177.5 -73t194.5 -25q80 0 112 19.5t32 62.5q0 18 -8 32.5t-26.5 27t-48.5 24.5t-75 25q-97 29 -175 58t-133.5 69.5t-85.5 98t-30 142.5q0 84 31.5 144.5t88.5 99.5t136 57.5t174 18.5q102 0 206.5 -28.5t190.5 -76.5z" />
    <glyph glyph-name="afii10103" unicode="&#x456;" horiz-adv-x="578" 
d="M451 1325q0 -33 -13 -62.5t-35 -51.5t-51.5 -35t-62.5 -13t-62.5 13t-51.5 35t-35 51.5t-13 62.5t13 62.5t35 51.5t51.5 35t62.5 13t62.5 -13t51.5 -35t35 -51.5t13 -62.5zM147 0v1075h283v-1075h-283z" />
    <glyph glyph-name="afii10104" unicode="&#x457;" horiz-adv-x="578" 
d="M147 0v1075h283v-1075h-283zM672 1358q0 -32 -13 -60t-34.5 -50t-50.5 -34.5t-60 -12.5q-33 0 -62.5 12.5t-51.5 34.5t-35 50t-13 60q0 33 13 62t35 51t51.5 34.5t62.5 12.5q31 0 60 -12.5t50.5 -34.5t34.5 -51t13 -62zM230 1358q0 -32 -13 -60t-35 -50t-51 -34.5
t-61 -12.5t-61 12.5t-51 34.5t-35 50t-13 60q0 33 13 62t35 51t51 34.5t61 12.5t61 -12.5t51 -34.5t35 -51t13 -62z" />
    <glyph glyph-name="afii10105" unicode="&#x458;" horiz-adv-x="578" 
d="M451 1325q0 -33 -13 -62.5t-35 -51.5t-51.5 -35t-62.5 -13t-62.5 13t-51.5 35t-35 51.5t-13 62.5t13 62.5t35 51.5t51.5 35t62.5 13t62.5 -13t51.5 -35t35 -51.5t13 -62.5zM430 80q0 -113 -19.5 -194t-67.5 -136.5t-129.5 -90t-205.5 -54.5l-98 217q73 14 119 30.5
t72 43.5t36 68t10 104v1007h283v-995z" />
    <glyph glyph-name="afii10106" unicode="&#x459;" horiz-adv-x="1839" 
d="M1077 698h301q77 0 145 -21t118.5 -64t80 -107.5t29.5 -151.5q0 -94 -29.5 -161t-81.5 -110t-124 -63t-156 -20h-565v836h-277l-63 -441q-27 -170 -131.5 -274t-247.5 -144l-66 240q76 29 118.5 69.5t51.5 108.5l94 680h803v-377zM1468 350q0 69 -42 102t-111 33h-238
v-272h240q74 0 112.5 34t38.5 103z" />
    <glyph glyph-name="afii10107" unicode="&#x45a;" horiz-adv-x="1839" 
d="M1069 698h301q77 0 145 -21t118.5 -64t80 -107.5t29.5 -151.5q0 -94 -29.5 -161t-81.5 -110t-124 -63t-156 -20h-566v485h-366v-485h-283v1075h283v-377h366v377h283v-377zM1460 350q0 69 -42 102t-111 33h-238v-272h240q74 0 112.5 34t38.5 103z" />
    <glyph glyph-name="afii10108" unicode="&#x45b;" horiz-adv-x="1229" 
d="M453 1159v-268q37 38 102 66t150 28q103 0 177.5 -34t123.5 -98t72.5 -154.5t23.5 -204.5v-494h-283v469q0 72 -12 120.5t-35 77t-57 40.5t-78 12t-78 -12t-57.5 -40t-36 -75t-12.5 -117v-475h-283v1159h-170v144h170v49l283 141v-190h366v-144h-366z" />
    <glyph glyph-name="afii10109" unicode="&#x45c;" horiz-adv-x="1128" 
d="M705 1075h333l-276 -342l309 -733h-309l-205 496l-137 -170v-326h-283v1075l283 141v-509zM704 1219h-239l178 327h358z" />
    <glyph glyph-name="afii10110" unicode="&#x45e;" horiz-adv-x="1208" 
d="M604 -379h-278l143 379l-418 1075h311l246 -724l246 724h303zM608 1169q-82 0 -151 21.5t-119.5 60.5t-78.5 92.5t-28 118.5h177q0 -26 14.5 -48t41 -38.5t63 -25.5t81.5 -9t82 9t63.5 25.5t41 38.5t14.5 48h176q0 -65 -28 -118.5t-78.5 -92.5t-119.5 -60.5t-151 -21.5z
" />
    <glyph glyph-name="afii10193" unicode="&#x45f;" horiz-adv-x="1221" 
d="M1069 1075v-1075h-330v-258l-272 -137v395h-330v1075h283v-835h366v835h283z" />
    <glyph glyph-name="afii10050" unicode="&#x490;" horiz-adv-x="1331" 
d="M1180 1153h-709v-1153h-287v1434h719v180l277 139v-600z" />
    <glyph glyph-name="afii10098" unicode="&#x491;" horiz-adv-x="956" 
d="M932 836h-512v-836h-283v1075h535v178l260 131v-548z" />
    <glyph glyph-name="Wgrave" unicode="&#x1e80;" horiz-adv-x="1804" 
d="M1702 1434l-299 -1434h-281l-224 939l-228 -939h-268l-300 1434h300l159 -901l217 901h250l220 -901l159 901h295zM832 1526l-297 327h358l178 -327h-239z" />
    <glyph glyph-name="wgrave" unicode="&#x1e81;" horiz-adv-x="1520" 
d="M1159 0h-235l-164 646l-164 -646h-236l-309 1075h287l145 -616l164 616h234l163 -616l146 616h278zM670 1219l-297 327h358l178 -327h-239z" />
    <glyph glyph-name="Wacute" unicode="&#x1e82;" horiz-adv-x="1804" 
d="M1702 1434l-299 -1434h-281l-224 939l-228 -939h-268l-300 1434h300l159 -901l217 901h250l220 -901l159 901h295zM973 1526h-239l178 327h358z" />
    <glyph glyph-name="wacute" unicode="&#x1e83;" horiz-adv-x="1520" 
d="M1159 0h-235l-164 646l-164 -646h-236l-309 1075h287l145 -616l164 616h234l163 -616l146 616h278zM858 1219h-239l178 327h358z" />
    <glyph glyph-name="Wdieresis" unicode="&#x1e84;" horiz-adv-x="1804" 
d="M1702 1434l-299 -1434h-281l-224 939l-228 -939h-268l-300 1434h300l159 -901l217 901h250l220 -901l159 901h295zM1280 1683q0 -32 -13 -60t-34.5 -50t-50.5 -34.5t-60 -12.5q-33 0 -62.5 12.5t-51.5 34.5t-35 50t-13 60q0 33 13 62t35 51t51.5 34.5t62.5 12.5
q31 0 60 -12.5t50.5 -34.5t34.5 -51t13 -62zM838 1683q0 -32 -13 -60t-35 -50t-51 -34.5t-61 -12.5t-61 12.5t-51 34.5t-35 50t-13 60q0 33 13 62t35 51t51 34.5t61 12.5t61 -12.5t51 -34.5t35 -51t13 -62z" />
    <glyph glyph-name="wdieresis" unicode="&#x1e85;" horiz-adv-x="1520" 
d="M1159 0h-235l-164 646l-164 -646h-236l-309 1075h287l145 -616l164 616h234l163 -616l146 616h278zM1141 1376q0 -32 -13 -60t-34.5 -50t-50.5 -34.5t-60 -12.5q-33 0 -62.5 12.5t-51.5 34.5t-35 50t-13 60q0 33 13 62t35 51t51.5 34.5t62.5 12.5q31 0 60 -12.5
t50.5 -34.5t34.5 -51t13 -62zM699 1376q0 -32 -13 -60t-35 -50t-51 -34.5t-61 -12.5t-61 12.5t-51 34.5t-35 50t-13 60q0 33 13 62t35 51t51 34.5t61 12.5t61 -12.5t51 -34.5t35 -51t13 -62z" />
    <glyph glyph-name="Ygrave" unicode="&#x1ef2;" horiz-adv-x="1462" 
d="M1418 1434l-543 -867v-567h-287v561l-543 873h330l358 -600l359 600h326zM656 1506l-297 327h358l178 -327h-239z" />
    <glyph glyph-name="ygrave" unicode="&#x1ef3;" horiz-adv-x="1208" 
d="M604 -379h-278l143 379l-418 1075h311l246 -724l246 724h303zM570 1201l-297 327h358l178 -327h-239z" />
    <glyph glyph-name="endash" unicode="&#x2013;" horiz-adv-x="942" 
d="M113 612v262h716v-262h-716z" />
    <glyph glyph-name="emdash" unicode="&#x2014;" 
d="M113 612v262h1044v-262h-1044z" />
    <glyph glyph-name="quoteleft" unicode="&#x2018;" horiz-adv-x="575" 
d="M422 858h-334l168 576h195z" />
    <glyph glyph-name="quoteright" unicode="&#x2019;" horiz-adv-x="575" 
d="M319 858h-194l29 576h333z" />
    <glyph glyph-name="quotesinglbase" unicode="&#x201a;" horiz-adv-x="575" 
d="M319 -229h-194l29 575h333z" />
    <glyph glyph-name="quotedblleft" unicode="&#x201c;" horiz-adv-x="1110" 
d="M956 858h-333l168 576h194zM422 858h-334l168 576h195z" />
    <glyph glyph-name="quotedblright" unicode="&#x201d;" horiz-adv-x="1110" 
d="M854 858h-195l29 576h334zM319 858h-194l29 576h333z" />
    <glyph glyph-name="quotedblbase" unicode="&#x201e;" horiz-adv-x="1110" 
d="M854 -229h-195l29 575h334zM319 -229h-194l29 575h333z" />
    <glyph glyph-name="dagger" unicode="&#x2020;" horiz-adv-x="1217" 
d="M748 750v-955h-279v955h-356v256h356v428h279v-428h356v-256h-356z" />
    <glyph glyph-name="daggerdbl" unicode="&#x2021;" horiz-adv-x="1217" 
d="M743 223v-428h-270v428h-360v252h360v279h-360v252h360v428h270v-428h361v-252h-361v-279h361v-252h-361z" />
    <glyph glyph-name="bullet" unicode="&#x2022;" horiz-adv-x="1004" 
d="M870 750q0 -78 -28.5 -145t-78 -117t-116.5 -78.5t-145 -28.5t-145 28.5t-117 78.5t-78.5 117t-28.5 145q0 77 28.5 145t78.5 118.5t117 79.5t145 29t145 -29t116.5 -79.5t78 -118.5t28.5 -145z" />
    <glyph glyph-name="ellipsis" unicode="&#x2026;" horiz-adv-x="1671" 
d="M1585 170q0 -39 -15.5 -74t-41.5 -61.5t-61 -42t-74 -15.5t-74.5 15.5t-61.5 42t-41.5 61.5t-15.5 74t15.5 74t41.5 61t61.5 41.5t74.5 15.5t74 -15.5t61 -41.5t41.5 -61t15.5 -74zM1028 170q0 -39 -15.5 -74t-41.5 -61.5t-61 -42t-74 -15.5t-74.5 15.5t-61.5 42
t-41.5 61.5t-15.5 74t15.5 74t41.5 61t61.5 41.5t74.5 15.5t74 -15.5t61 -41.5t41.5 -61t15.5 -74zM471 170q0 -39 -15.5 -74t-41.5 -61.5t-61 -42t-74 -15.5t-74.5 15.5t-61.5 42t-41.5 61.5t-15.5 74t15.5 74t41.5 61t61.5 41.5t74.5 15.5t74 -15.5t61 -41.5t41.5 -61
t15.5 -74z" />
    <glyph glyph-name="perthousand" unicode="&#x2030;" horiz-adv-x="2898" 
d="M707 0h-248l878 1434h248zM1968 424q0 -102 -28.5 -185t-79.5 -141t-121 -89.5t-152 -31.5q-83 0 -151.5 31t-118 88.5t-77.5 139.5t-28 184q0 103 27.5 186t78 141.5t120 89.5t153.5 31q85 0 154.5 -31t119 -89t76.5 -140t27 -184zM1739 420q0 68 -9.5 114t-27.5 78
t-46 49t-67 17q-75 0 -111 -65t-36 -189q0 -60 9 -109.5t27.5 -82.5t46.5 -49.5t66 -16.5q35 0 63.5 16.5t48 53t28 82.5t8.5 102zM2837 424q0 -102 -28.5 -185t-79.5 -141t-121 -89.5t-152 -31.5q-83 0 -151.5 31t-118 88.5t-77.5 139.5t-28 184q0 103 27.5 186t78 141.5
t120 89.5t153.5 31q85 0 154.5 -31t119 -89t76.5 -140t27 -184zM2608 420q0 68 -9.5 114t-27.5 78t-46 49t-67 17q-75 0 -111 -65t-36 -189q0 -60 9 -109.5t27.5 -82.5t46.5 -49.5t66 -16.5q35 0 63.5 16.5t48 53t28 82.5t8.5 102zM834 1012q0 -102 -28.5 -185t-79.5 -141
t-121 -89.5t-152 -31.5q-83 0 -151.5 31t-118.5 88.5t-77.5 139.5t-27.5 184q0 103 27.5 186t78 141.5t120 89.5t153.5 31q85 0 154.5 -31t119 -89t76.5 -140t27 -184zM604 1008q0 68 -9.5 114t-27.5 78t-46 49t-66 17q-75 0 -111.5 -65t-36.5 -189q0 -60 9.5 -109.5
t28 -82.5t46.5 -49.5t66 -16.5q35 0 63 16.5t47.5 53t28 82.5t8.5 102z" />
    <glyph glyph-name="guilsinglleft" unicode="&#x2039;" horiz-adv-x="770" 
d="M395 0l-334 537l334 538h293l-323 -536l323 -539h-293z" />
    <glyph glyph-name="guilsinglright" unicode="&#x203a;" horiz-adv-x="770" 
d="M375 0h-293l324 537l-324 538h293l334 -536z" />
    <glyph glyph-name="fraction" unicode="&#x2044;" horiz-adv-x="1010" 
d="M176 0h-303l961 1434h303z" />
    <glyph glyph-name="fraction" unicode="&#x2215;" horiz-adv-x="1010" 
d="M176 0h-303l961 1434h303z" />
    <glyph glyph-name="Euro" unicode="&#x20ac;" 
d="M717 -23q-107 0 -192.5 33.5t-149.5 98t-105.5 159t-60.5 215.5h-139v170h120v64.5v62.5h-120v170h137q45 251 177 378.5t339 127.5q94 0 164 -21.5t123.5 -63t92.5 -101.5t71 -137l-238 -105q-20 56 -41 93.5t-46.5 59.5t-57.5 31t-74 9t-79 -14.5t-66.5 -47t-51 -84
t-33.5 -125.5h353v-170h-369v-29v-32v-33.5v-32.5h369v-170h-353q13 -81 37.5 -133t56 -82.5t67.5 -42.5t73 -12q40 0 72 11t59 34t50 59t46 86l228 -118q-34 -65 -75.5 -121.5t-96.5 -98t-125.5 -65t-161.5 -23.5z" />
    <glyph glyph-name="litre" unicode="&#x2113;" horiz-adv-x="1108" 
d="M860 250l82 -150q-26 -22 -60.5 -45.5t-76.5 -43t-90.5 -32t-100.5 -12.5q-70 0 -126.5 21t-97.5 64.5t-64 116.5t-23 155v118l-117 -108l-77 131l194 180v399q0 215 91 331t245 116q69 0 117 -23.5t78 -60.5t43.5 -83t13.5 -91q0 -75 -18.5 -142.5t-52 -131t-80 -124.5
t-103.5 -122l-74 -80v-268q0 -95 31.5 -147t99.5 -52q26 0 50.5 8t45.5 20.5t39 27.5t31 28zM727 1196q0 42 -17 68t-53 26q-48 0 -71 -49.5t-23 -136.5v-260l39 46q27 32 50 71.5t39.5 80.5t26 81t9.5 73z" />
    <glyph glyph-name="afii61352" unicode="&#x2116;" horiz-adv-x="2460" 
d="M2275 1055q0 -81 -28.5 -149t-79 -117.5t-120 -77t-151.5 -27.5q-81 0 -149.5 27.5t-119 77t-79 117.5t-28.5 149t28.5 150.5t79 120.5t119 79.5t149.5 28.5q82 0 151.5 -28.5t120 -79.5t79 -120.5t28.5 -150.5zM2046 1059q0 40 -11.5 73.5t-32 58t-48 38.5t-58.5 14
q-30 0 -57 -14t-47 -38.5t-31.5 -58t-11.5 -73.5q0 -39 11.5 -72.5t31.5 -58.5t47 -39.5t57 -14.5q31 0 58.5 14.5t48 39.5t32 58.5t11.5 72.5zM1520 340v190h755v-190h-755zM1346 0h-256l-623 925v-925h-283v1434h275l604 -902v902h283v-1434z" />
    <glyph glyph-name="trademark" unicode="&#x2122;" horiz-adv-x="1700" 
d="M434 1266v-639h-194v639h-201v168h596v-168h-201zM1434 627v479l-244 -504l-238 500v-475h-182v807h193l231 -465l227 465h195v-807h-182z" />
    <glyph glyph-name="Omega" unicode="&#x2126;" horiz-adv-x="1505" 
d="M406 782q0 -86 15 -158t44.5 -135t73.5 -118.5t102 -108.5v-262h-520v262h209q-46 45 -88 101.5t-71 120.5t-44.5 135.5t-15.5 154.5q0 155 49.5 281t136 215t204.5 137.5t255 48.5q140 0 257.5 -50t202 -140t132 -215.5t47.5 -276.5q0 -83 -15.5 -154t-45.5 -134.5
t-73 -120.5t-90 -103h213v-262h-520v262q58 51 101.5 107.5t76 125t45.5 137t13 146.5q0 81 -23.5 153t-68.5 125t-110 84t-148 31q-75 0 -138 -26.5t-108.5 -76.5t-71.5 -122.5t-26 -163.5z" />
    <glyph glyph-name="estimated" unicode="&#x212e;" horiz-adv-x="1427" 
d="M356 651v-450q73 -72 161.5 -109t195.5 -37q91 0 163 22.5t130 62t104.5 94t87.5 118.5l76 -47q-48 -73 -102 -133.5t-120.5 -104t-149.5 -68t-189 -24.5q-145 0 -262.5 54t-200 146.5t-127.5 215.5t-45 262q0 141 44 264.5t126.5 215.5t201.5 145t269 53t268 -54
t200 -146.5t126.5 -216t46.5 -263.5h-1004zM1075 1106q-33 31 -74 58t-87 46t-96 30t-101 11q-105 0 -197 -36.5t-164 -108.5v-373h719v373z" />
    <glyph glyph-name="down.arrow" unicode="&#x2193;" horiz-adv-x="901" 
d="M766 459q8 -11 9 -31t-13 -43l-313 -416l-308 416q-17 23 -15.5 43t9.5 31q16 23 34.5 29.5t47.5 -3.5l100 -28v977h267v-977l96 28q31 10 50.5 2.5t35.5 -28.5z" />
    <glyph glyph-name="leftright.arrow" unicode="&#x2194;" horiz-adv-x="1638" 
d="M1182 397q-23 -14 -43 -13t-31 9q-22 16 -29 35.5t2 50.5l29 96h-582l29 -100q9 -29 2.5 -47.5t-29.5 -34.5q-11 -8 -30.5 -9.5t-42.5 15.5l-416 308l416 313q23 14 42.5 13t30.5 -9q22 -15 29 -35t-2 -51l-29 -96h582l-29 100q-9 29 -2.5 48t29.5 34q5 4 13 6.5
t17.5 2.5t20.5 -3.5t23 -11.5l415 -307z" />
    <glyph glyph-name="partialdiff" unicode="&#x2202;" horiz-adv-x="1137" 
d="M315 1262v194q99 -3 182 -24t158.5 -61t142.5 -101t115.5 -139t80 -167.5t46.5 -187.5t15 -198q0 -154 -36.5 -267t-102 -187.5t-155 -110.5t-194.5 -36t-194 36t-153.5 101.5t-101 157.5t-36.5 203t35.5 203t96 158t141.5 102.5t171 36.5q78 0 138.5 -20t115.5 -58
q-15 69 -48 125t-93.5 109.5t-149.5 89t-174 41.5zM778 475q0 55 -13 101t-39.5 79.5t-66 52.5t-92.5 19t-92 -18.5t-65 -52t-39 -80t-13 -101.5t13 -100.5t39 -78.5t65 -51t92 -18t92.5 20t66 54t39.5 79t13 95z" />
    <glyph glyph-name="Delta" unicode="&#x2206;" horiz-adv-x="1573" 
d="M72 0l577 1434h279l573 -1434h-1429zM779 1080l-294 -799h594z" />
    <glyph glyph-name="product" unicode="&#x220f;" horiz-adv-x="1499" 
d="M1028 -300v1439h-557v-1439h-287v1734h1131v-1734h-287z" />
    <glyph glyph-name="summation" unicode="&#x2211;" horiz-adv-x="1380" 
d="M548 1171l396 -545l-435 -641h751v-285h-1121v256l443 654l-418 570v254h1071v-263h-687z" />
    <glyph glyph-name="minus" unicode="&#x2212;" 
d="M1145 840v-271h-1020v271h1020z" />
    <glyph glyph-name="radical" unicode="&#x221a;" horiz-adv-x="1386" 
d="M737 0h-305l-354 696h305l201 -419l432 1157h297z" />
    <glyph glyph-name="infinity" unicode="&#x221e;" horiz-adv-x="1798" 
d="M596 1182q92 0 175 -30.5t146 -90.5q57 60 133 90.5t164 30.5q86 0 160.5 -30t129 -87.5t85.5 -142.5t31 -195q0 -109 -32 -195t-88 -145.5t-132.5 -91t-165.5 -31.5q-87 0 -164.5 33t-137.5 91q-59 -67 -140.5 -95.5t-175.5 -28.5q-86 0 -160.5 31t-129 89.5t-85.5 144
t-31 194.5q0 110 32 195.5t88 144t132.5 89t165.5 30.5zM760 725q0 61 -11.5 104.5t-33 71.5t-52.5 41.5t-69 13.5q-33 0 -64 -13t-54.5 -43t-35.5 -75t-12 -100q0 -58 13 -102t36.5 -74t56 -45t70.5 -15q28 0 53 6.5t49 20.5t42 35t29 45q-17 63 -17 129zM1047 727
q0 -54 9.5 -101t29.5 -77t49.5 -45t68.5 -15q38 0 69 15t51.5 43t33 72t12.5 106q0 58 -13 101t-36.5 72t-56 43.5t-70.5 14.5q-25 0 -46.5 -5t-44 -17t-40 -29.5t-32.5 -45.5q8 -31 12 -64t4 -68z" />
    <glyph glyph-name="integral" unicode="&#x222b;" horiz-adv-x="854" 
d="M524 -113q0 -78 -21.5 -133t-62.5 -87.5t-98.5 -47t-124.5 -14.5q-106 0 -178 31v221q22 -11 44.5 -17t53.5 -6q63 0 84 21t21 65v1254q0 78 21.5 133t62.5 87.5t98.5 47t124.5 14.5q106 0 178 -31v-221q-22 11 -44.5 17t-53.5 6q-63 0 -84 -21t-21 -65v-1254z" />
    <glyph glyph-name="approxequal" unicode="&#x2248;" 
d="M832 768q-68 0 -115.5 19t-85.5 41.5t-70.5 41.5t-68.5 19q-39 0 -63 -29.5t-27 -85.5h-231q0 129 25 193t60 101.5t81 57t100 19.5q64 0 112 -18.5t87 -41t72.5 -41t68.5 -18.5q39 0 63 29.5t27 83.5h231q0 -127 -25 -191t-60 -102.5t-81 -58t-100 -19.5zM832 266
q-68 0 -115.5 19t-85.5 41.5t-70.5 41.5t-68.5 19q-39 0 -63 -29.5t-27 -85.5h-231q0 129 25 193t60 101.5t81 57t100 19.5q64 0 112 -18.5t87 -41t72.5 -41t68.5 -18.5q39 0 63 29.5t27 83.5h231q0 -127 -25 -191t-60 -102.5t-81 -58t-100 -19.5z" />
    <glyph glyph-name="notequal" unicode="&#x2260;" 
d="M910 1079h189v-264h-287l-82 -221h369v-264h-467l-80 -217h-279l80 217h-182v264h280l82 221h-362v264h461l80 217h278z" />
    <glyph glyph-name="lessequal" unicode="&#x2264;" 
d="M298 844v192l678 418v-352l-342 -160l342 -141v-355zM294 61v250h682v-250h-682z" />
    <glyph glyph-name="greaterequal" unicode="&#x2265;" 
d="M294 446v355l342 141l-342 160v352l678 -418v-192zM294 61v250h682v-250h-682z" />
    <glyph glyph-name="lozenge" unicode="&#x25ca;" horiz-adv-x="1126" 
d="M563 995l-225 -352l225 -352l225 352zM1067 641l-403 -641h-199l-406 641l404 641h199z" />
    <glyph glyph-name="apple" unicode="&#xf8ff;" horiz-adv-x="1638" 
d="M1253 446q-31 -19 -63 0q-34 27 -19 70l41 92h-288v-254l98 39q44 16 68 -22q15 -27 -7 -58l-264 -344l-270 344q-19 30 -4 58q23 38 71 22l95 -39v254h-285l41 -94q17 -43 -15 -66q-34 -22 -65 -2l-346 271l346 264q34 22 63 1q31 -22 17 -62l-41 -99h285v258l-95 -39
q-44 -17 -71 23q-16 29 4 57l270 344l264 -344q20 -30 7 -57q-23 -39 -68 -23l-98 39v-258h288l-41 99q-14 47 25 67q25 13 57 -6l344 -264z" />
    <glyph glyph-name="DEL" horiz-adv-x="0" 
 />
    <glyph glyph-name="four.superior" horiz-adv-x="850" 
d="M507 717h-473v152l467 569h209v-540h113v-185h-113v-184h-203v188zM507 898v278l-223 -278h223z" />
    <glyph glyph-name="quotedbl.lfprop" horiz-adv-x="1081" 
d="M893 764h-195l-71 670h338zM383 764h-195l-71 670h338z" />
    <glyph glyph-name="numbersign.lfprop" horiz-adv-x="1516" 
d="M1167 287v-287h-249v287h-320v-287h-250v287h-246v235h246v389h-246v236h246v287h250v-287h320v287h249v-287h246v-236h-246v-389h246v-235h-246zM918 911h-320v-389h320v389z" />
    <glyph glyph-name="dollar.lfprop" horiz-adv-x="1341" 
d="M1229 434q0 -185 -104.5 -296t-301.5 -140v-203h-286v203q-144 24 -253.5 89t-174.5 161l206 184q76 -88 170 -126t197 -38q128 0 189 32t61 114q0 34 -12 60.5t-46.5 48.5t-97 42t-164.5 43q-99 23 -181.5 53t-141.5 78t-92 119.5t-33 177.5q0 81 28 147.5t78 117
t118 84.5t149 49v204h286v-206q115 -22 206 -76t169 -135l-207 -201q-38 38 -71.5 63t-73 44.5t-84.5 29.5t-96 10q-58 0 -97 -9.5t-63 -26t-34.5 -37.5t-10.5 -45q0 -34 13 -58t46 -42.5t88.5 -35t141.5 -36.5q140 -32 222 -68t136.5 -83t87.5 -119t33 -173z" />
    <glyph glyph-name="percent.lfprop" horiz-adv-x="2046" 
d="M834 1012q0 -102 -28.5 -185t-79.5 -141t-121 -89.5t-152 -31.5q-83 0 -151.5 31t-118.5 88.5t-77.5 139.5t-27.5 184q0 103 27.5 186t78 141.5t120 89.5t153.5 31q85 0 154.5 -31t119 -89t76.5 -140t27 -184zM707 0h-248l878 1434h248zM1968 424q0 -102 -28.5 -185
t-79.5 -141t-121 -89.5t-152 -31.5q-83 0 -151.5 31t-118 88.5t-77.5 139.5t-28 184q0 103 27.5 186t78 141.5t120 89.5t153.5 31q85 0 154.5 -31t119 -89t76.5 -140t27 -184zM604 1008q0 68 -9.5 114t-27.5 78t-46 49t-66 17q-75 0 -111.5 -65t-36.5 -189q0 -60 9.5 -109.5
t28 -82.5t46.5 -49.5t66 -16.5q35 0 63 16.5t47.5 53t28 82.5t8.5 102zM1739 420q0 68 -9.5 114t-27.5 78t-46 49t-67 17q-75 0 -111 -65t-36 -189q0 -60 9 -109.5t27.5 -82.5t46.5 -49.5t66 -16.5q35 0 63.5 16.5t48 53t28 82.5t8.5 102z" />
    <glyph glyph-name="quotesingle.lfprop" horiz-adv-x="582" 
d="M393 764h-205l-71 670h348z" />
    <glyph glyph-name="plus.lfprop" horiz-adv-x="1255" 
d="M768 571v-389h-281v389h-374v267h374v389h281v-389h375v-267h-375z" />
    <glyph glyph-name="zero.lfprop" horiz-adv-x="1409" 
d="M1307 721q0 -164 -39.5 -300.5t-116 -235t-189.5 -153.5t-260 -55t-259 54.5t-187.5 152t-114.5 233.5t-39 300q0 163 39 299t115.5 234t189 152t259.5 54t259 -53.5t188.5 -150.5t115.5 -232.5t39 -298.5zM1016 717q0 96 -18 179.5t-56.5 146t-98 98t-141.5 35.5
t-140.5 -35t-96 -96.5t-55 -144.5t-17.5 -179t18 -180.5t55.5 -147t96.5 -99t142 -36.5q82 0 141 35.5t96.5 98t55.5 146t18 179.5z" />
    <glyph glyph-name="one.lfprop" horiz-adv-x="788" 
d="M326 0v1036h-246v211q65 3 115.5 17.5t86.5 38t58 55.5t33 76h237v-1434h-284z" />
    <glyph glyph-name="two.lfprop" horiz-adv-x="1399" 
d="M129 0q2 162 53 307t147.5 248.5t211.5 174.5t247 128q46 20 77 40.5t50 42.5t27 44t8 45q0 66 -61 106t-174 40q-64 0 -121.5 -13.5t-108.5 -36.5t-95.5 -54.5t-82.5 -67.5l-184 215q56 56 121 100.5t145.5 77t156.5 46t159 13.5q127 0 226 -25.5t167 -77t103.5 -129
t35.5 -180.5q0 -87 -23.5 -151t-69.5 -115t-115.5 -93.5t-160.5 -84.5q-95 -44 -162.5 -84.5t-112 -80t-69.5 -78.5t-35 -81h762v-276h-1122z" />
    <glyph glyph-name="three.lfprop" horiz-adv-x="1321" 
d="M1204 444q0 -116 -42.5 -203.5t-120.5 -146t-187.5 -88t-243.5 -29.5q-82 0 -157.5 16.5t-142.5 47t-131 79t-136 132.5l217 176q77 -84 170 -127t207 -43q142 0 209 48t67 134q0 38 -12 69t-38.5 52t-66 32t-94.5 11h-170v281h154q52 0 82.5 10.5t49 29t27.5 45.5t9 60
q0 28 -12 54t-40 46.5t-74 33t-114 12.5q-83 0 -151.5 -29.5t-128.5 -91.5l-209 190q105 111 221.5 161t271.5 50q110 0 206 -25.5t167.5 -76t112.5 -126.5t41 -177q0 -59 -14 -106t-37.5 -83t-53.5 -62t-61 -42q34 -13 73.5 -37t73.5 -62t56 -91t22 -124z" />
    <glyph glyph-name="four.lfprop" horiz-adv-x="1423" 
d="M1339 293h-188v-293h-277v293h-784v258l760 883h301v-875h188v-266zM874 559v527l-449 -527h449z" />
    <glyph glyph-name="five.lfprop" horiz-adv-x="1368" 
d="M1262 500q0 -129 -44 -227t-123 -163.5t-189 -99t-242 -33.5q-168 0 -299.5 37.5t-260.5 116.5l140 244q100 -57 205 -89t215 -32q146 0 226.5 60t80.5 175q0 56 -19 96.5t-52 66.5t-77.5 38t-95.5 12q-97 0 -164.5 -25t-118.5 -61l-272 101l49 717h955v-277h-691
l-16 -248q62 35 138 50.5t163 15.5q121 0 213 -36.5t154 -100t93.5 -150.5t31.5 -188z" />
    <glyph glyph-name="six.lfprop" horiz-adv-x="1358" 
d="M1270 469q0 -120 -47 -211.5t-128.5 -154t-191.5 -94.5t-237 -32q-120 0 -224 34t-181 105.5t-121 181t-44 259.5q0 94 20 197.5t65 203.5t118.5 190t180.5 158.5t251 109t330 40.5v-278q-251 0 -407 -85.5t-218 -250.5q34 23 69.5 40t74.5 28t84 16.5t100 5.5
q107 0 199.5 -28t160.5 -85t107 -144t39 -206zM979 459q0 109 -75.5 161t-211.5 52q-81 0 -135 -14t-90.5 -39.5t-55 -66t-18.5 -95.5q0 -50 18 -89.5t56 -68t90.5 -42t120.5 -13.5q76 0 131.5 15.5t95 45.5t57 69.5t17.5 84.5z" />
    <glyph glyph-name="seven.lfprop" horiz-adv-x="1292" 
d="M1165 1157q-109 -107 -197 -231.5t-149.5 -268t-95 -307.5t-33.5 -350h-293q0 174 28.5 334.5t82.5 306t132.5 276t178.5 244.5h-729v273h1075v-277z" />
    <glyph glyph-name="eight.lfprop" horiz-adv-x="1438" 
d="M1319 444q0 -108 -41.5 -194.5t-119.5 -147t-189 -93t-250 -32.5t-250 31t-189 89.5t-119.5 142.5t-41.5 190q0 125 61.5 214.5t165.5 133.5q-39 21 -69.5 48t-51.5 58.5t-33 66t-12 79.5q0 106 42 186t114.5 133t171 80t211.5 27q106 0 203 -25t171.5 -76.5t119 -129.5
t44.5 -183q0 -42 -10.5 -77t-30 -69t-50 -63.5t-74.5 -54.5q106 -50 166.5 -133.5t60.5 -200.5zM971 1036q0 34 -13 65.5t-42.5 55t-78 37.5t-118.5 14q-67 0 -114.5 -13.5t-78 -37t-45 -54.5t-14.5 -65q0 -35 16 -64.5t47.5 -52t79 -35t109.5 -12.5q66 0 113.5 12
t78.5 33.5t45.5 51.5t14.5 65zM1032 434q0 48 -18 85.5t-56.5 65.5t-99.5 41t-139 13q-156 0 -234.5 -53t-78.5 -150q0 -49 23.5 -87.5t65 -65t99 -40.5t125.5 -14q79 0 135 14t96.5 40.5t61 64.5t20.5 86z" />
    <glyph glyph-name="nine.lfprop" horiz-adv-x="1358" 
d="M1262 877q0 -94 -20 -197.5t-65 -203.5t-118.5 -190.5t-181 -159t-251 -109t-329.5 -40.5v279q251 0 407 85.5t218 250.5q-35 -23 -70 -40t-74.5 -28t-84.5 -16.5t-99 -5.5q-107 0 -199.5 27.5t-160.5 84.5t-107 144.5t-39 206.5q0 120 47 211.5t128.5 153.5t191.5 94
t237 32q120 0 224 -34t181 -105t121 -180.5t44 -259.5zM965 977q0 49 -18 89t-56.5 69t-91.5 42t-119 13q-77 0 -133 -15.5t-95.5 -46.5t-56 -70t-16.5 -83q0 -110 75.5 -161.5t211.5 -51.5q80 0 134.5 14t92 40t55 67t17.5 94z" />
    <glyph glyph-name="less.lfprop" horiz-adv-x="922" 
d="M117 608v193l678 551v-353l-383 -292l383 -295v-355z" />
    <glyph glyph-name="equal.lfprop" horiz-adv-x="1255" 
d="M164 815v264h928v-264h-928zM164 330v264h928v-264h-928z" />
    <glyph glyph-name="greater.lfprop" horiz-adv-x="922" 
d="M127 57v353l383 292l-383 295v355l678 -551v-193z" />
    <glyph glyph-name="degree.lfprop" horiz-adv-x="995" 
d="M903 1053q0 -87 -31 -161.5t-85.5 -129.5t-128.5 -86t-160 -31t-160 31t-128.5 86t-86 129.5t-31.5 161.5q0 84 31.5 157.5t86 128t128.5 86t160 31.5t160 -31.5t128.5 -86t85.5 -128t31 -157.5zM688 1053q0 39 -14.5 73.5t-40 60.5t-60.5 41t-75 15t-75 -15t-60.5 -41
t-40.5 -60.5t-15 -73.5q0 -42 15 -77.5t40.5 -61.5t60.5 -41t75 -15t75 15t60.5 41t40 61.5t14.5 77.5z" />
    <glyph glyph-name="cent.lfprop" horiz-adv-x="1100" 
d="M1026 410q-62 -86 -137 -144t-182 -84v-205h-277v218q-76 25 -140 74t-110 118t-72 155.5t-26 186.5q0 99 25 185t70.5 155t110 119t142.5 76v170h277v-154q106 -22 185 -84.5t132 -142.5l-186 -176q-53 76 -110.5 114.5t-135.5 38.5q-51 0 -92 -19.5t-70 -58t-45 -94.5
t-16 -129q0 -71 16 -126.5t45 -93.5t70 -58.5t92 -20.5q76 0 135.5 32.5t118.5 104.5z" />
    <glyph glyph-name="sterling.lfprop" horiz-adv-x="1372" 
d="M1106 1051q-74 66 -166 97.5t-188 31.5q-104 0 -155.5 -37.5t-51.5 -102.5q0 -38 16 -74.5t35 -68.5q6 -11 14 -25.5t16 -29.5t14.5 -30.5t10.5 -27.5h314v-231h-293q-4 -46 -13.5 -85t-25.5 -75.5t-40 -72t-56 -74.5h712v-246h-1069v209q44 35 78 73.5t60 84t39.5 87.5
t21.5 99h-199v231h162q-12 25 -27 49.5t-24 43.5q-22 40 -41 94t-19 108q0 91 35.5 161t102.5 118t164.5 73t222.5 25q148 0 282 -49t240 -145z" />
    <glyph glyph-name="section.lfprop" horiz-adv-x="1434" 
d="M1321 514q0 -64 -17.5 -115.5t-47.5 -92.5t-71 -73t-89 -57q19 -32 30 -75.5t11 -102.5q0 -71 -27.5 -132t-81.5 -106t-133.5 -70.5t-183.5 -25.5q-125 0 -238 36.5t-203 102.5l142 197q72 -51 156.5 -75.5t160.5 -24.5q68 0 105.5 22.5t37.5 73.5q0 24 -13 42t-49.5 37
t-103 42.5t-174.5 58.5q-101 34 -179.5 71.5t-131.5 87.5t-80.5 115.5t-27.5 155.5q0 64 17.5 115.5t47.5 93t70.5 73.5t87.5 56q-20 35 -29.5 79t-9.5 99q0 71 27.5 132t81 106t133 70.5t184.5 25.5q125 0 237.5 -36.5t202.5 -102.5l-141 -197q-63 45 -151.5 73t-165.5 28
q-41 0 -68.5 -7.5t-44.5 -20t-24 -30.5t-7 -39q0 -24 13 -42t49.5 -37t103 -42.5t174.5 -58.5q101 -34 179.5 -71.5t132 -87t81 -115.5t27.5 -156zM1047 494q0 43 -24.5 74.5t-64.5 55.5t-91 43t-105 38q-74 24 -135 47.5t-109 46.5q-65 -28 -98 -69t-33 -103
q0 -44 24.5 -75.5t64 -55.5t91 -43t105.5 -37q74 -25 134.5 -48t108.5 -46q65 27 98.5 68.5t33.5 103.5z" />
    <glyph glyph-name="yen.lfprop" horiz-adv-x="1401" 
d="M838 557v-100h333v-242h-333v-215h-275v215h-334v242h334v94l-518 883h330l327 -595l328 595h326z" />
    <glyph glyph-name="ordfeminine.lfprop" horiz-adv-x="977" 
d="M627 565v64q-35 -37 -87 -58.5t-114 -21.5q-61 0 -119.5 18.5t-104.5 57t-74 96.5t-28 137q0 72 27.5 126.5t75.5 90.5t112.5 54t139.5 18q60 0 102 -10.5t70 -24.5v43q0 48 -33 81.5t-96 33.5q-83 0 -135.5 -14.5t-106.5 -45.5l-86 160q78 43 152 64.5t176 21.5
q79 0 144 -20t111 -59t71.5 -96t25.5 -130v-586h-223zM627 934q-32 18 -68 26.5t-96 8.5q-66 0 -101.5 -28.5t-35.5 -82.5q0 -55 36 -88t101 -33q47 0 92 23t72 61v113z" />
    </font>
</defs>
</svg>
