<?xml version="1.0" standalone="no"?>
<!DOCTYPE svg PUBLIC "-//W3C//DTD SVG 1.1//EN" "http://www.w3.org/Graphics/SVG/1.1/DTD/svg11.dtd" >
<svg xmlns="http://www.w3.org/2000/svg" xmlns:xlink="http://www.w3.org/1999/xlink" version="1.1">
<metadata>
Created by FontForge 20160405 at Mon Mar 12 13:50:03 2018
 By www-data
Copyright (c) 2007 by The Font Bureau, Inc.. All rights reserved.
</metadata>
<defs>
<font id="InterstateMazda-Light" horiz-adv-x="1270" >
  <font-face 
    font-family="Interstate Mazda Light"
    font-weight="300"
    font-stretch="normal"
    units-per-em="2048"
    panose-1="2 0 5 6 0 0 0 2 0 4"
    ascent="1638"
    descent="-410"
    x-height="1075"
    cap-height="1434"
    bbox="-374 -491 2662 2181"
    underline-thickness="41"
    underline-position="-312"
    unicode-range="U+0020-FB02"
  />
<missing-glyph horiz-adv-x="0" 
 />
    <glyph glyph-name="fi" unicode="fi" horiz-adv-x="1223" 
d="M1075 1376q0 -22 -8.5 -41.5t-23 -34.5t-34 -23.5t-40.5 -8.5q-24 0 -44.5 8.5t-36 23.5t-24 34.5t-8.5 41.5q0 23 8.5 43.5t24 35.5t36 23.5t44.5 8.5q21 0 40.5 -8.5t34 -23.5t23 -35.5t8.5 -43.5zM633 1323q-26 12 -57 18.5t-68 6.5q-58 0 -84.5 -28t-26.5 -85v-160
h211v-129h-211v-946h-153v946h-148v129h148v148q0 72 18.5 122t52 81.5t80.5 46t103 14.5q46 0 76.5 -4.5t58.5 -14.5v-145zM889 0v1075h153v-1075h-153z" />
    <glyph glyph-name="fl" unicode="fl" horiz-adv-x="1223" 
d="M889 0v1407l153 86v-1493h-153zM633 1323q-26 12 -57 18.5t-68 6.5q-58 0 -84.5 -28t-26.5 -85v-160h211v-129h-211v-946h-153v946h-148v129h148v148q0 72 18.5 122t52 81.5t80.5 46t103 14.5q46 0 76.5 -4.5t58.5 -14.5v-145z" />
    <glyph glyph-name=".notdef" horiz-adv-x="0" 
 />
    <glyph glyph-name=".null" horiz-adv-x="0" 
 />
    <glyph glyph-name="nonmarkingreturn" horiz-adv-x="532" 
 />
    <glyph glyph-name="space" unicode=" " horiz-adv-x="532" 
 />
    <glyph glyph-name="space" unicode="&#xa0;" horiz-adv-x="532" 
 />
    <glyph glyph-name="exclam" unicode="!" horiz-adv-x="539" 
d="M311 385h-86l-35 375v674h158v-674zM393 102q0 -25 -10.5 -47.5t-27.5 -40t-39.5 -27.5t-47.5 -10t-47.5 10t-40 27.5t-27.5 40t-10 47.5t10 48.5t27.5 41.5t40 28.5t47.5 10.5t47.5 -10.5t39.5 -28.5t27.5 -41.5t10.5 -48.5z" />
    <glyph glyph-name="quotedbl" unicode="&#x22;" horiz-adv-x="942" 
d="M735 764h-121l-34 670h190zM328 764h-121l-35 670h190z" />
    <glyph glyph-name="numbersign" unicode="#" 
d="M946 362v-362h-143v362h-336v-362h-143v362h-222v134h222v442h-222v133h222v363h143v-363h336v363h143v-363h221v-133h-221v-442h221v-134h-221zM803 938h-336v-442h336v442z" />
    <glyph glyph-name="dollar" unicode="$" 
d="M1120 397q0 -78 -28.5 -145.5t-82.5 -118.5t-132.5 -84t-178.5 -43v-211h-151v211q-63 6 -123 22t-114.5 39.5t-102.5 52.5t-88 62l98 125q45 -35 93.5 -65t100 -51.5t106 -33.5t112.5 -12q157 0 245.5 65t88.5 181q0 49 -17.5 86.5t-59.5 69.5t-112.5 61.5t-175.5 61.5
q-123 39 -207 77t-135 83.5t-73.5 103.5t-22.5 137t28 142t79 108t122.5 72.5t159.5 36.5v208h151v-206q59 -4 110.5 -15.5t98.5 -29t90 -40.5t86 -51l-94 -131q-44 29 -86.5 52t-86.5 38.5t-92.5 24t-104.5 8.5q-81 0 -138 -16t-93.5 -43.5t-53.5 -65.5t-17 -82t13.5 -78.5
t53 -65.5t111 -61.5t187.5 -66.5q126 -41 210 -80t134 -86t71 -106t21 -140z" />
    <glyph glyph-name="percent" unicode="%" 
d="M512 1063q0 -195 -57 -296t-156 -101t-154 99t-55 294t57 296t156 101t154 -99t55 -294zM393 1059q0 136 -24 209t-70 73t-68 -71t-22 -207t24 -209.5t70 -73.5q47 0 68.5 71.5t21.5 207.5zM360 0h-120l669 1434h121zM1180 375q0 -195 -57 -296.5t-156 -101.5t-154 99.5
t-55 294.5t57 296t156 101t154 -99t55 -294zM1061 371q0 136 -24 209t-70 73q-47 0 -68.5 -71t-21.5 -207t23.5 -209.5t70.5 -73.5q46 0 68 71t22 208z" />
    <glyph glyph-name="ampersand" unicode="&#x26;" horiz-adv-x="1319" 
d="M795 1145q0 82 -49 130t-123 48q-42 0 -78 -12.5t-62 -35t-40.5 -53t-14.5 -67.5q0 -61 26 -109.5t60 -91.5l72 -92q60 38 100 73.5t64 70t34.5 69t10.5 70.5zM668 752l282 -365q26 51 50 112.5t49 139.5l133 -41q-23 -88 -60.5 -175t-81.5 -153l207 -270h-188l-115 150
q-86 -87 -181 -130t-206 -43q-99 0 -178.5 24t-136 72t-87 120.5t-30.5 168.5q0 82 23.5 146.5t66 115.5t101.5 92.5t130 78.5l-51 65q-26 34 -49 68t-40 69t-26.5 72.5t-9.5 77.5q0 75 28.5 132t77 96t112.5 59t135 20q69 0 130 -21t106.5 -60.5t72 -96t26.5 -127.5
q0 -218 -290 -397zM528 690q-121 -54 -185 -134t-64 -189q0 -53 18.5 -98.5t54.5 -79t88.5 -53t120.5 -19.5q93 0 169 38t130 101z" />
    <glyph glyph-name="quotesingle" unicode="'" horiz-adv-x="526" 
d="M326 764h-125l-35 670h194z" />
    <glyph glyph-name="parenleft" unicode="(" horiz-adv-x="713" 
d="M591 -225q-58 37 -120 85.5t-120.5 107.5t-111 129.5t-91.5 151t-62 171.5t-23 192q0 107 23 201.5t62 177.5t91.5 154t111 130t120.5 107.5t120 85.5l58 -67q-90 -74 -166 -154.5t-131 -174t-86 -204t-31 -243.5q0 -139 31 -251t86 -205.5t131 -173t166 -153.5z" />
    <glyph glyph-name="parenright" unicode=")" horiz-adv-x="713" 
d="M649 631q0 -107 -23 -201.5t-62 -177.5t-91.5 -154t-111.5 -130t-120.5 -107.5t-120.5 -85.5l-57 67q90 74 166 154.5t131 174t86 203.5t31 244q0 139 -31 251t-86 205.5t-131 173t-166 153.5l57 67q58 -37 120 -85.5t121 -107.5t111.5 -129.5t91.5 -151t62 -171.5
t23 -192z" />
    <glyph glyph-name="asterisk" unicode="*" horiz-adv-x="1024" 
d="M829 979l-55 -96l-237 178l30 -295h-110l28 295l-235 -178l-55 96l264 119l-264 123l55 94l235 -176l-28 295h110l-30 -295l237 176l55 -94l-264 -123z" />
    <glyph glyph-name="plus" unicode="+" 
d="M709 635v-436h-148v436h-424v139h424v436h148v-436h424v-139h-424z" />
    <glyph glyph-name="comma" unicode="," horiz-adv-x="635" 
d="M303 -242h-110l30 478h213z" />
    <glyph glyph-name="hyphen" unicode="-" horiz-adv-x="659" 
d="M104 674v149h451v-149h-451z" />
    <glyph glyph-name="hyphen" unicode="&#xad;" horiz-adv-x="659" 
d="M104 674v149h451v-149h-451z" />
    <glyph glyph-name="period" unicode="." horiz-adv-x="635" 
d="M451 111q0 -28 -11 -52.5t-29 -42.5t-42.5 -28.5t-51.5 -10.5t-51.5 10.5t-42.5 28.5t-28.5 42.5t-10.5 52.5q0 27 10.5 52t28.5 44t42.5 30t51.5 11t51.5 -11t42.5 -30t29 -44t11 -52z" />
    <glyph glyph-name="slash" unicode="/" horiz-adv-x="870" 
d="M205 -184h-152l613 1802h151z" />
    <glyph glyph-name="zero" unicode="0" 
d="M1157 717q0 -178 -39 -316t-108.5 -232t-165 -143t-209.5 -49t-209.5 49t-165 143t-108.5 232t-39 316t39 316t108.5 232t165 142.5t209.5 48.5t209.5 -48.5t165 -142.5t108.5 -232t39 -316zM999 717q0 139 -25.5 249.5t-73 187.5t-114.5 118t-151 41t-151.5 -41
t-115 -118t-73 -187.5t-25.5 -249.5t25.5 -249.5t73 -187.5t115 -118t151.5 -41t151 41t114.5 118t73 187.5t25.5 249.5z" />
    <glyph glyph-name="one" unicode="1" 
d="M270 0v141h316v1006h-281v100q66 4 120.5 14.5t95 32.5t67 56t35.5 84h120v-1293h287v-141h-760z" />
    <glyph glyph-name="two" unicode="2" 
d="M113 0q7 132 48.5 240.5t114.5 191t161.5 146t160.5 108.5q103 67 168.5 116.5t102 92t50 83t13.5 91.5q0 115 -81.5 179.5t-236.5 64.5q-65 0 -118 -11.5t-97 -31t-81.5 -45.5t-71.5 -54l-92 115q44 34 93 65t106 54.5t123.5 37t144.5 13.5q98 0 183 -22.5t148 -69
t99 -118t36 -169.5q0 -84 -20.5 -144t-65.5 -112t-117.5 -104.5t-176.5 -120.5q-77 -50 -148 -101.5t-127 -106.5t-89 -112t-46 -124h807v-152h-991z" />
    <glyph glyph-name="three" unicode="3" 
d="M1094 412q0 -102 -36 -183t-103.5 -137t-165 -85.5t-220.5 -29.5q-77 0 -145.5 14.5t-128.5 39.5t-110.5 58.5t-90.5 70.5l103 112q86 -77 181 -114t197 -37q178 0 269.5 72.5t91.5 214.5q0 66 -26 116.5t-73 84.5t-113 51.5t-146 17.5h-101v137h103q141 0 216.5 66
t75.5 182q0 53 -16 98.5t-53.5 79.5t-98.5 53t-151 19q-94 0 -170.5 -34.5t-132.5 -84.5l-96 109q31 27 74 54.5t95 49.5t111 35.5t123 13.5q98 0 184.5 -22.5t150.5 -68t101 -115.5t37 -165q0 -64 -15 -114.5t-42 -90.5t-65 -71t-85 -55q52 -13 101 -39.5t87 -68.5
t60.5 -100t22.5 -134z" />
    <glyph glyph-name="four" unicode="4" 
d="M983 342v-342h-147v342h-744v133l721 959h170v-955h188v-137h-188zM836 1229l-566 -750h566v750z" />
    <glyph glyph-name="five" unicode="5" 
d="M1133 477q0 -130 -40 -224t-111.5 -155.5t-170.5 -91t-217 -29.5q-133 0 -246.5 36t-206.5 96l78 127q81 -51 180 -83t207 -32q92 0 161.5 25t115.5 71t69 109.5t23 140.5q0 143 -89.5 222t-252.5 79q-50 0 -91.5 -6.5t-77.5 -18.5t-68 -29t-62 -38l-158 61l49 697h822
v-152h-685l-34 -461q54 37 133.5 63.5t181.5 26.5q123 0 215 -31.5t153 -88.5t91.5 -137t30.5 -177z" />
    <glyph glyph-name="six" unicode="6" 
d="M1174 442q0 -115 -40.5 -202t-112 -145.5t-168 -88t-208.5 -29.5q-107 0 -200.5 31t-163.5 98.5t-110 175t-40 261.5q0 93 18 194t57.5 199.5t103.5 188.5t156 160.5t215 116t280 54.5v-141q-284 -25 -452.5 -177t-223.5 -425q34 37 74.5 67.5t90.5 53t111 35t137 12.5
q99 0 185.5 -27t151 -81.5t102 -137t37.5 -193.5zM1016 434q0 72 -24.5 128.5t-70.5 95.5t-112.5 59t-151.5 20t-153 -22t-116 -61.5t-73.5 -95.5t-25.5 -124q0 -67 26 -124t73.5 -99t114.5 -66t148 -24q89 0 157.5 23t114.5 64.5t69.5 99t23.5 126.5z" />
    <glyph glyph-name="seven" unicode="7" 
d="M1153 1284q-104 -117 -197 -253t-164.5 -295t-115 -342.5t-47.5 -393.5h-162q6 193 44.5 369t104 335.5t155.5 303.5t198 274h-852v152h1036v-150z" />
    <glyph glyph-name="eight" unicode="8" 
d="M1151 403q0 -104 -37 -183.5t-105 -133.5t-164 -81.5t-214 -27.5t-212.5 27t-161 80.5t-102.5 132t-36 182.5q0 73 19 131.5t52 101.5t83.5 78.5t119.5 59.5q-48 19 -87.5 46.5t-68.5 65t-45 85t-16 106.5q0 82 30 152t88.5 121.5t144 80.5t196.5 29t196.5 -28.5
t143.5 -79t87.5 -120.5t29.5 -153q0 -57 -15.5 -103t-44 -83t-69 -65.5t-89.5 -49.5q67 -23 118.5 -58t88.5 -83.5t53.5 -103.5t16.5 -126zM936 1071q0 45 -16.5 89t-53 78.5t-94 55.5t-139.5 21q-83 0 -140.5 -20.5t-93 -54t-51.5 -77t-16 -88.5q0 -51 21 -95.5t60 -76.5
t95 -50.5t127 -18.5q69 0 124.5 18.5t95 51t60.5 75.5t21 92zM993 399q0 62 -24 115.5t-70 92.5t-113 61t-153 22q-87 0 -154 -21.5t-112.5 -60t-69 -91t-23.5 -114.5q0 -63 22.5 -115t68 -89.5t113.5 -58.5t159 -21q90 0 157 20t111 57t66 88.5t22 114.5z" />
    <glyph glyph-name="nine" unicode="9" 
d="M981 999q0 67 -26 124.5t-73.5 99.5t-114.5 66t-149 24q-89 0 -157 -23t-114 -64.5t-69.5 -99.5t-23.5 -127q0 -144 95.5 -223.5t262.5 -79.5q85 0 153.5 21.5t116.5 61.5t73.5 96t25.5 124zM1139 891q0 -93 -18 -194.5t-57.5 -200t-103.5 -188.5t-156 -160.5t-215 -116
t-280 -54.5v142q284 25 452 176.5t224 425.5q-35 -37 -75 -67.5t-90 -53t-111.5 -35t-137.5 -12.5q-98 0 -184.5 26.5t-151 81t-102 137t-37.5 193.5q0 115 40.5 202t112 145.5t168 88t208.5 29.5q106 0 200 -31t163.5 -98.5t110 -175t40.5 -260.5z" />
    <glyph glyph-name="colon" unicode=":" horiz-adv-x="635" 
d="M451 961q0 -28 -11 -52.5t-29 -42.5t-42.5 -28.5t-51.5 -10.5t-51.5 10.5t-42.5 28.5t-28.5 42.5t-10.5 52.5q0 27 10.5 52t28.5 44t42.5 30t51.5 11t51.5 -11t42.5 -30t29 -44t11 -52zM451 111q0 -28 -11 -52.5t-29 -42.5t-42.5 -28.5t-51.5 -10.5t-51.5 10.5
t-42.5 28.5t-28.5 42.5t-10.5 52.5q0 27 10.5 52t28.5 44t42.5 30t51.5 11t51.5 -11t42.5 -30t29 -44t11 -52z" />
    <glyph glyph-name="semicolon" unicode=";" horiz-adv-x="635" 
d="M451 961q0 -28 -11 -52.5t-29 -42.5t-42.5 -28.5t-51.5 -10.5t-51.5 10.5t-42.5 28.5t-28.5 42.5t-10.5 52.5q0 27 10.5 52t28.5 44t42.5 30t51.5 11t51.5 -11t42.5 -30t29 -44t11 -52zM289 -242h-111l31 478h213z" />
    <glyph glyph-name="less" unicode="&#x3c;" 
d="M184 621v167l910 568v-166l-775 -483l775 -484v-170z" />
    <glyph glyph-name="equal" unicode="=" 
d="M178 856v143h914v-143h-914zM178 410v143h914v-143h-914z" />
    <glyph glyph-name="greater" unicode="&#x3e;" 
d="M176 53v166l774 483l-774 484v170l909 -568v-167z" />
    <glyph glyph-name="question" unicode="?" horiz-adv-x="1149" 
d="M1012 1104q0 -75 -17 -128.5t-50 -95t-80 -76t-107 -71.5q-51 -32 -82 -60t-47.5 -65t-21.5 -89.5t-5 -133.5h-158q0 92 7 163t32.5 122.5t74.5 93.5t128 90q40 25 71 48.5t52 51t32 61t11 77.5q0 98 -80 158.5t-209 60.5q-113 0 -202 -42.5t-168 -115.5l-103 113
q41 40 92 74.5t111 60t129 40.5t147 15q97 0 178.5 -22t140.5 -66.5t91.5 -110.5t32.5 -153zM645 102q0 -25 -10.5 -47.5t-27.5 -40t-39.5 -27.5t-47.5 -10t-47.5 10t-40 27.5t-27.5 40t-10 47.5t10 48.5t27.5 41.5t40 28.5t47.5 10.5t47.5 -10.5t39.5 -28.5t27.5 -41.5
t10.5 -48.5z" />
    <glyph glyph-name="at" unicode="@" horiz-adv-x="1712" 
d="M1595 737q0 -116 -21.5 -197t-61.5 -132t-95.5 -74t-124.5 -23q-38 0 -72 10t-62 27.5t-49.5 41t-35.5 50.5q-46 -59 -113.5 -94t-152.5 -35q-67 0 -124 17t-99 52t-66 87.5t-24 124.5q0 65 25.5 115t70 84t105 51.5t130.5 17.5q81 0 135 -16t93 -39v121q0 66 -49.5 98.5
t-161.5 32.5q-56 0 -108.5 -13t-100.5 -36l-45 88q62 31 127.5 47t140.5 16q68 0 124 -12t95.5 -38.5t61.5 -70t22 -106.5v-395q0 -63 38.5 -98.5t107.5 -35.5q41 0 75.5 17.5t59.5 57t39 103t14 154.5q0 140 -48 255t-133 197.5t-201.5 127.5t-254.5 45t-255 -45.5
t-202 -129.5t-132.5 -202t-47.5 -262q0 -146 47.5 -265.5t132.5 -204t202 -131t255 -46.5q82 0 148 15.5t131 47.5l36 -90q-44 -20 -82 -33.5t-75 -21.5t-75.5 -11.5t-82.5 -3.5q-107 0 -203.5 25t-178.5 71.5t-148 113t-112.5 148.5t-71.5 178.5t-25 203.5t25 203.5
t71.5 178.5t112.5 148t148 112.5t178.5 71.5t203.5 25q109 0 206 -26t179 -73.5t148 -114t111.5 -146.5t70 -171t24.5 -188zM1053 702q-39 23 -98 41.5t-140 18.5q-46 0 -84 -12t-65.5 -34t-42.5 -52t-15 -66q0 -90 50 -137t159 -47q36 0 71 9t65.5 25.5t56 39t43.5 49.5
v165z" />
    <glyph glyph-name="A" unicode="A" horiz-adv-x="1389" 
d="M1280 0h-168l-123 365h-592l-125 -365h-163l497 1434h176zM940 510l-246 733l-248 -733h494z" />
    <glyph glyph-name="B" unicode="B" horiz-adv-x="1282" 
d="M1169 424q0 -212 -120.5 -318t-346.5 -106h-514v1434h525q85 0 156.5 -21.5t123 -66t80.5 -112t29 -159.5q0 -59 -15.5 -106t-43 -83t-65.5 -62t-83 -42q72 -19 123.5 -52.5t84 -78t49.5 -101.5t17 -126zM942 1069q0 49 -14.5 89.5t-43.5 69t-73 44.5t-104 16h-359v-446
h346q67 0 114 18t77 48.5t43.5 72t13.5 88.5zM1010 416q0 67 -21.5 119.5t-61 88.5t-96 55t-126.5 19h-357v-553h365q81 0 137.5 19.5t92 54.5t51.5 85t16 112z" />
    <glyph glyph-name="C" unicode="C" horiz-adv-x="1286" 
d="M1042 1130q-35 47 -69.5 81t-73.5 56.5t-85.5 33t-104.5 10.5q-92 0 -169.5 -43.5t-133.5 -122t-87.5 -187.5t-31.5 -239q0 -131 32 -240.5t89 -188.5t134.5 -123t168.5 -44q116 0 200.5 49.5t153.5 138.5l111 -96q-39 -53 -88 -96.5t-107.5 -75t-127 -49t-146.5 -17.5
q-88 0 -165 25.5t-141.5 72.5t-115 113.5t-86 148.5t-54 177.5t-18.5 200.5q0 160 43 295.5t120.5 234.5t185 155t237.5 56q148 0 259.5 -56t196.5 -173z" />
    <glyph glyph-name="D" unicode="D" horiz-adv-x="1348" 
d="M1221 727q0 -97 -12.5 -178t-45.5 -170.5t-98 -166t-148.5 -123.5t-177.5 -68t-200 -21h-351v1434h379q141 0 261 -41.5t207.5 -127.5t136.5 -220t49 -318zM1061 721q0 137 -32.5 243t-96.5 178t-158.5 109t-218.5 37h-207v-1143h211q116 0 209 32t158 101.5t100 178.5
t35 264z" />
    <glyph glyph-name="E" unicode="E" horiz-adv-x="1202" 
d="M1085 0h-897v1434h867v-146h-707v-450h572v-146h-572v-547h737v-145z" />
    <glyph glyph-name="F" unicode="F" horiz-adv-x="1122" 
d="M348 1288v-475h393v-145h-393v-668h-160v1434h842v-146h-682z" />
    <glyph glyph-name="G" unicode="G" horiz-adv-x="1350" 
d="M1237 571q0 -148 -40 -259.5t-111 -185.5t-168 -111.5t-211 -37.5q-138 0 -249 62t-182 161.5t-109 226t-40 288.5q0 160 43 295.5t120.5 234.5t185 155t237.5 56q148 0 259.5 -56t196.5 -173l-127 -97q-35 47 -69.5 81t-73.5 56.5t-85.5 33t-104.5 10.5
q-92 0 -169.5 -43.5t-133.5 -122t-87.5 -187.5t-31.5 -239q0 -131 32.5 -240.5t89.5 -188.5t134.5 -123t167.5 -44q180 0 275 108t95 320v12h-258v148h414v-140z" />
    <glyph glyph-name="H" unicode="H" horiz-adv-x="1409" 
d="M1061 0v676h-713v-676h-160v1434h160v-613h713v613h160v-1434h-160z" />
    <glyph glyph-name="I" unicode="I" horiz-adv-x="557" 
d="M199 0v1434h159v-1434h-159z" />
    <glyph glyph-name="J" unicode="J" horiz-adv-x="1184" 
d="M1006 549q0 -287 -121.5 -429.5t-368.5 -142.5q-91 0 -162.5 22.5t-127 67t-96.5 109t-69 148.5l152 51q21 -59 48 -105.5t64 -79t85 -50t112 -17.5q86 0 147.5 25t100.5 78t57.5 134.5t18.5 194.5v879h160v-885z" />
    <glyph glyph-name="K" unicode="K" horiz-adv-x="1315" 
d="M1227 0h-183l-423 764l-273 -352v-412h-160v1434h160v-809l625 809h174l-420 -539z" />
    <glyph glyph-name="L" unicode="L" horiz-adv-x="1178" 
d="M188 0v1434h160v-1289h709v-145h-869z" />
    <glyph glyph-name="M" unicode="M" horiz-adv-x="1614" 
d="M1425 0h-153v1094l-469 -1131l-461 1131v-1094h-154v1434h179l440 -1117l444 1117h174v-1434z" />
    <glyph glyph-name="N" unicode="N" horiz-adv-x="1409" 
d="M1221 0h-150l-729 1141v-1141h-154v1434h156l723 -1164v1164h154v-1434z" />
    <glyph glyph-name="O" unicode="O" horiz-adv-x="1444" 
d="M1317 719q0 -162 -43.5 -298t-122 -235t-189 -154t-243.5 -55q-134 0 -243 54.5t-186.5 152.5t-120 233.5t-42.5 297.5t43 298t121.5 234.5t188 153.5t243.5 55q133 0 242.5 -54.5t187.5 -152t121 -233t43 -297.5zM1157 715q0 135 -33.5 245t-92.5 188t-139.5 120.5
t-174.5 42.5q-93 0 -172 -42t-136 -119t-89.5 -186.5t-32.5 -244.5t33.5 -245t92 -188t138.5 -120.5t174 -42.5q93 0 172 41.5t137 119t90.5 187t32.5 244.5z" />
    <glyph glyph-name="P" unicode="P" horiz-adv-x="1266" 
d="M1182 1006q0 -107 -35.5 -189.5t-100 -139t-153.5 -85.5t-197 -29h-348v-563h-160v1434h537q97 0 181 -26t145 -79t96 -133.5t35 -189.5zM1022 999q0 89 -30 148t-76 89t-95.5 41t-101.5 11h-371v-579h350q166 0 245 73.5t79 216.5z" />
    <glyph glyph-name="Q" unicode="Q" horiz-adv-x="1444" 
d="M1317 719q0 -100 -17.5 -190.5t-50 -169.5t-79.5 -144t-105 -113l92 -149l-131 -78l-90 148q-50 -22 -104 -34t-113 -12q-134 0 -243 54.5t-186.5 152.5t-120 233.5t-42.5 297.5t43 298t121.5 234.5t188 153.5t243.5 55q133 0 242.5 -54.5t187.5 -152t121 -233t43 -297.5
zM1157 715q0 135 -33.5 245t-92.5 188t-139.5 120.5t-174.5 42.5q-93 0 -172 -42t-136 -119t-89.5 -186.5t-32.5 -244.5t33.5 -245t92 -188t138.5 -120.5t174 -42.5q73 0 135 24l-117 191l131 78l115 -189q78 75 123 197.5t45 290.5z" />
    <glyph glyph-name="R" unicode="R" horiz-adv-x="1331" 
d="M995 0l-307 610h-340v-610h-160v1434h568q94 0 175.5 -24.5t141.5 -74.5t94.5 -126.5t34.5 -180.5q0 -84 -24 -151.5t-68 -118.5t-106.5 -85t-139.5 -50l316 -623h-185zM1021 1143.5q-21 52.5 -64 86t-96.5 46t-110.5 12.5h-402v-534h381q69 0 125.5 13t100.5 45t65.5 86
t21.5 124q0 69 -21 121.5z" />
    <glyph glyph-name="S" unicode="S" horiz-adv-x="1212" 
d="M1069 377q0 -84 -32 -157t-93 -127t-149.5 -85t-200.5 -31q-73 0 -141.5 15t-130 41.5t-114.5 63t-95 79.5l106 119q82 -79 176 -125.5t205 -46.5q72 0 129 17t97 49t61.5 77.5t21.5 102.5q0 50 -16.5 90.5t-56 76t-105.5 68.5t-164 68q-116 41 -195 82.5t-127.5 90
t-69.5 108t-21 137.5q0 86 32.5 154t91 115t141 72t183.5 25q72 0 132.5 -10.5t113 -30t99 -48t91.5 -64.5l-102 -125q-39 32 -78 57t-80 42t-86.5 25.5t-99.5 8.5q-74 0 -127 -17t-86.5 -46.5t-49.5 -67.5t-16 -80q0 -45 13 -81t50 -69.5t103.5 -67t173.5 -71.5
q119 -43 199 -86.5t128 -94t68.5 -112t20.5 -141.5z" />
    <glyph glyph-name="T" unicode="T" horiz-adv-x="1204" 
d="M682 1288v-1288h-160v1288h-422v146h1004v-146h-422z" />
    <glyph glyph-name="U" unicode="U" horiz-adv-x="1389" 
d="M1210 582q0 -165 -38.5 -281.5t-105.5 -186.5t-158 -103.5t-212 -33.5t-213 33.5t-160 103.5t-106.5 186.5t-38.5 281.5v852h160v-848q0 -234 90 -348.5t277 -114.5q183 0 264.5 111.5t81.5 347.5v852h159v-852z" />
    <glyph glyph-name="V" unicode="V" horiz-adv-x="1368" 
d="M1260 1434l-488 -1434h-176l-487 1434h167l408 -1251l412 1251h164z" />
    <glyph glyph-name="W" unicode="W" horiz-adv-x="1753" 
d="M1637 1434l-287 -1434h-181l-294 1202l-295 -1202h-177l-286 1434h159l220 -1208l297 1208h172l295 -1208l221 1208h156z" />
    <glyph glyph-name="X" unicode="X" horiz-adv-x="1294" 
d="M1178 0h-181l-350 597l-354 -597h-176l446 745l-409 689h180l315 -537l316 537h176l-410 -684z" />
    <glyph glyph-name="Y" unicode="Y" horiz-adv-x="1335" 
d="M1239 1434l-491 -865v-569h-160v567l-492 867h183l390 -703l392 703h178z" />
    <glyph glyph-name="Z" unicode="Z" horiz-adv-x="1286" 
d="M1149 0h-1024v139l848 1155h-807v140h983v-140l-848 -1155h848v-139z" />
    <glyph glyph-name="bracketleft" unicode="[" horiz-adv-x="721" 
d="M195 -225v1659h397v-125h-248v-1409h248v-125h-397z" />
    <glyph glyph-name="backslash" unicode="\" horiz-adv-x="870" 
d="M666 -184l-613 1802h152l612 -1802h-151z" />
    <glyph glyph-name="bracketright" unicode="]" horiz-adv-x="721" 
d="M129 -225v125h248v1409h-248v125h397v-1659h-397z" />
    <glyph glyph-name="asciicircum" unicode="^" horiz-adv-x="1143" 
d="M870 782l-301 484l-301 -484h-172l418 652h115l418 -652h-177z" />
    <glyph glyph-name="underscore" unicode="_" horiz-adv-x="1024" 
d="M0 -313v129h1024v-129h-1024z" />
    <glyph glyph-name="grave" unicode="`" horiz-adv-x="1024" 
d="M547 1219l-309 327h219l211 -327h-121z" />
    <glyph glyph-name="a" unicode="a" horiz-adv-x="1104" 
d="M786 0v131q-28 -31 -62.5 -59t-76 -49t-90.5 -33.5t-106 -12.5q-63 0 -125 17t-110.5 57.5t-79 106.5t-30.5 164q0 90 34.5 155t91.5 107t131.5 62t154.5 20q82 0 151 -18t117 -44v127q0 121 -57 179.5t-176 58.5q-85 0 -156 -22t-137 -60l-57 125q71 38 163 62t197 24
q87 0 157 -19.5t118.5 -61.5t75 -108t26.5 -159v-750h-154zM786 481q-26 15 -54 26.5t-61 19.5t-72.5 12t-88.5 4q-119 0 -185.5 -54.5t-66.5 -156.5q0 -60 16 -103.5t44.5 -71.5t69 -41.5t89.5 -13.5q52 0 97.5 12.5t84.5 34.5t71 51.5t56 63.5v217z" />
    <glyph glyph-name="b" unicode="b" horiz-adv-x="1145" 
d="M1032 555q0 -143 -31.5 -251t-86.5 -181t-129 -109.5t-158 -36.5q-101 0 -174 39.5t-129 104.5v-121h-154v1407l154 86v-549q28 31 61.5 59t73.5 49t87 33.5t101 12.5q81 0 151 -31.5t122 -98t82 -169t30 -244.5zM881 553q0 201 -72 306.5t-201 105.5q-36 0 -76 -9.5
t-80 -33.5t-69 -50t-59 -63v-537q22 -34 52.5 -63.5t67 -51t79.5 -34t91 -12.5q135 0 201 112t66 330z" />
    <glyph glyph-name="c" unicode="c" horiz-adv-x="1014" 
d="M911 127q-34 -35 -71 -62.5t-79 -47t-90.5 -30t-105.5 -10.5q-88 0 -169.5 34t-144.5 103t-100.5 173.5t-37.5 244.5q0 149 40.5 256t106 176t148.5 101.5t167 32.5q110 0 193.5 -36t146.5 -91l-92 -115q-29 26 -58 46.5t-59.5 34.5t-65 21t-75.5 7q-63 0 -117.5 -28
t-94 -81.5t-62.5 -132t-23 -178.5q0 -99 20.5 -179t59.5 -137t95.5 -87.5t127.5 -30.5q39 0 72.5 8t63 22.5t57 35.5t55.5 48z" />
    <glyph glyph-name="d" unicode="d" horiz-adv-x="1145" 
d="M821 0v131q-29 -31 -62.5 -59t-73 -49t-86.5 -33.5t-101 -12.5q-81 0 -151 31.5t-122 98t-82 169t-30 244.5q0 143 31.5 251t86.5 181t129 109.5t158 36.5q51 0 94 -10.5t80 -29.5t68.5 -45.5t60.5 -58.5v453l154 86v-1493h-154zM821 803q-22 34 -52.5 63.5t-67.5 51.5
t-80 34.5t-91 12.5q-134 0 -200 -112.5t-66 -330.5q0 -105 20 -184t58 -130t87 -74t108 -23q47 0 84 11t72 31t66.5 48t61.5 65v537z" />
    <glyph glyph-name="e" unicode="e" horiz-adv-x="1106" 
d="M989 569q0 -28 -1.5 -46.5t-4.5 -37.5h-717q6 -86 28.5 -155t60.5 -118t91 -75t119 -26q47 0 85.5 6.5t73 19.5t68 32t70.5 44l72 -111q-48 -31 -91.5 -54.5t-88.5 -39t-94.5 -23.5t-110.5 -8q-49 0 -100.5 12.5t-100 40.5t-91.5 72t-75 107t-50.5 146t-18.5 188
q0 128 33.5 231t92.5 175t140.5 110.5t177.5 38.5q105 0 186 -39.5t135.5 -109.5t82.5 -167.5t28 -212.5zM846 610q-5 78 -24.5 143.5t-55 112.5t-88.5 73t-123 26q-60 0 -110 -21.5t-87.5 -66t-61 -111t-30.5 -156.5h580z" />
    <glyph glyph-name="f" unicode="f" horiz-adv-x="729" 
d="M633 1323q-26 12 -57 18.5t-68 6.5q-24 0 -44.5 -5t-35 -18t-23 -34.5t-8.5 -55.5v-160h211v-129h-211v-946h-153v946h-148v129h148v148q0 72 18.5 122t52 81.5t80.5 46t103 14.5q46 0 76.5 -4.5t58.5 -14.5v-145z" />
    <glyph glyph-name="g" unicode="g" horiz-adv-x="1145" 
d="M975 96q0 -115 -29 -207.5t-96 -154.5q-62 -59 -173 -91.5t-280 -37.5l-39 125q153 0 243.5 20t131.5 55q45 39 66.5 106.5t21.5 164.5v55q-29 -31 -62.5 -59t-73 -49t-86.5 -33.5t-101 -12.5q-81 0 -151 31.5t-122 98t-82 169t-30 244.5q0 143 31.5 251t86.5 181
t129 109.5t158 36.5q51 0 94 -10.5t80 -29.5t68.5 -45.5t60.5 -58.5v121h154v-979zM537 111q86 0 156.5 42t127.5 113v537q-22 34 -52.5 63.5t-67.5 51.5t-80 34.5t-91 12.5q-134 0 -200 -112.5t-66 -330.5q0 -203 72.5 -307t200.5 -104z" />
    <glyph glyph-name="h" unicode="h" horiz-adv-x="1161" 
d="M844 0v629q0 174 -62 255t-192 81q-56 0 -104.5 -19.5t-84.5 -60.5t-56.5 -104.5t-20.5 -151.5v-629h-154v1407l154 86v-549q23 34 53 62t67.5 48.5t81.5 32t95 11.5q85 0 154.5 -25.5t118.5 -79.5t76 -138t27 -200v-655h-153z" />
    <glyph glyph-name="i" unicode="i" horiz-adv-x="514" 
d="M367 1376q0 -22 -8.5 -41.5t-23.5 -34.5t-34.5 -23.5t-40.5 -8.5q-24 0 -44.5 8.5t-35.5 23.5t-24 34.5t-9 41.5q0 23 9 43.5t24 35.5t35.5 23.5t44.5 8.5q21 0 40.5 -8.5t34.5 -23.5t23.5 -35.5t8.5 -43.5zM180 0v1075h154v-1075h-154z" />
    <glyph glyph-name="j" unicode="j" horiz-adv-x="514" 
d="M367 1376q0 -22 -8.5 -41.5t-23.5 -34.5t-34.5 -23.5t-40.5 -8.5q-24 0 -44.5 8.5t-35.5 23.5t-24 34.5t-9 41.5q0 23 9 43.5t24 35.5t35.5 23.5t44.5 8.5q21 0 40.5 -8.5t34.5 -23.5t23.5 -35.5t8.5 -43.5zM334 25q0 -92 -11.5 -160t-46 -117.5t-96.5 -83.5t-164 -59
l-51 114q73 22 116 45.5t65 57t28 82.5t6 123v1048h154v-1050z" />
    <glyph glyph-name="k" unicode="k" horiz-adv-x="1034" 
d="M782 0l-272 565l-186 -256v-309h-154v1407l154 86v-980l395 562h172l-283 -381l340 -694h-166z" />
    <glyph glyph-name="l" unicode="l" horiz-adv-x="514" 
d="M180 0v1407l154 86v-1493h-154z" />
    <glyph glyph-name="m" unicode="m" horiz-adv-x="1737" 
d="M1419 0v629q0 92 -14.5 156t-43 104t-72 58t-101.5 18q-55 0 -99 -19t-75.5 -60t-48.5 -104.5t-17 -152.5v-629h-153v629q0 92 -15 156t-44.5 104t-73 58t-99.5 18q-55 0 -99.5 -19t-75.5 -60t-47.5 -104.5t-16.5 -152.5v-629h-154v1075h154v-131q42 69 109 111.5
t163 42.5q99 0 173 -45.5t122 -139.5q24 39 53 72.5t68 58.5t89 39.5t116 14.5q82 0 148 -25t112 -78.5t71 -137.5t25 -202v-655h-154z" />
    <glyph glyph-name="n" unicode="n" horiz-adv-x="1165" 
d="M844 0v629q0 174 -62 255t-192 81q-56 0 -104.5 -19.5t-84.5 -60.5t-56.5 -104.5t-20.5 -151.5v-629h-154v1075h154v-131q23 34 53 62t67.5 48.5t81.5 32t95 11.5q85 0 154.5 -25.5t118.5 -79.5t76 -138t27 -200v-655h-153z" />
    <glyph glyph-name="o" unicode="o" horiz-adv-x="1159" 
d="M1047 545q0 -137 -37 -243t-100.5 -178t-149.5 -109.5t-185 -37.5q-98 0 -182.5 36t-146.5 107t-97.5 175.5t-35.5 241.5q0 136 36.5 241t100.5 176t150 107.5t184 36.5t182.5 -35t147 -105t98 -173.5t35.5 -239.5zM893 541q0 106 -23 185.5t-64 132.5t-98.5 79.5
t-127.5 26.5t-127.5 -26.5t-98.5 -79.5t-63.5 -132.5t-22.5 -185.5t22.5 -186.5t63.5 -134.5t98.5 -81.5t127.5 -27.5t127.5 27.5t98.5 81.5t64 134.5t23 186.5z" />
    <glyph glyph-name="p" unicode="p" horiz-adv-x="1145" 
d="M1032 555q0 -143 -31.5 -251t-86.5 -181t-129 -109.5t-158 -36.5q-101 0 -174 39.5t-129 104.5v-430l-154 -86v1470h154v-131q65 73 147 113.5t176 40.5q81 0 151 -31.5t122 -98t82 -169t30 -244.5zM881 553q0 198 -71.5 305t-201.5 107q-83 0 -155 -42t-129 -114v-537
q22 -34 52.5 -63.5t67 -51t79.5 -34t91 -12.5q135 0 201 112t66 330z" />
    <glyph glyph-name="q" unicode="q" horiz-adv-x="1145" 
d="M821 -395v526q-68 -74 -147 -114t-176 -40q-81 0 -151 31.5t-122 98t-82 169t-30 244.5q0 143 31.5 251t86.5 181t129 109.5t158 36.5q51 0 94 -10.5t80 -29.5t68.5 -45.5t60.5 -58.5v121h154v-1384zM821 803q-22 34 -52.5 63.5t-67.5 51.5t-80 34.5t-91 12.5
q-134 0 -200 -112.5t-66 -330.5q0 -203 72.5 -307t200.5 -104q86 0 156.5 42t127.5 113v537z" />
    <glyph glyph-name="r" unicode="r" horiz-adv-x="834" 
d="M719 915q-32 19 -70 30t-92 11q-112 0 -172.5 -85.5t-60.5 -239.5v-631h-154v1075h154v-133q18 32 46 60.5t62.5 49.5t74.5 33.5t83 12.5q60 0 100 -7.5t68 -19.5z" />
    <glyph glyph-name="s" unicode="s" horiz-adv-x="956" 
d="M809 983l-86 -113q-69 54 -127.5 75.5t-140.5 21.5q-85 0 -132 -37.5t-47 -95.5q0 -34 11.5 -59.5t39 -48.5t73.5 -46.5t114 -54.5q76 -35 136 -66t101 -69t63 -87.5t22 -121.5q0 -79 -31.5 -136.5t-83.5 -94.5t-118 -55t-136 -18q-112 0 -207 38t-172 100l90 112
q65 -57 139 -87.5t154 -30.5q111 0 164 43.5t53 121.5q0 33 -13 60t-42.5 52.5t-78 51t-120.5 56.5q-81 34 -138.5 66t-94.5 68.5t-54.5 83t-17.5 111.5q0 61 25 112t70 87t106.5 56t134.5 20q111 0 196.5 -32t147.5 -83z" />
    <glyph glyph-name="t" unicode="t" horiz-adv-x="762" 
d="M616 14q-45 -18 -90.5 -27.5t-107.5 -9.5q-50 0 -88 13t-64 42t-39.5 75.5t-13.5 113.5v725h-133v129h133v332l154 86v-418h266v-129h-266v-700q0 -36 5.5 -60.5t18 -40t33 -22t51.5 -6.5q47 0 81 7.5t71 22.5z" />
    <glyph glyph-name="u" unicode="u" horiz-adv-x="1161" 
d="M838 0v131q-47 -69 -122 -111.5t-175 -42.5q-182 0 -279.5 112.5t-97.5 330.5v655h153v-629q0 -174 62 -254.5t192 -80.5q123 0 195 86t72 249v629h153v-1075h-153z" />
    <glyph glyph-name="v" unicode="v" horiz-adv-x="1069" 
d="M602 0h-135l-385 1075h164l291 -897l290 897h160z" />
    <glyph glyph-name="w" unicode="w" horiz-adv-x="1495" 
d="M1114 0h-141l-228 846l-227 -846h-137l-285 1075h158l199 -840l227 840h139l228 -840l198 840h154z" />
    <glyph glyph-name="x" unicode="x" horiz-adv-x="1032" 
d="M758 0l-246 430l-248 -430h-160l332 555l-309 520h170l223 -392l225 392h160l-309 -516l332 -559h-170z" />
    <glyph glyph-name="y" unicode="y" horiz-adv-x="1087" 
d="M471 -379h-154l148 391l-383 1063h162l299 -891l301 891h162z" />
    <glyph glyph-name="z" unicode="z" horiz-adv-x="1008" 
d="M111 0v113l587 833h-540v129h714v-112l-587 -834h587v-129h-761z" />
    <glyph glyph-name="braceleft" unicode="{" horiz-adv-x="813" 
d="M705 -225q-217 6 -317.5 112.5t-100.5 323.5v176q0 45 -6 73.5t-20 45t-37.5 23t-57.5 6.5h-49v143h49q34 0 57.5 6.5t37.5 23t20 45t6 72.5v183q0 216 100.5 323t317.5 113v-129q-72 -8 -122.5 -27.5t-82.5 -54t-47 -86t-15 -121.5v-143q0 -64 -6 -109.5t-20 -77.5
t-37 -54t-58 -38q35 -16 58 -37.5t37 -54t20 -77.5t6 -109v-133q0 -71 15 -122t47 -85.5t82.5 -54.5t122.5 -27v-129z" />
    <glyph glyph-name="bar" unicode="|" horiz-adv-x="623" 
d="M238 -379v2017h147v-2017h-147z" />
    <glyph glyph-name="braceright" unicode="}" horiz-adv-x="813" 
d="M647 541q-35 0 -58 -6.5t-37 -23t-20 -45t-6 -73.5v-182q0 -217 -100.5 -323.5t-316.5 -112.5v129q71 7 121.5 27t82.5 54.5t47 85.5t15 122v143q0 64 6 109t20 77.5t37 54t58 37.5q-35 16 -58 38t-37 54t-20 77.5t-6 109.5v133q0 70 -15 121.5t-47 86t-82.5 54
t-121.5 27.5v129q216 -6 316.5 -113t100.5 -323v-177q0 -44 6 -72.5t20 -45t37 -23t58 -6.5h49v-143h-49z" />
    <glyph glyph-name="asciitilde" unicode="~" horiz-adv-x="1130" 
d="M1042 864q-26 -65 -54.5 -113t-63 -80.5t-77.5 -48.5t-97 -16q-31 0 -56.5 5t-48 14.5t-44 22.5t-44.5 28q-63 42 -104 61t-72 19q-28 0 -49 -9t-39 -28.5t-34.5 -50t-35.5 -74.5l-135 61q26 64 55 112.5t63.5 81t77.5 48.5t97 16q29 0 53.5 -4.5t47 -13.5t45 -22
t46.5 -29q37 -24 85.5 -51.5t91.5 -28.5q27 0 47.5 8t38 27t34 50t37.5 77z" />
    <glyph glyph-name="exclamdown" unicode="&#xa1;" horiz-adv-x="539" 
d="M395 1331q0 -25 -10 -48.5t-27 -41.5t-40 -28.5t-48 -10.5q-24 0 -47 10.5t-40 28.5t-27.5 41.5t-10.5 48.5t10.5 48t27.5 40t40 27t47 10q25 0 48 -10t40 -27t27 -40t10 -48zM190 0v674l37 375h86l35 -375v-674h-158z" />
    <glyph glyph-name="cent" unicode="&#xa2;" 
d="M1032 1032q-38 34 -75 58t-76 39.5t-83 22.5t-96 7q-85 0 -158 -29t-126.5 -83t-84 -130.5t-30.5 -171.5q0 -103 29.5 -185t83 -139t128 -87.5t165.5 -30.5q103 0 181 34.5t134 94.5l98 -88q-70 -76 -154.5 -115.5t-197.5 -50.5v-201h-158v201q-108 13 -194 58
t-146.5 116.5t-92.5 166.5t-32 208q0 118 36 214t98.5 167t147.5 115t183 59v193h158v-187q122 -9 211 -49t152 -100z" />
    <glyph glyph-name="sterling" unicode="&#xa3;" 
d="M182 0v143q46 53 83 103t63 104t40 114.5t15 135.5h-201v139h178q-12 32 -29.5 63.5t-37.5 65.5q-18 28 -31 54t-21.5 52.5t-13 56.5t-4.5 67q0 87 35.5 153.5t97.5 112t145.5 69t180.5 23.5q133 0 240 -46t202 -132l-96 -117q-77 75 -163.5 113.5t-186.5 38.5
q-75 0 -130.5 -17.5t-92.5 -46.5t-55.5 -67.5t-18.5 -81.5q0 -50 16.5 -94.5t48.5 -98.5q20 -34 40 -76t34 -92h311v-139h-296q-3 -78 -18 -143.5t-38.5 -121t-53.5 -102.5t-63 -88h779v-145h-959z" />
    <glyph glyph-name="currency" unicode="&#xa4;" horiz-adv-x="1219" 
d="M670 -23q-127 0 -228.5 49.5t-173 144t-109.5 231.5t-38 313q0 179 39 317t111.5 232.5t175 143t229.5 48.5q75 0 136 -13.5t111.5 -41.5t94 -71t84.5 -103l-119 -92q-33 48 -65 82t-68 55.5t-79 32t-99 10.5q-154 0 -248.5 -98t-128.5 -275h551v-129h-567
q-2 -23 -2.5 -46t-0.5 -48q0 -20 0.5 -40t2.5 -40h567v-129h-553q32 -186 127.5 -288.5t253.5 -102.5q56 0 101.5 12t85 35.5t74.5 58.5t71 80l102 -90q-41 -54 -85 -97.5t-96.5 -75t-115.5 -48.5t-141 -17z" />
    <glyph glyph-name="yen" unicode="&#xa5;" 
d="M715 567v-157h346v-142h-346v-268h-160v268h-346v142h346v155l-485 869h184l382 -721l384 721h180z" />
    <glyph glyph-name="brokenbar" unicode="&#xa6;" horiz-adv-x="623" 
d="M238 1638h147v-874h-147v874zM238 496h147v-875h-147v875z" />
    <glyph glyph-name="section" unicode="&#xa7;" horiz-adv-x="1286" 
d="M1174 549q0 -62 -19.5 -114.5t-54 -96t-80.5 -79.5t-100 -66q52 -41 81 -93.5t29 -124.5q0 -71 -29.5 -128.5t-82 -98t-125.5 -62.5t-160 -22q-117 0 -212.5 38.5t-182.5 109.5l94 114q77 -66 150.5 -92.5t174.5 -26.5q96 0 155.5 43.5t59.5 112.5q0 34 -13.5 64
t-46.5 56t-89.5 49t-142.5 44q-135 34 -224.5 71t-143.5 83.5t-76.5 105t-22.5 135.5q0 62 19.5 114.5t53.5 96.5t80.5 80t100.5 66q-53 40 -82 93t-29 124t29.5 128.5t82 98t125.5 62.5t160 22q117 0 212.5 -38.5t183.5 -108.5l-95 -115q-71 61 -143.5 90t-181.5 29
q-47 0 -86.5 -11t-68 -31.5t-44.5 -49.5t-16 -64t13.5 -64.5t47 -55.5t90 -49t142.5 -44q134 -34 224 -71t144 -83.5t76.5 -105t22.5 -135.5zM1016 537q0 43 -12 79.5t-47.5 67.5t-99 58t-165.5 53q-54 14 -102.5 28t-93.5 33q-107 -49 -166.5 -119t-59.5 -153
q0 -44 12.5 -80.5t47.5 -67.5t98.5 -58t165.5 -52q54 -14 103 -28.5t94 -33.5q106 50 165.5 119.5t59.5 153.5z" />
    <glyph glyph-name="dieresis" unicode="&#xa8;" horiz-adv-x="1024" 
d="M823 1348q0 -23 -9 -43.5t-24 -36t-35.5 -24.5t-43.5 -9t-43.5 9t-36 24.5t-24.5 36t-9 43.5t9 43.5t24.5 36.5t36 25t43.5 9t43.5 -9t35.5 -25t24 -36.5t9 -43.5zM426 1348q0 -23 -9 -43.5t-24 -36t-35.5 -24.5t-42.5 -9q-24 0 -44.5 9t-36 24.5t-24.5 36t-9 43.5
t9 43.5t24.5 36.5t36 25t44.5 9q22 0 42.5 -9t35.5 -25t24 -36.5t9 -43.5z" />
    <glyph glyph-name="copyright" unicode="&#xa9;" horiz-adv-x="1712" 
d="M1595 717q0 -165 -56.5 -301.5t-155.5 -234t-234.5 -151t-292.5 -53.5q-158 0 -293 53.5t-234 151t-155.5 234t-56.5 301.5t56.5 301t155.5 233.5t234 151t293 53.5q157 0 292.5 -53.5t234.5 -151t155.5 -233.5t56.5 -301zM1495 717q0 143 -49 261.5t-134.5 204
t-202.5 132.5t-253 47t-252.5 -47t-202.5 -132.5t-135 -204t-49 -261.5t49 -261.5t135 -204t202.5 -132.5t252.5 -47t253 47t202.5 132.5t134.5 204t49 261.5zM1049 936q-40 52 -82.5 78t-108.5 26q-51 0 -93 -23.5t-73 -66.5t-48 -102t-17 -129q0 -72 17.5 -131.5t48 -103
t73 -67.5t92.5 -24q65 0 111.5 27.5t91.5 83.5l80 -70q-51 -68 -121.5 -105.5t-163.5 -37.5q-77 0 -139.5 32.5t-107 89.5t-69 134.5t-24.5 167.5q0 92 25 170.5t70.5 135.5t109 89.5t139.5 32.5q88 0 154.5 -34t120.5 -105z" />
    <glyph glyph-name="ordfeminine" unicode="&#xaa;" horiz-adv-x="932" 
d="M639 578v90q-45 -45 -108.5 -77t-151.5 -32q-51 0 -102 14t-91 47t-65 86.5t-25 131.5q0 73 27.5 126t74 86.5t107.5 49.5t127 16q63 0 116 -12t91 -31v88q0 88 -43.5 133t-134.5 45q-66 0 -124 -16.5t-112 -48.5l-55 110q62 32 138 52t161 20q71 0 128.5 -15.5t97.5 -49
t61.5 -86.5t21.5 -129v-598h-139zM639 958q-40 20 -89.5 33t-123.5 13q-90 0 -141.5 -41.5t-51.5 -116.5q0 -89 46 -130.5t120 -41.5q82 0 142 35t98 86v163z" />
    <glyph glyph-name="guillemotleft" unicode="&#xab;" horiz-adv-x="1180" 
d="M913 0l-415 537l415 538h174l-415 -536l415 -539h-174zM477 0l-416 537l416 538h174l-415 -536l415 -539h-174z" />
    <glyph glyph-name="logicalnot" unicode="&#xac;" 
d="M1113 219h-150v416h-806v139h956v-555z" />
    <glyph glyph-name="registered" unicode="&#xae;" horiz-adv-x="1712" 
d="M1595 717q0 -165 -56.5 -301.5t-155.5 -234t-234.5 -151t-292.5 -53.5q-158 0 -293 53.5t-234 151t-155.5 234t-56.5 301.5t56.5 301t155.5 233.5t234 151t293 53.5q157 0 292.5 -53.5t234.5 -151t155.5 -233.5t56.5 -301zM1495 717q0 143 -49 261.5t-134.5 204
t-202.5 132.5t-253 47t-252.5 -47t-202.5 -132.5t-135 -204t-49 -261.5t49 -261.5t135 -204t202.5 -132.5t252.5 -47t253 47t202.5 132.5t134.5 204t49 261.5zM1184 903q0 -93 -51 -152t-138 -79l183 -350h-127l-177 342h-176v-342h-108v817h332q55 0 103 -14t83 -43
t55.5 -73.5t20.5 -105.5zM1075 903q0 69 -41 104t-119 35h-217v-276h205q88 0 130 33t42 104z" />
    <glyph glyph-name="macron" unicode="&#xaf;" horiz-adv-x="1024" 
d="M233 1266v143h558v-143h-558z" />
    <glyph glyph-name="macron" unicode="&#x2c9;" horiz-adv-x="1024" 
d="M233 1266v143h558v-143h-558z" />
    <glyph glyph-name="degree" unicode="&#xb0;" horiz-adv-x="975" 
d="M870 1065q0 -84 -28.5 -156.5t-79 -125.5t-121 -83t-154.5 -30q-83 0 -153 30t-121 83t-80 125.5t-29 156.5q0 82 29 153.5t80 124t121 83t153 30.5q84 0 154.5 -30.5t121 -83t79 -124t28.5 -153.5zM735 1065q0 57 -17.5 105.5t-50 83.5t-78.5 55t-102 20
q-55 0 -100.5 -20t-78 -55t-50.5 -83.5t-18 -105.5q0 -60 18 -109.5t50.5 -84.5t78 -54.5t100.5 -19.5q56 0 102 19.5t78.5 54.5t50 84.5t17.5 109.5z" />
    <glyph glyph-name="plusminus" unicode="&#xb1;" 
d="M710 655v-395h-150v395h-403v140h403v395h150v-395h403v-140h-403zM157 59v140h956v-140h-956z" />
    <glyph glyph-name="twosuperior" unicode="&#xb2;" horiz-adv-x="885" 
d="M135 532q4 95 26 163.5t59 121.5t88.5 95.5t115.5 86.5q52 36 86 61.5t54 48t28 44t8 49.5q0 56 -39.5 87.5t-111.5 31.5q-34 0 -62 -6t-52.5 -17t-48 -28t-48.5 -39l-86 110q34 28 66.5 49.5t67.5 36t76 22t91 7.5q62 0 115 -15.5t92 -46.5t61 -78t22 -110
q0 -51 -11.5 -89t-38 -72.5t-69.5 -69t-106 -76.5q-55 -38 -93 -67.5t-63 -56t-39 -50.5t-22 -51h451v-142h-617z" />
    <glyph glyph-name="threesuperior" unicode="&#xb3;" horiz-adv-x="829" 
d="M381 520q-85 0 -161.5 39t-137.5 105l98 98q50 -53 99 -80t106 -27q93 0 137.5 38t44.5 110q0 69 -49.5 103t-130.5 34h-80v131h84q71 0 106 35t35 94q0 58 -39 89.5t-114 31.5q-48 0 -88 -22t-82 -64l-96 96q51 53 117.5 89t150.5 36q62 0 116 -15.5t93.5 -46t62.5 -76
t23 -106.5q0 -69 -24 -115.5t-66 -78.5q26 -12 48.5 -31t39.5 -45t27 -60t10 -77q0 -67 -22.5 -120t-65.5 -89.5t-104 -56t-138 -19.5z" />
    <glyph glyph-name="acute" unicode="&#xb4;" horiz-adv-x="1024" 
d="M477 1219h-121l211 327h219z" />
    <glyph glyph-name="mu" unicode="&#xb5;" horiz-adv-x="1167" 
d="M844 0v131q-47 -68 -121 -111t-176 -43q-79 0 -135 19t-88 42v-347l-154 -86v1470h154v-629q0 -86 16 -151t50.5 -107.5t82 -59.5t105.5 -17q56 0 104.5 19.5t84.5 60t56.5 104t20.5 151.5v629h153v-1075h-153z" />
    <glyph glyph-name="paragraph" unicode="&#xb6;" horiz-adv-x="1409" 
d="M1061 -379v1673h-187v-1673h-157v914h-156q-95 0 -179 29.5t-148 87t-101 141.5t-37 192t37.5 191.5t101 140.5t148 87t178.5 30h658v-1813h-158z" />
    <glyph glyph-name="periodcentered" unicode="&#xb7;" horiz-adv-x="492" 
d="M377 752q0 -27 -10.5 -51t-28.5 -41.5t-42 -28t-50 -10.5q-27 0 -51 10.5t-41.5 28t-28 41.5t-10.5 51t10.5 51t28 43t41.5 30t51 11q26 0 50 -11t42 -30t28.5 -43t10.5 -51z" />
    <glyph glyph-name="periodcentered" unicode="&#x2219;" horiz-adv-x="492" 
d="M377 752q0 -27 -10.5 -51t-28.5 -41.5t-42 -28t-50 -10.5q-27 0 -51 10.5t-41.5 28t-28 41.5t-10.5 51t10.5 51t28 43t41.5 30t51 11q26 0 50 -11t42 -30t28.5 -43t10.5 -51z" />
    <glyph glyph-name="cedilla" unicode="&#xb8;" horiz-adv-x="1024" 
d="M457 0h92l-35 -104q22 14 49 21t64 7q21 0 45 -7.5t44.5 -24t34 -43.5t13.5 -66q0 -50 -19.5 -84t-53 -55t-77.5 -30t-93 -9q-63 0 -125.5 19t-116.5 54l39 66q85 -55 188 -55q71 0 104 23t33 65q0 31 -16.5 49t-48.5 18q-60 0 -98 -37l-74 29z" />
    <glyph glyph-name="onesuperior" unicode="&#xb9;" horiz-adv-x="705" 
d="M317 1210h-155v107q39 3 70 9t54 18.5t37.5 33.5t20.5 54h117v-910h-144v688z" />
    <glyph glyph-name="ordmasculine" unicode="&#xba;" horiz-adv-x="983" 
d="M872 1014q0 -109 -29.5 -193.5t-81.5 -142t-122 -87.5t-152 -30q-81 0 -149.5 29t-119 85.5t-79 140t-28.5 192.5t29.5 193t81.5 140.5t122.5 85.5t151.5 29t149.5 -28t119 -83.5t79 -138t28.5 -192.5zM733 1012q0 81 -17.5 141.5t-49 100.5t-76 59.5t-98.5 19.5
q-55 0 -99.5 -19.5t-76 -59.5t-49 -100.5t-17.5 -141.5q0 -82 17.5 -143.5t49 -102.5t76 -61.5t99.5 -20.5q54 0 98.5 20.5t76 61.5t49 102.5t17.5 143.5z" />
    <glyph glyph-name="guillemotright" unicode="&#xbb;" horiz-adv-x="1180" 
d="M702 0h-174l416 537l-416 538h174l416 -536zM266 0h-174l416 537l-416 538h174l416 -536z" />
    <glyph glyph-name="onequarter" unicode="&#xbc;" horiz-adv-x="1905" 
d="M352 1210h-155v107q39 3 70 9t54 18.5t37.5 33.5t20.5 54h117v-910h-144v688zM507 0h-167l976 1434h168zM1443 205h-459v112l459 594h137v-573h119v-133h-119v-203h-137v203zM1443 338v358l-279 -358h279z" />
    <glyph glyph-name="onehalf" unicode="&#xbd;" horiz-adv-x="1905" 
d="M346 1210h-155v107q39 3 70 9t54 18.5t37.5 33.5t20.5 54h117v-910h-144v688zM446 0h-167l976 1434h168zM1097 1q4 95 26 163.5t59 121.5t88.5 95.5t115.5 86.5q52 36 86 61.5t54 48t28 44t8 49.5q0 56 -39.5 87.5t-111.5 31.5q-34 0 -62 -6t-52.5 -17t-48 -28t-48.5 -39
l-86 110q34 28 66.5 49.5t67.5 36t76 22t91 7.5q62 0 115 -15.5t92 -46.5t61 -78t22 -110q0 -51 -11.5 -89t-38 -72.5t-69.5 -69t-106 -76.5q-55 -38 -93 -67.5t-63 -56t-39 -50.5t-22 -51h451v-142h-617z" />
    <glyph glyph-name="threequarters" unicode="&#xbe;" horiz-adv-x="1905" 
d="M444 520q-85 0 -161.5 39t-137.5 105l98 98q50 -53 99 -80t106 -27q93 0 137.5 38t44.5 110q0 69 -49.5 103t-130.5 34h-80v131h84q71 0 106 35t35 94q0 58 -39 89.5t-114 31.5q-48 0 -88 -22t-82 -64l-96 96q51 53 117.5 89t150.5 36q62 0 116 -15.5t93.5 -46t62.5 -76
t23 -106.5q0 -69 -24 -115.5t-66 -78.5q26 -12 48.5 -31t39.5 -45t27 -60t10 -77q0 -67 -22.5 -120t-65.5 -89.5t-104 -56t-138 -19.5zM625 0h-167l976 1434h168zM1503 205h-459v112l459 594h137v-573h119v-133h-119v-203h-137v203zM1503 338v358l-279 -358h279z" />
    <glyph glyph-name="questiondown" unicode="&#xbf;" horiz-adv-x="1149" 
d="M754 1331q0 -25 -10 -48.5t-27.5 -41.5t-40 -28.5t-47.5 -10.5t-47.5 10.5t-40 28.5t-27.5 41.5t-10 48.5t10 48t27.5 40t40 27t47.5 10t47.5 -10t40 -27t27.5 -40t10 -48zM1059 168q-41 -40 -92 -75t-111 -60.5t-129.5 -40.5t-146.5 -15q-98 0 -179.5 22t-140 66.5
t-91 110.5t-32.5 154q0 74 17 127.5t50 95t80 76t107 71.5q51 31 82 59.5t47.5 66t21.5 90t5 133.5h158q0 -69 -3 -121t-12 -93t-25.5 -73.5t-43.5 -62t-65.5 -58t-92.5 -61.5q-40 -25 -71 -48.5t-52 -51t-32 -61t-11 -77.5q0 -96 79 -157.5t210 -61.5q57 0 107 11t95 31
t86.5 49.5t81.5 66.5z" />
    <glyph glyph-name="Agrave" unicode="&#xc0;" horiz-adv-x="1389" 
d="M1280 0h-168l-123 365h-592l-125 -365h-163l497 1434h176zM940 510l-246 733l-248 -733h494zM637 1526l-309 327h219l211 -327h-121z" />
    <glyph glyph-name="Aacute" unicode="&#xc1;" horiz-adv-x="1389" 
d="M1280 0h-168l-123 365h-592l-125 -365h-163l497 1434h176zM940 510l-246 733l-248 -733h494zM749 1526h-121l211 327h219z" />
    <glyph glyph-name="Acircumflex" unicode="&#xc2;" horiz-adv-x="1389" 
d="M1280 0h-168l-123 365h-592l-125 -365h-163l497 1434h176zM940 510l-246 733l-248 -733h494zM899 1485l-207 211l-207 -211h-129l252 327h172l252 -327h-133z" />
    <glyph glyph-name="Atilde" unicode="&#xc3;" horiz-adv-x="1389" 
d="M1280 0h-168l-123 365h-592l-125 -365h-163l497 1434h176zM940 510l-246 733l-248 -733h494zM1059 1798q0 -68 -17 -118t-46 -83t-67 -49t-79 -16t-77.5 12t-74 40.5t-56 42.5t-28.5 20q-22 15 -39.5 21.5t-38.5 6.5q-33 0 -52 -32t-28 -105h-127q0 68 17 118t46 83
t67 49t79 16t77.5 -12t74 -40.5t56 -42.5t28.5 -20q22 -15 39.5 -21.5t38.5 -6.5q32 0 51 32.5t29 104.5h127z" />
    <glyph glyph-name="Adieresis" unicode="&#xc4;" horiz-adv-x="1389" 
d="M1280 0h-168l-123 365h-592l-125 -365h-163l497 1434h176zM940 510l-246 733l-248 -733h494zM1007 1655q0 -23 -9 -43.5t-24 -36t-35.5 -24.5t-43.5 -9t-43.5 9t-36 24.5t-24.5 36t-9 43.5t9 43.5t24.5 36.5t36 25t43.5 9t43.5 -9t35.5 -25t24 -36.5t9 -43.5zM610 1655
q0 -23 -9 -43.5t-24 -36t-35.5 -24.5t-42.5 -9q-24 0 -44.5 9t-36 24.5t-24.5 36t-9 43.5t9 43.5t24.5 36.5t36 25t44.5 9q22 0 42.5 -9t35.5 -25t24 -36.5t9 -43.5z" />
    <glyph glyph-name="Aring" unicode="&#xc5;" horiz-adv-x="1389" 
d="M1112 0l-123 365h-592l-125 -365h-163l471 1348q-59 31 -93 87t-34 128q0 50 18 93t49.5 75t75.5 50.5t96 18.5t96 -18.5t76 -50.5t50 -75t18 -93q0 -70 -34 -126t-91 -87l473 -1350h-168zM836 1563q0 32 -10 59.5t-29 47t-45.5 30.5t-59.5 11t-59.5 -11t-45 -30.5
t-28.5 -47t-10 -59.5t10 -59.5t28.5 -47t45 -30.5t59.5 -11t59.5 11t45.5 30.5t29 47t10 59.5zM940 510l-246 733l-248 -733h494z" />
    <glyph glyph-name="AE" unicode="&#xc6;" horiz-adv-x="2044" 
d="M1896 1434v-146h-714v-450h575v-146h-575v-547h745v-145h-897v365h-559l-240 -365h-182l963 1434h884zM565 510h465v706z" />
    <glyph glyph-name="Ccedilla" unicode="&#xc7;" horiz-adv-x="1286" 
d="M1042 1130q-35 47 -69.5 81t-73.5 56.5t-85.5 33t-104.5 10.5q-92 0 -169.5 -43.5t-133.5 -122t-87.5 -187.5t-31.5 -239q0 -131 32 -240.5t89 -188.5t134.5 -123t168.5 -44q116 0 200.5 49.5t153.5 138.5l111 -96q-39 -53 -88 -96.5t-107.5 -75t-127 -49t-146.5 -17.5
q-88 0 -165 25.5t-141.5 72.5t-115 113.5t-86 148.5t-54 177.5t-18.5 200.5q0 160 43 295.5t120.5 234.5t185 155t237.5 56q148 0 259.5 -56t196.5 -173zM642 0h92l-35 -104q22 14 49 21t64 7q21 0 45 -7.5t44.5 -24t34 -43.5t13.5 -66q0 -50 -19.5 -84t-53 -55t-77.5 -30
t-93 -9q-63 0 -125.5 19t-116.5 54l39 66q85 -55 188 -55q71 0 104 23t33 65q0 31 -16.5 49t-48.5 18q-60 0 -98 -37l-74 29z" />
    <glyph glyph-name="Egrave" unicode="&#xc8;" horiz-adv-x="1202" 
d="M1085 0h-897v1434h867v-146h-707v-450h572v-146h-572v-547h737v-145zM610 1526l-309 327h219l211 -327h-121z" />
    <glyph glyph-name="Eacute" unicode="&#xc9;" horiz-adv-x="1202" 
d="M1085 0h-897v1434h867v-146h-707v-450h572v-146h-572v-547h737v-145zM643 1526h-121l211 327h219z" />
    <glyph glyph-name="Ecircumflex" unicode="&#xca;" horiz-adv-x="1202" 
d="M1085 0h-897v1434h867v-146h-707v-450h572v-146h-572v-547h737v-145zM826 1526l-207 211l-207 -211h-129l252 327h172l252 -327h-133z" />
    <glyph glyph-name="Edieresis" unicode="&#xcb;" horiz-adv-x="1202" 
d="M1085 0h-897v1434h867v-146h-707v-450h572v-146h-572v-547h737v-145zM934 1655q0 -23 -9 -43.5t-24 -36t-35.5 -24.5t-43.5 -9t-43.5 9t-36 24.5t-24.5 36t-9 43.5t9 43.5t24.5 36.5t36 25t43.5 9t43.5 -9t35.5 -25t24 -36.5t9 -43.5zM537 1655q0 -23 -9 -43.5t-24 -36
t-35.5 -24.5t-42.5 -9q-24 0 -44.5 9t-36 24.5t-24.5 36t-9 43.5t9 43.5t24.5 36.5t36 25t44.5 9q22 0 42.5 -9t35.5 -25t24 -36.5t9 -43.5z" />
    <glyph glyph-name="Igrave" unicode="&#xcc;" horiz-adv-x="557" 
d="M199 0v1434h159v-1434h-159zM234 1526l-309 327h219l211 -327h-121z" />
    <glyph glyph-name="Iacute" unicode="&#xcd;" horiz-adv-x="557" 
d="M199 0v1434h159v-1434h-159zM329 1526h-121l211 327h219z" />
    <glyph glyph-name="Icircumflex" unicode="&#xce;" horiz-adv-x="557" 
d="M199 0v1434h159v-1434h-159zM479 1516l-207 211l-207 -211h-129l252 327h172l252 -327h-133z" />
    <glyph glyph-name="Idieresis" unicode="&#xcf;" horiz-adv-x="557" 
d="M199 0v1434h159v-1434h-159zM589 1663q0 -23 -9 -43.5t-24 -36t-35.5 -24.5t-43.5 -9t-43.5 9t-36 24.5t-24.5 36t-9 43.5t9 43.5t24.5 36.5t36 25t43.5 9t43.5 -9t35.5 -25t24 -36.5t9 -43.5zM192 1663q0 -23 -9 -43.5t-24 -36t-35.5 -24.5t-42.5 -9q-24 0 -44.5 9
t-36 24.5t-24.5 36t-9 43.5t9 43.5t24.5 36.5t36 25t44.5 9q22 0 42.5 -9t35.5 -25t24 -36.5t9 -43.5z" />
    <glyph glyph-name="Eth" unicode="&#xd0;" horiz-adv-x="1397" 
d="M1241 727q0 -195 -52.5 -333t-144.5 -225.5t-216.5 -128t-268.5 -40.5h-350v678h-127v143h127v613h379q141 0 261 -41.5t207 -127.5t136 -220t49 -318zM1081 721q0 137 -32.5 243t-96.5 178t-158.5 109t-218.5 37h-210v-467h290v-143h-290v-533h215q116 0 208.5 32
t157.5 101.5t100 178.5t35 264z" />
    <glyph glyph-name="Ntilde" unicode="&#xd1;" horiz-adv-x="1409" 
d="M1221 0h-150l-729 1141v-1141h-154v1434h156l723 -1164v1164h154v-1434zM1080 1806q0 -68 -17 -118t-46 -83t-67 -49t-79 -16t-77.5 12t-74 40.5t-56 42.5t-28.5 20q-22 15 -39.5 21.5t-38.5 6.5q-33 0 -52 -32t-28 -105h-127q0 68 17 118t46 83t67 49t79 16t77.5 -12
t74 -40.5t56 -42.5t28.5 -20q22 -15 39.5 -21.5t38.5 -6.5q32 0 51 32.5t29 104.5h127z" />
    <glyph glyph-name="Ograve" unicode="&#xd2;" horiz-adv-x="1444" 
d="M1317 719q0 -162 -43.5 -298t-122 -235t-189 -154t-243.5 -55q-134 0 -243 54.5t-186.5 152.5t-120 233.5t-42.5 297.5t43 298t121.5 234.5t188 153.5t243.5 55q133 0 242.5 -54.5t187.5 -152t121 -233t43 -297.5zM1157 715q0 135 -33.5 245t-92.5 188t-139.5 120.5
t-174.5 42.5q-93 0 -172 -42t-136 -119t-89.5 -186.5t-32.5 -244.5t33.5 -245t92 -188t138.5 -120.5t174 -42.5q93 0 172 41.5t137 119t90.5 187t32.5 244.5zM682 1526l-309 327h219l211 -327h-121z" />
    <glyph glyph-name="Oacute" unicode="&#xd3;" horiz-adv-x="1444" 
d="M1317 719q0 -162 -43.5 -298t-122 -235t-189 -154t-243.5 -55q-134 0 -243 54.5t-186.5 152.5t-120 233.5t-42.5 297.5t43 298t121.5 234.5t188 153.5t243.5 55q133 0 242.5 -54.5t187.5 -152t121 -233t43 -297.5zM1157 715q0 135 -33.5 245t-92.5 188t-139.5 120.5
t-174.5 42.5q-93 0 -172 -42t-136 -119t-89.5 -186.5t-32.5 -244.5t33.5 -245t92 -188t138.5 -120.5t174 -42.5q93 0 172 41.5t137 119t90.5 187t32.5 244.5zM756 1526h-121l211 327h219z" />
    <glyph glyph-name="Ocircumflex" unicode="&#xd4;" horiz-adv-x="1444" 
d="M1317 719q0 -162 -43.5 -298t-122 -235t-189 -154t-243.5 -55q-134 0 -243 54.5t-186.5 152.5t-120 233.5t-42.5 297.5t43 298t121.5 234.5t188 153.5t243.5 55q133 0 242.5 -54.5t187.5 -152t121 -233t43 -297.5zM1157 715q0 135 -33.5 245t-92.5 188t-139.5 120.5
t-174.5 42.5q-93 0 -172 -42t-136 -119t-89.5 -186.5t-32.5 -244.5t33.5 -245t92 -188t138.5 -120.5t174 -42.5q93 0 172 41.5t137 119t90.5 187t32.5 244.5zM924 1516l-207 211l-207 -211h-129l252 327h172l252 -327h-133z" />
    <glyph glyph-name="Otilde" unicode="&#xd5;" horiz-adv-x="1444" 
d="M1317 719q0 -162 -43.5 -298t-122 -235t-189 -154t-243.5 -55q-134 0 -243 54.5t-186.5 152.5t-120 233.5t-42.5 297.5t43 298t121.5 234.5t188 153.5t243.5 55q133 0 242.5 -54.5t187.5 -152t121 -233t43 -297.5zM1157 715q0 135 -33.5 245t-92.5 188t-139.5 120.5
t-174.5 42.5q-93 0 -172 -42t-136 -119t-89.5 -186.5t-32.5 -244.5t33.5 -245t92 -188t138.5 -120.5t174 -42.5q93 0 172 41.5t137 119t90.5 187t32.5 244.5zM1084 1798q0 -68 -17 -118t-46 -83t-67 -49t-79 -16t-77.5 12t-74 40.5t-56 42.5t-28.5 20q-22 15 -39.5 21.5
t-38.5 6.5q-33 0 -52 -32t-28 -105h-127q0 68 17 118t46 83t67 49t79 16t77.5 -12t74 -40.5t56 -42.5t28.5 -20q22 -15 39.5 -21.5t38.5 -6.5q32 0 51 32.5t29 104.5h127z" />
    <glyph glyph-name="Odieresis" unicode="&#xd6;" horiz-adv-x="1444" 
d="M1317 719q0 -162 -43.5 -298t-122 -235t-189 -154t-243.5 -55q-134 0 -243 54.5t-186.5 152.5t-120 233.5t-42.5 297.5t43 298t121.5 234.5t188 153.5t243.5 55q133 0 242.5 -54.5t187.5 -152t121 -233t43 -297.5zM1157 715q0 135 -33.5 245t-92.5 188t-139.5 120.5
t-174.5 42.5q-93 0 -172 -42t-136 -119t-89.5 -186.5t-32.5 -244.5t33.5 -245t92 -188t138.5 -120.5t174 -42.5q93 0 172 41.5t137 119t90.5 187t32.5 244.5zM1032 1655q0 -23 -9 -43.5t-24 -36t-35.5 -24.5t-43.5 -9t-43.5 9t-36 24.5t-24.5 36t-9 43.5t9 43.5t24.5 36.5
t36 25t43.5 9t43.5 -9t35.5 -25t24 -36.5t9 -43.5zM635 1655q0 -23 -9 -43.5t-24 -36t-35.5 -24.5t-42.5 -9q-24 0 -44.5 9t-36 24.5t-24.5 36t-9 43.5t9 43.5t24.5 36.5t36 25t44.5 9q22 0 42.5 -9t35.5 -25t24 -36.5t9 -43.5z" />
    <glyph glyph-name="multiply" unicode="&#xd7;" 
d="M1018 225l-383 387l-383 -387l-96 97l387 383l-387 382l96 97l383 -387l383 387l96 -97l-387 -382l387 -383z" />
    <glyph glyph-name="Oslash" unicode="&#xd8;" horiz-adv-x="1444" 
d="M1317 719q0 -162 -43.5 -298t-122 -235t-189 -154t-243.5 -55q-134 0 -254 60l-64 -139h-141l98 213q-111 99 -171 253.5t-60 350.5q0 162 43 298t121.5 234.5t188 153.5t243.5 55q122 0 227 -47l58 127h141l-88 -195q60 -47 107.5 -111t80.5 -143.5t50.5 -172
t17.5 -195.5zM889 1276q-80 41 -172 41q-94 0 -173.5 -42.5t-138 -120.5t-91.5 -188.5t-33 -246.5q0 -147 38.5 -263.5t106.5 -195.5zM1163 715q0 159 -45 282t-123 201l-469 -1026q89 -55 199 -55q94 0 174 42t138.5 120t92 188.5t33.5 247.5z" />
    <glyph glyph-name="Ugrave" unicode="&#xd9;" horiz-adv-x="1389" 
d="M1210 582q0 -165 -38.5 -281.5t-105.5 -186.5t-158 -103.5t-212 -33.5t-213 33.5t-160 103.5t-106.5 186.5t-38.5 281.5v852h160v-848q0 -234 90 -348.5t277 -114.5q183 0 264.5 111.5t81.5 347.5v852h159v-852zM656 1495l-309 327h219l211 -327h-121z" />
    <glyph glyph-name="Uacute" unicode="&#xda;" horiz-adv-x="1389" 
d="M1210 582q0 -165 -38.5 -281.5t-105.5 -186.5t-158 -103.5t-212 -33.5t-213 33.5t-160 103.5t-106.5 186.5t-38.5 281.5v852h160v-848q0 -234 90 -348.5t277 -114.5q183 0 264.5 111.5t81.5 347.5v852h159v-852zM729 1495h-121l211 327h219z" />
    <glyph glyph-name="Ucircumflex" unicode="&#xdb;" horiz-adv-x="1389" 
d="M1210 582q0 -165 -38.5 -281.5t-105.5 -186.5t-158 -103.5t-212 -33.5t-213 33.5t-160 103.5t-106.5 186.5t-38.5 281.5v852h160v-848q0 -234 90 -348.5t277 -114.5q183 0 264.5 111.5t81.5 347.5v852h159v-852zM899 1526l-207 211l-207 -211h-129l252 327h172l252 -327
h-133z" />
    <glyph glyph-name="Udieresis" unicode="&#xdc;" horiz-adv-x="1389" 
d="M1210 582q0 -165 -38.5 -281.5t-105.5 -186.5t-158 -103.5t-212 -33.5t-213 33.5t-160 103.5t-106.5 186.5t-38.5 281.5v852h160v-848q0 -234 90 -348.5t277 -114.5q183 0 264.5 111.5t81.5 347.5v852h159v-852zM1005 1655q0 -23 -9 -43.5t-24 -36t-35.5 -24.5t-43.5 -9
t-43.5 9t-36 24.5t-24.5 36t-9 43.5t9 43.5t24.5 36.5t36 25t43.5 9t43.5 -9t35.5 -25t24 -36.5t9 -43.5zM608 1655q0 -23 -9 -43.5t-24 -36t-35.5 -24.5t-42.5 -9q-24 0 -44.5 9t-36 24.5t-24.5 36t-9 43.5t9 43.5t24.5 36.5t36 25t44.5 9q22 0 42.5 -9t35.5 -25t24 -36.5
t9 -43.5z" />
    <glyph glyph-name="Yacute" unicode="&#xdd;" horiz-adv-x="1335" 
d="M1239 1434l-491 -865v-569h-160v567l-492 867h183l390 -703l392 703h178zM633 1526h-121l211 327h219z" />
    <glyph glyph-name="Thorn" unicode="&#xde;" horiz-adv-x="1266" 
d="M1182 748q0 -107 -35.5 -189.5t-100 -139t-153.5 -85.5t-197 -29h-348v-305h-160v1434h160v-258h377q97 0 181 -26t145 -79t96 -133.5t35 -189.5zM1022 741q0 140 -77.5 214.5t-225.5 74.5h-371v-579h350q166 0 245 73.5t79 216.5z" />
    <glyph glyph-name="germandbls" unicode="&#xdf;" horiz-adv-x="1171" 
d="M1059 463q0 -128 -42 -216t-114.5 -143t-169 -79.5t-205.5 -24.5h-30v135h37q88 0 157 18t116 56.5t72 97.5t25 142q0 80 -30 136.5t-81 92.5t-117 53t-138 17h-41v133h47q118 0 184 60t66 181q0 107 -66 169.5t-172 62.5q-104 0 -168.5 -72t-64.5 -199v-1392l-154 -86
v1452q0 104 28 184.5t79.5 135t123.5 82.5t160 28t160 -28t122 -76.5t77.5 -115t27.5 -143.5q0 -105 -45.5 -178.5t-140.5 -118.5q54 -13 107 -39t95 -69.5t68.5 -106.5t26.5 -149z" />
    <glyph glyph-name="agrave" unicode="&#xe0;" horiz-adv-x="1104" 
d="M786 0v131q-28 -31 -62.5 -59t-76 -49t-90.5 -33.5t-106 -12.5q-63 0 -125 17t-110.5 57.5t-79 106.5t-30.5 164q0 90 34.5 155t91.5 107t131.5 62t154.5 20q82 0 151 -18t117 -44v127q0 121 -57 179.5t-176 58.5q-85 0 -156 -22t-137 -60l-57 125q71 38 163 62t197 24
q87 0 157 -19.5t118.5 -61.5t75 -108t26.5 -159v-750h-154zM786 481q-26 15 -54 26.5t-61 19.5t-72.5 12t-88.5 4q-119 0 -185.5 -54.5t-66.5 -156.5q0 -60 16 -103.5t44.5 -71.5t69 -41.5t89.5 -13.5q52 0 97.5 12.5t84.5 34.5t71 51.5t56 63.5v217zM535 1219l-309 327h219
l211 -327h-121z" />
    <glyph glyph-name="aacute" unicode="&#xe1;" horiz-adv-x="1104" 
d="M786 0v131q-28 -31 -62.5 -59t-76 -49t-90.5 -33.5t-106 -12.5q-63 0 -125 17t-110.5 57.5t-79 106.5t-30.5 164q0 90 34.5 155t91.5 107t131.5 62t154.5 20q82 0 151 -18t117 -44v127q0 121 -57 179.5t-176 58.5q-85 0 -156 -22t-137 -60l-57 125q71 38 163 62t197 24
q87 0 157 -19.5t118.5 -61.5t75 -108t26.5 -159v-750h-154zM786 481q-26 15 -54 26.5t-61 19.5t-72.5 12t-88.5 4q-119 0 -185.5 -54.5t-66.5 -156.5q0 -60 16 -103.5t44.5 -71.5t69 -41.5t89.5 -13.5q52 0 97.5 12.5t84.5 34.5t71 51.5t56 63.5v217zM586 1219h-121l211 327
h219z" />
    <glyph glyph-name="acircumflex" unicode="&#xe2;" horiz-adv-x="1104" 
d="M786 0v131q-28 -31 -62.5 -59t-76 -49t-90.5 -33.5t-106 -12.5q-63 0 -125 17t-110.5 57.5t-79 106.5t-30.5 164q0 90 34.5 155t91.5 107t131.5 62t154.5 20q82 0 151 -18t117 -44v127q0 121 -57 179.5t-176 58.5q-85 0 -156 -22t-137 -60l-57 125q71 38 163 62t197 24
q87 0 157 -19.5t118.5 -61.5t75 -108t26.5 -159v-750h-154zM786 481q-26 15 -54 26.5t-61 19.5t-72.5 12t-88.5 4q-119 0 -185.5 -54.5t-66.5 -156.5q0 -60 16 -103.5t44.5 -71.5t69 -41.5t89.5 -13.5q52 0 97.5 12.5t84.5 34.5t71 51.5t56 63.5v217zM760 1211l-207 211
l-207 -211h-129l252 327h172l252 -327h-133z" />
    <glyph glyph-name="atilde" unicode="&#xe3;" horiz-adv-x="1104" 
d="M786 0v131q-28 -31 -62.5 -59t-76 -49t-90.5 -33.5t-106 -12.5q-63 0 -125 17t-110.5 57.5t-79 106.5t-30.5 164q0 90 34.5 155t91.5 107t131.5 62t154.5 20q82 0 151 -18t117 -44v127q0 121 -57 179.5t-176 58.5q-85 0 -156 -22t-137 -60l-57 125q71 38 163 62t197 24
q87 0 157 -19.5t118.5 -61.5t75 -108t26.5 -159v-750h-154zM786 481q-26 15 -54 26.5t-61 19.5t-72.5 12t-88.5 4q-119 0 -185.5 -54.5t-66.5 -156.5q0 -60 16 -103.5t44.5 -71.5t69 -41.5t89.5 -13.5q52 0 97.5 12.5t84.5 34.5t71 51.5t56 63.5v217zM918 1491
q0 -68 -17 -118t-46 -83t-67 -49t-79 -16t-77.5 12t-74 40.5t-56 42.5t-28.5 20q-22 15 -39.5 21.5t-38.5 6.5q-33 0 -52 -32t-28 -105h-127q0 68 17 118t46 83t67 49t79 16t77.5 -12t74 -40.5t56 -42.5t28.5 -20q22 -15 39.5 -21.5t38.5 -6.5q32 0 51 32.5t29 104.5h127z
" />
    <glyph glyph-name="adieresis" unicode="&#xe4;" horiz-adv-x="1104" 
d="M786 0v131q-28 -31 -62.5 -59t-76 -49t-90.5 -33.5t-106 -12.5q-63 0 -125 17t-110.5 57.5t-79 106.5t-30.5 164q0 90 34.5 155t91.5 107t131.5 62t154.5 20q82 0 151 -18t117 -44v127q0 121 -57 179.5t-176 58.5q-85 0 -156 -22t-137 -60l-57 125q71 38 163 62t197 24
q87 0 157 -19.5t118.5 -61.5t75 -108t26.5 -159v-750h-154zM786 481q-26 15 -54 26.5t-61 19.5t-72.5 12t-88.5 4q-119 0 -185.5 -54.5t-66.5 -156.5q0 -60 16 -103.5t44.5 -71.5t69 -41.5t89.5 -13.5q52 0 97.5 12.5t84.5 34.5t71 51.5t56 63.5v217zM864 1340
q0 -23 -9 -43.5t-24 -36t-35.5 -24.5t-43.5 -9t-43.5 9t-36 24.5t-24.5 36t-9 43.5t9 43.5t24.5 36.5t36 25t43.5 9t43.5 -9t35.5 -25t24 -36.5t9 -43.5zM467 1340q0 -23 -9 -43.5t-24 -36t-35.5 -24.5t-42.5 -9q-24 0 -44.5 9t-36 24.5t-24.5 36t-9 43.5t9 43.5t24.5 36.5
t36 25t44.5 9q22 0 42.5 -9t35.5 -25t24 -36.5t9 -43.5z" />
    <glyph glyph-name="aring" unicode="&#xe5;" horiz-adv-x="1104" 
d="M786 0v131q-28 -31 -62.5 -59t-76 -49t-90.5 -33.5t-106 -12.5q-63 0 -125 17t-110.5 57.5t-79 106.5t-30.5 164q0 90 34.5 155t91.5 107t131.5 62t154.5 20q82 0 151 -18t117 -44v127q0 121 -57 179.5t-176 58.5q-85 0 -156 -22t-137 -60l-57 125q71 38 163 62t197 24
q87 0 157 -19.5t118.5 -61.5t75 -108t26.5 -159v-750h-154zM786 481q-26 15 -54 26.5t-61 19.5t-72.5 12t-88.5 4q-119 0 -185.5 -54.5t-66.5 -156.5q0 -60 16 -103.5t44.5 -71.5t69 -41.5t89.5 -13.5q52 0 97.5 12.5t84.5 34.5t71 51.5t56 63.5v217zM795 1466
q0 -50 -18 -93.5t-50 -76t-76 -51t-96 -18.5t-96 18.5t-76 51t-50 76t-18 93.5t18 93.5t50 75.5t76 50.5t96 18.5t96 -18.5t76 -50.5t50 -75.5t18 -93.5zM698 1466q0 31 -10 58t-28.5 46.5t-45 30.5t-59.5 11t-59.5 -11t-45 -30.5t-28.5 -46.5t-10 -58q0 -32 10 -59
t28.5 -46.5t45 -30.5t59.5 -11t59.5 11t45 30.5t28.5 46.5t10 59z" />
    <glyph glyph-name="ae" unicode="&#xe6;" horiz-adv-x="1716" 
d="M1599 569q0 -28 -1.5 -46.5t-4.5 -37.5h-688q6 -86 26.5 -155t56 -118t86 -75t116.5 -26q47 0 83 6.5t68 19.5t63.5 32t68.5 44l71 -111q-48 -31 -89.5 -54.5t-83.5 -39t-89.5 -23.5t-107.5 -8q-94 0 -181.5 44t-150.5 143q-90 -104 -183 -145.5t-223 -41.5
q-63 0 -122.5 17t-105.5 57.5t-74 106.5t-28 164q0 90 32 155t87 107t127 62t152 20q81 0 143.5 -18t110.5 -44v127q0 121 -50.5 179.5t-168.5 58.5q-88 0 -156.5 -24.5t-122.5 -57.5l-57 125q71 38 156 62t190 24q143 0 219 -52t94 -143q48 93 128 144t192 51
q105 0 183.5 -39.5t130 -109.5t77.5 -167.5t26 -212.5zM1456 610q-5 78 -22 143.5t-50 112.5t-83.5 73t-120.5 26q-67 0 -116.5 -26t-82.5 -73t-51.5 -112.5t-24.5 -143.5h551zM754 483q-26 14 -51 25t-55 19t-67 12t-85 4q-119 0 -178.5 -54.5t-59.5 -156.5
q0 -120 53.5 -175t151.5 -55q37 0 77.5 9t82 30.5t83 56.5t80.5 87q-14 43 -21.5 92t-10.5 106z" />
    <glyph glyph-name="ccedilla" unicode="&#xe7;" horiz-adv-x="1014" 
d="M911 127q-34 -35 -71 -62.5t-79 -47t-90.5 -30t-105.5 -10.5q-88 0 -169.5 34t-144.5 103t-100.5 173.5t-37.5 244.5q0 149 40.5 256t106 176t148.5 101.5t167 32.5q110 0 193.5 -36t146.5 -91l-92 -115q-29 26 -58 46.5t-59.5 34.5t-65 21t-75.5 7q-63 0 -117.5 -28
t-94 -81.5t-62.5 -132t-23 -178.5q0 -99 20.5 -179t59.5 -137t95.5 -87.5t127.5 -30.5q39 0 72.5 8t63 22.5t57 35.5t55.5 48zM483 0h92l-35 -104q22 14 49 21t64 7q21 0 45 -7.5t44.5 -24t34 -43.5t13.5 -66q0 -50 -19.5 -84t-53 -55t-77.5 -30t-93 -9q-63 0 -125.5 19
t-116.5 54l39 66q85 -55 188 -55q71 0 104 23t33 65q0 31 -16.5 49t-48.5 18q-60 0 -98 -37l-74 29z" />
    <glyph glyph-name="egrave" unicode="&#xe8;" horiz-adv-x="1106" 
d="M989 569q0 -28 -1.5 -46.5t-4.5 -37.5h-717q6 -86 28.5 -155t60.5 -118t91 -75t119 -26q47 0 85.5 6.5t73 19.5t68 32t70.5 44l72 -111q-48 -31 -91.5 -54.5t-88.5 -39t-94.5 -23.5t-110.5 -8q-49 0 -100.5 12.5t-100 40.5t-91.5 72t-75 107t-50.5 146t-18.5 188
q0 128 33.5 231t92.5 175t140.5 110.5t177.5 38.5q105 0 186 -39.5t135.5 -109.5t82.5 -167.5t28 -212.5zM846 610q-5 78 -24.5 143.5t-55 112.5t-88.5 73t-123 26q-60 0 -110 -21.5t-87.5 -66t-61 -111t-30.5 -156.5h580zM535 1219l-309 327h219l211 -327h-121z" />
    <glyph glyph-name="eacute" unicode="&#xe9;" horiz-adv-x="1106" 
d="M989 569q0 -28 -1.5 -46.5t-4.5 -37.5h-717q6 -86 28.5 -155t60.5 -118t91 -75t119 -26q47 0 85.5 6.5t73 19.5t68 32t70.5 44l72 -111q-48 -31 -91.5 -54.5t-88.5 -39t-94.5 -23.5t-110.5 -8q-49 0 -100.5 12.5t-100 40.5t-91.5 72t-75 107t-50.5 146t-18.5 188
q0 128 33.5 231t92.5 175t140.5 110.5t177.5 38.5q105 0 186 -39.5t135.5 -109.5t82.5 -167.5t28 -212.5zM846 610q-5 78 -24.5 143.5t-55 112.5t-88.5 73t-123 26q-60 0 -110 -21.5t-87.5 -66t-61 -111t-30.5 -156.5h580zM586 1219h-121l211 327h219z" />
    <glyph glyph-name="ecircumflex" unicode="&#xea;" horiz-adv-x="1106" 
d="M989 569q0 -28 -1.5 -46.5t-4.5 -37.5h-717q6 -86 28.5 -155t60.5 -118t91 -75t119 -26q47 0 85.5 6.5t73 19.5t68 32t70.5 44l72 -111q-48 -31 -91.5 -54.5t-88.5 -39t-94.5 -23.5t-110.5 -8q-49 0 -100.5 12.5t-100 40.5t-91.5 72t-75 107t-50.5 146t-18.5 188
q0 128 33.5 231t92.5 175t140.5 110.5t177.5 38.5q105 0 186 -39.5t135.5 -109.5t82.5 -167.5t28 -212.5zM846 610q-5 78 -24.5 143.5t-55 112.5t-88.5 73t-123 26q-60 0 -110 -21.5t-87.5 -66t-61 -111t-30.5 -156.5h580zM760 1201l-207 211l-207 -211h-129l252 327h172
l252 -327h-133z" />
    <glyph glyph-name="edieresis" unicode="&#xeb;" horiz-adv-x="1106" 
d="M989 569q0 -28 -1.5 -46.5t-4.5 -37.5h-717q6 -86 28.5 -155t60.5 -118t91 -75t119 -26q47 0 85.5 6.5t73 19.5t68 32t70.5 44l72 -111q-48 -31 -91.5 -54.5t-88.5 -39t-94.5 -23.5t-110.5 -8q-49 0 -100.5 12.5t-100 40.5t-91.5 72t-75 107t-50.5 146t-18.5 188
q0 128 33.5 231t92.5 175t140.5 110.5t177.5 38.5q105 0 186 -39.5t135.5 -109.5t82.5 -167.5t28 -212.5zM846 610q-5 78 -24.5 143.5t-55 112.5t-88.5 73t-123 26q-60 0 -110 -21.5t-87.5 -66t-61 -111t-30.5 -156.5h580zM866 1340q0 -23 -9 -43.5t-24 -36t-35.5 -24.5
t-43.5 -9t-43.5 9t-36 24.5t-24.5 36t-9 43.5t9 43.5t24.5 36.5t36 25t43.5 9t43.5 -9t35.5 -25t24 -36.5t9 -43.5zM469 1340q0 -23 -9 -43.5t-24 -36t-35.5 -24.5t-42.5 -9q-24 0 -44.5 9t-36 24.5t-24.5 36t-9 43.5t9 43.5t24.5 36.5t36 25t44.5 9q22 0 42.5 -9t35.5 -25
t24 -36.5t9 -43.5z" />
    <glyph glyph-name="igrave" unicode="&#xec;" horiz-adv-x="514" 
d="M180 0v1075h154v-1075h-154zM205 1219l-309 327h219l211 -327h-121z" />
    <glyph glyph-name="iacute" unicode="&#xed;" horiz-adv-x="514" 
d="M180 0v1075h154v-1075h-154zM313 1219h-121l211 327h219z" />
    <glyph glyph-name="icircumflex" unicode="&#xee;" horiz-adv-x="514" 
d="M180 0v1075h154v-1075h-154zM463 1190l-207 211l-207 -211h-129l252 327h172l252 -327h-133z" />
    <glyph glyph-name="idieresis" unicode="&#xef;" horiz-adv-x="514" 
d="M180 0v1075h154v-1075h-154zM569 1330q0 -23 -9 -43.5t-24 -36t-35.5 -24.5t-43.5 -9t-43.5 9t-36 24.5t-24.5 36t-9 43.5t9 43.5t24.5 36.5t36 25t43.5 9t43.5 -9t35.5 -25t24 -36.5t9 -43.5zM172 1330q0 -23 -9 -43.5t-24 -36t-35.5 -24.5t-42.5 -9q-24 0 -44.5 9
t-36 24.5t-24.5 36t-9 43.5t9 43.5t24.5 36.5t36 25t44.5 9q22 0 42.5 -9t35.5 -25t24 -36.5t9 -43.5z" />
    <glyph glyph-name="eth" unicode="&#xf0;" horiz-adv-x="1159" 
d="M1047 610q0 -165 -32.5 -284.5t-93.5 -197t-148.5 -114.5t-197.5 -37q-93 0 -176.5 33t-147 96.5t-101 157.5t-37.5 217q0 124 36 218.5t96 158t137.5 96.5t160.5 33q116 0 206.5 -41t157.5 -141q-31 136 -86.5 235.5t-140.5 165.5l-115 -129l-104 88l98 111
q-89 36 -184 45v135q72 -5 141.5 -23.5t134.5 -52.5l70 76l104 -88l-59 -65q63 -52 115 -121t88.5 -155.5t57 -191t20.5 -225.5zM893 485q0 97 -24.5 166.5t-68 114.5t-103.5 66.5t-132 21.5q-68 0 -123 -24t-93.5 -71t-59.5 -116t-21 -158q0 -95 24 -165.5t66 -117t99 -69
t123 -22.5t123 22.5t99.5 69t66.5 117t24 165.5z" />
    <glyph glyph-name="ntilde" unicode="&#xf1;" horiz-adv-x="1165" 
d="M844 0v629q0 174 -62 255t-192 81q-56 0 -104.5 -19.5t-84.5 -60.5t-56.5 -104.5t-20.5 -151.5v-629h-154v1075h154v-131q23 34 53 62t67.5 48.5t81.5 32t95 11.5q85 0 154.5 -25.5t118.5 -79.5t76 -138t27 -200v-655h-153zM938 1491q0 -68 -17 -118t-46 -83t-67 -49
t-79 -16t-77.5 12t-74 40.5t-56 42.5t-28.5 20q-22 15 -39.5 21.5t-38.5 6.5q-33 0 -52 -32t-28 -105h-127q0 68 17 118t46 83t67 49t79 16t77.5 -12t74 -40.5t56 -42.5t28.5 -20q22 -15 39.5 -21.5t38.5 -6.5q32 0 51 32.5t29 104.5h127z" />
    <glyph glyph-name="ograve" unicode="&#xf2;" horiz-adv-x="1159" 
d="M1047 545q0 -137 -37 -243t-100.5 -178t-149.5 -109.5t-185 -37.5q-98 0 -182.5 36t-146.5 107t-97.5 175.5t-35.5 241.5q0 136 36.5 241t100.5 176t150 107.5t184 36.5t182.5 -35t147 -105t98 -173.5t35.5 -239.5zM893 541q0 106 -23 185.5t-64 132.5t-98.5 79.5
t-127.5 26.5t-127.5 -26.5t-98.5 -79.5t-63.5 -132.5t-22.5 -185.5t22.5 -186.5t63.5 -134.5t98.5 -81.5t127.5 -27.5t127.5 27.5t98.5 81.5t64 134.5t23 186.5zM549 1219l-309 327h219l211 -327h-121z" />
    <glyph glyph-name="oacute" unicode="&#xf3;" horiz-adv-x="1159" 
d="M1047 545q0 -137 -37 -243t-100.5 -178t-149.5 -109.5t-185 -37.5q-98 0 -182.5 36t-146.5 107t-97.5 175.5t-35.5 241.5q0 136 36.5 241t100.5 176t150 107.5t184 36.5t182.5 -35t147 -105t98 -173.5t35.5 -239.5zM893 541q0 106 -23 185.5t-64 132.5t-98.5 79.5
t-127.5 26.5t-127.5 -26.5t-98.5 -79.5t-63.5 -132.5t-22.5 -185.5t22.5 -186.5t63.5 -134.5t98.5 -81.5t127.5 -27.5t127.5 27.5t98.5 81.5t64 134.5t23 186.5zM602 1219h-121l211 327h219z" />
    <glyph glyph-name="ocircumflex" unicode="&#xf4;" horiz-adv-x="1159" 
d="M1047 545q0 -137 -37 -243t-100.5 -178t-149.5 -109.5t-185 -37.5q-98 0 -182.5 36t-146.5 107t-97.5 175.5t-35.5 241.5q0 136 36.5 241t100.5 176t150 107.5t184 36.5t182.5 -35t147 -105t98 -173.5t35.5 -239.5zM893 541q0 106 -23 185.5t-64 132.5t-98.5 79.5
t-127.5 26.5t-127.5 -26.5t-98.5 -79.5t-63.5 -132.5t-22.5 -185.5t22.5 -186.5t63.5 -134.5t98.5 -81.5t127.5 -27.5t127.5 27.5t98.5 81.5t64 134.5t23 186.5zM783 1201l-207 211l-207 -211h-129l252 327h172l252 -327h-133z" />
    <glyph glyph-name="otilde" unicode="&#xf5;" horiz-adv-x="1159" 
d="M1047 545q0 -137 -37 -243t-100.5 -178t-149.5 -109.5t-185 -37.5q-98 0 -182.5 36t-146.5 107t-97.5 175.5t-35.5 241.5q0 136 36.5 241t100.5 176t150 107.5t184 36.5t182.5 -35t147 -105t98 -173.5t35.5 -239.5zM893 541q0 106 -23 185.5t-64 132.5t-98.5 79.5
t-127.5 26.5t-127.5 -26.5t-98.5 -79.5t-63.5 -132.5t-22.5 -185.5t22.5 -186.5t63.5 -134.5t98.5 -81.5t127.5 -27.5t127.5 27.5t98.5 81.5t64 134.5t23 186.5zM943 1491q0 -68 -17 -118t-46 -83t-67 -49t-79 -16t-77.5 12t-74 40.5t-56 42.5t-28.5 20q-22 15 -39.5 21.5
t-38.5 6.5q-33 0 -52 -32t-28 -105h-127q0 68 17 118t46 83t67 49t79 16t77.5 -12t74 -40.5t56 -42.5t28.5 -20q22 -15 39.5 -21.5t38.5 -6.5q32 0 51 32.5t29 104.5h127z" />
    <glyph glyph-name="odieresis" unicode="&#xf6;" horiz-adv-x="1159" 
d="M1047 545q0 -137 -37 -243t-100.5 -178t-149.5 -109.5t-185 -37.5q-98 0 -182.5 36t-146.5 107t-97.5 175.5t-35.5 241.5q0 136 36.5 241t100.5 176t150 107.5t184 36.5t182.5 -35t147 -105t98 -173.5t35.5 -239.5zM893 541q0 106 -23 185.5t-64 132.5t-98.5 79.5
t-127.5 26.5t-127.5 -26.5t-98.5 -79.5t-63.5 -132.5t-22.5 -185.5t22.5 -186.5t63.5 -134.5t98.5 -81.5t127.5 -27.5t127.5 27.5t98.5 81.5t64 134.5t23 186.5zM889 1330q0 -23 -9 -43.5t-24 -36t-35.5 -24.5t-43.5 -9t-43.5 9t-36 24.5t-24.5 36t-9 43.5t9 43.5t24.5 36.5
t36 25t43.5 9t43.5 -9t35.5 -25t24 -36.5t9 -43.5zM492 1330q0 -23 -9 -43.5t-24 -36t-35.5 -24.5t-42.5 -9q-24 0 -44.5 9t-36 24.5t-24.5 36t-9 43.5t9 43.5t24.5 36.5t36 25t44.5 9q22 0 42.5 -9t35.5 -25t24 -36.5t9 -43.5z" />
    <glyph glyph-name="divide" unicode="&#xf7;" 
d="M768 1124q0 -27 -10.5 -51.5t-29 -42.5t-42.5 -28.5t-51 -10.5q-28 0 -52 10.5t-42 28.5t-28.5 42.5t-10.5 51.5q0 28 10.5 53t28.5 44t42 30t52 11q27 0 51 -11t42.5 -30t29 -44t10.5 -53zM137 635v139h996v-139h-996zM768 281q0 -28 -10.5 -52.5t-29 -42.5t-42.5 -28.5
t-51 -10.5q-28 0 -52 10.5t-42 28.5t-28.5 42.5t-10.5 52.5q0 27 10.5 52t28.5 44t42 30t52 11q27 0 51 -11t42.5 -30t29 -44t10.5 -52z" />
    <glyph glyph-name="oslash" unicode="&#xf8;" horiz-adv-x="1159" 
d="M1047 545q0 -137 -37 -243t-100.5 -178t-149.5 -109.5t-185 -37.5q-95 0 -176 33l-53 -112h-135l84 176q-85 68 -133.5 184.5t-48.5 278.5q0 136 36.5 241t100.5 176t150 107.5t184 36.5q49 0 94.5 -9t87.5 -26l55 115h135l-86 -179q82 -68 129.5 -181.5t47.5 -272.5z
M709 942q-58 27 -129 27t-129 -27t-99.5 -80.5t-64.5 -134t-23 -186.5q0 -113 24.5 -195.5t69.5 -138.5zM897 541q0 108 -23.5 188.5t-66.5 134.5l-350 -733q58 -25 123 -25q70 0 128.5 28t100.5 82.5t65 136t23 188.5z" />
    <glyph glyph-name="ugrave" unicode="&#xf9;" horiz-adv-x="1161" 
d="M838 0v131q-47 -69 -122 -111.5t-175 -42.5q-182 0 -279.5 112.5t-97.5 330.5v655h153v-629q0 -174 62 -254.5t192 -80.5q123 0 195 86t72 249v629h153v-1075h-153zM533 1219l-309 327h219l211 -327h-121z" />
    <glyph glyph-name="uacute" unicode="&#xfa;" horiz-adv-x="1161" 
d="M838 0v131q-47 -69 -122 -111.5t-175 -42.5q-182 0 -279.5 112.5t-97.5 330.5v655h153v-629q0 -174 62 -254.5t192 -80.5q123 0 195 86t72 249v629h153v-1075h-153zM614 1219h-121l211 327h219z" />
    <glyph glyph-name="ucircumflex" unicode="&#xfb;" horiz-adv-x="1161" 
d="M838 0v131q-47 -69 -122 -111.5t-175 -42.5q-182 0 -279.5 112.5t-97.5 330.5v655h153v-629q0 -174 62 -254.5t192 -80.5q123 0 195 86t72 249v629h153v-1075h-153zM785 1219l-207 211l-207 -211h-129l252 327h172l252 -327h-133z" />
    <glyph glyph-name="udieresis" unicode="&#xfc;" horiz-adv-x="1161" 
d="M838 0v131q-47 -69 -122 -111.5t-175 -42.5q-182 0 -279.5 112.5t-97.5 330.5v655h153v-629q0 -174 62 -254.5t192 -80.5q123 0 195 86t72 249v629h153v-1075h-153zM891 1348q0 -23 -9 -43.5t-24 -36t-35.5 -24.5t-43.5 -9t-43.5 9t-36 24.5t-24.5 36t-9 43.5t9 43.5
t24.5 36.5t36 25t43.5 9t43.5 -9t35.5 -25t24 -36.5t9 -43.5zM494 1348q0 -23 -9 -43.5t-24 -36t-35.5 -24.5t-42.5 -9q-24 0 -44.5 9t-36 24.5t-24.5 36t-9 43.5t9 43.5t24.5 36.5t36 25t44.5 9q22 0 42.5 -9t35.5 -25t24 -36.5t9 -43.5z" />
    <glyph glyph-name="yacute" unicode="&#xfd;" horiz-adv-x="1087" 
d="M471 -379h-154l148 391l-383 1063h162l299 -891l301 891h162zM508 1219h-121l211 327h219z" />
    <glyph glyph-name="thorn" unicode="&#xfe;" horiz-adv-x="1145" 
d="M1032 555q0 -143 -31.5 -251t-86.5 -181t-129 -109.5t-158 -36.5q-101 0 -174 39.5t-129 104.5v-430l-154 -86v1802l154 86v-549q28 31 61.5 59t73.5 49t87 33.5t101 12.5q81 0 151 -31.5t122 -98t82 -169t30 -244.5zM881 553q0 101 -19 178t-54 129t-85.5 78.5
t-114.5 26.5q-86 0 -156.5 -42.5t-127.5 -113.5v-537q22 -34 52.5 -63.5t67 -51t79.5 -34t91 -12.5q135 0 201 112t66 330z" />
    <glyph glyph-name="ydieresis" unicode="&#xff;" horiz-adv-x="1087" 
d="M471 -379h-154l148 391l-383 1063h162l299 -891l301 891h162zM856 1330q0 -23 -9 -43.5t-24 -36t-35.5 -24.5t-43.5 -9t-43.5 9t-36 24.5t-24.5 36t-9 43.5t9 43.5t24.5 36.5t36 25t43.5 9t43.5 -9t35.5 -25t24 -36.5t9 -43.5zM459 1330q0 -23 -9 -43.5t-24 -36
t-35.5 -24.5t-42.5 -9q-24 0 -44.5 9t-36 24.5t-24.5 36t-9 43.5t9 43.5t24.5 36.5t36 25t44.5 9q22 0 42.5 -9t35.5 -25t24 -36.5t9 -43.5z" />
    <glyph glyph-name="Amacron" unicode="&#x100;" horiz-adv-x="1389" 
d="M1280 0h-168l-123 365h-592l-125 -365h-163l497 1434h176zM940 510l-246 733l-248 -733h494zM415 1573v143h558v-143h-558z" />
    <glyph glyph-name="amacron" unicode="&#x101;" horiz-adv-x="1104" 
d="M786 0v131q-28 -31 -62.5 -59t-76 -49t-90.5 -33.5t-106 -12.5q-63 0 -125 17t-110.5 57.5t-79 106.5t-30.5 164q0 90 34.5 155t91.5 107t131.5 62t154.5 20q82 0 151 -18t117 -44v127q0 121 -57 179.5t-176 58.5q-85 0 -156 -22t-137 -60l-57 125q71 38 163 62t197 24
q87 0 157 -19.5t118.5 -61.5t75 -108t26.5 -159v-750h-154zM786 481q-26 15 -54 26.5t-61 19.5t-72.5 12t-88.5 4q-119 0 -185.5 -54.5t-66.5 -156.5q0 -60 16 -103.5t44.5 -71.5t69 -41.5t89.5 -13.5q52 0 97.5 12.5t84.5 34.5t71 51.5t56 63.5v217zM272 1266v143h558v-143
h-558z" />
    <glyph glyph-name="Abreve" unicode="&#x102;" horiz-adv-x="1389" 
d="M1280 0h-168l-123 365h-592l-125 -365h-163l497 1434h176zM940 510l-246 733l-248 -733h494zM1011 1715.5q-25 -60.5 -69 -102.5t-107 -64.5t-143 -22.5q-75 0 -136.5 22.5t-106.5 64.5t-71 102.5t-30 137.5h127q9 -111 64 -162t157 -51q95 0 152 51.5t67 161.5h125
q-4 -77 -29 -137.5z" />
    <glyph glyph-name="abreve" unicode="&#x103;" horiz-adv-x="1104" 
d="M786 0v131q-28 -31 -62.5 -59t-76 -49t-90.5 -33.5t-106 -12.5q-63 0 -125 17t-110.5 57.5t-79 106.5t-30.5 164q0 90 34.5 155t91.5 107t131.5 62t154.5 20q82 0 151 -18t117 -44v127q0 121 -57 179.5t-176 58.5q-85 0 -156 -22t-137 -60l-57 125q71 38 163 62t197 24
q87 0 157 -19.5t118.5 -61.5t75 -108t26.5 -159v-750h-154zM786 481q-26 15 -54 26.5t-61 19.5t-72.5 12t-88.5 4q-119 0 -185.5 -54.5t-66.5 -156.5q0 -60 16 -103.5t44.5 -71.5t69 -41.5t89.5 -13.5q52 0 97.5 12.5t84.5 34.5t71 51.5t56 63.5v217zM868 1408.5
q-25 -60.5 -69 -102.5t-107 -64.5t-143 -22.5q-75 0 -136.5 22.5t-106.5 64.5t-71 102.5t-30 137.5h127q9 -111 64 -162t157 -51q95 0 152 51.5t67 161.5h125q-4 -77 -29 -137.5z" />
    <glyph glyph-name="Aogonek" unicode="&#x104;" horiz-adv-x="1389" 
d="M1280 0h-168l-123 365h-592l-125 -365h-163l497 1434h176zM940 510l-246 733l-248 -733h494zM1266 0q-42 -24 -72 -43t-60.5 -43t-52.5 -57t-22 -68q0 -34 17.5 -47.5t43.5 -13.5q21 0 41 8.5t35 21.5l70 -102q-34 -33 -81.5 -49.5t-101.5 -16.5q-37 0 -71 11t-60.5 32
t-42.5 50.5t-16 66.5q0 51 20.5 91t51.5 68.5t63 49t84 41.5h154z" />
    <glyph glyph-name="aogonek" unicode="&#x105;" horiz-adv-x="1104" 
d="M786 0v131q-28 -31 -62.5 -59t-76 -49t-90.5 -33.5t-106 -12.5q-63 0 -125 17t-110.5 57.5t-79 106.5t-30.5 164q0 90 34.5 155t91.5 107t131.5 62t154.5 20q82 0 151 -18t117 -44v127q0 121 -57 179.5t-176 58.5q-85 0 -156 -22t-137 -60l-57 125q71 38 163 62t197 24
q87 0 157 -19.5t118.5 -61.5t75 -108t26.5 -159v-750h-154zM786 481q-26 15 -54 26.5t-61 19.5t-72.5 12t-88.5 4q-119 0 -185.5 -54.5t-66.5 -156.5q0 -60 16 -103.5t44.5 -71.5t69 -41.5t89.5 -13.5q52 0 97.5 12.5t84.5 34.5t71 51.5t56 63.5v217zM940 0q-42 -24 -72 -43
t-60.5 -43t-52.5 -57t-22 -68q0 -34 17.5 -47.5t43.5 -13.5q21 0 41 8.5t35 21.5l70 -102q-34 -33 -81.5 -49.5t-101.5 -16.5q-37 0 -71 11t-60.5 32t-42.5 50.5t-16 66.5q0 51 20.5 91t51.5 68.5t63 49t84 41.5h154z" />
    <glyph glyph-name="Cacute" unicode="&#x106;" horiz-adv-x="1286" 
d="M1042 1130q-35 47 -69.5 81t-73.5 56.5t-85.5 33t-104.5 10.5q-92 0 -169.5 -43.5t-133.5 -122t-87.5 -187.5t-31.5 -239q0 -131 32 -240.5t89 -188.5t134.5 -123t168.5 -44q116 0 200.5 49.5t153.5 138.5l111 -96q-39 -53 -88 -96.5t-107.5 -75t-127 -49t-146.5 -17.5
q-88 0 -165 25.5t-141.5 72.5t-115 113.5t-86 148.5t-54 177.5t-18.5 200.5q0 160 43 295.5t120.5 234.5t185 155t237.5 56q148 0 259.5 -56t196.5 -173zM756 1526h-121l211 327h219z" />
    <glyph glyph-name="cacute" unicode="&#x107;" horiz-adv-x="1014" 
d="M911 127q-34 -35 -71 -62.5t-79 -47t-90.5 -30t-105.5 -10.5q-88 0 -169.5 34t-144.5 103t-100.5 173.5t-37.5 244.5q0 149 40.5 256t106 176t148.5 101.5t167 32.5q110 0 193.5 -36t146.5 -91l-92 -115q-29 26 -58 46.5t-59.5 34.5t-65 21t-75.5 7q-63 0 -117.5 -28
t-94 -81.5t-62.5 -132t-23 -178.5q0 -99 20.5 -179t59.5 -137t95.5 -87.5t127.5 -30.5q39 0 72.5 8t63 22.5t57 35.5t55.5 48zM510 1219h-121l211 327h219z" />
    <glyph glyph-name="Ccircumflex" unicode="&#x108;" horiz-adv-x="1286" 
d="M1042 1130q-35 47 -69.5 81t-73.5 56.5t-85.5 33t-104.5 10.5q-92 0 -169.5 -43.5t-133.5 -122t-87.5 -187.5t-31.5 -239q0 -131 32 -240.5t89 -188.5t134.5 -123t168.5 -44q116 0 200.5 49.5t153.5 138.5l111 -96q-39 -53 -88 -96.5t-107.5 -75t-127 -49t-146.5 -17.5
q-88 0 -165 25.5t-141.5 72.5t-115 113.5t-86 148.5t-54 177.5t-18.5 200.5q0 160 43 295.5t120.5 234.5t185 155t237.5 56q148 0 259.5 -56t196.5 -173zM924 1516l-207 211l-207 -211h-129l252 327h172l252 -327h-133z" />
    <glyph glyph-name="ccircumflex" unicode="&#x109;" horiz-adv-x="1014" 
d="M911 127q-34 -35 -71 -62.5t-79 -47t-90.5 -30t-105.5 -10.5q-88 0 -169.5 34t-144.5 103t-100.5 173.5t-37.5 244.5q0 149 40.5 256t106 176t148.5 101.5t167 32.5q110 0 193.5 -36t146.5 -91l-92 -115q-29 26 -58 46.5t-59.5 34.5t-65 21t-75.5 7q-63 0 -117.5 -28
t-94 -81.5t-62.5 -132t-23 -178.5q0 -99 20.5 -179t59.5 -137t95.5 -87.5t127.5 -30.5q39 0 72.5 8t63 22.5t57 35.5t55.5 48zM783 1201l-207 211l-207 -211h-129l252 327h172l252 -327h-133z" />
    <glyph glyph-name="Cdotaccent" unicode="&#x10a;" horiz-adv-x="1286" 
d="M1042 1130q-35 47 -69.5 81t-73.5 56.5t-85.5 33t-104.5 10.5q-92 0 -169.5 -43.5t-133.5 -122t-87.5 -187.5t-31.5 -239q0 -131 32 -240.5t89 -188.5t134.5 -123t168.5 -44q116 0 200.5 49.5t153.5 138.5l111 -96q-39 -53 -88 -96.5t-107.5 -75t-127 -49t-146.5 -17.5
q-88 0 -165 25.5t-141.5 72.5t-115 113.5t-86 148.5t-54 177.5t-18.5 200.5q0 160 43 295.5t120.5 234.5t185 155t237.5 56q148 0 259.5 -56t196.5 -173zM828 1655q0 -23 -9 -43.5t-24.5 -36t-36 -24.5t-43.5 -9t-43.5 9t-36 24.5t-24.5 36t-9 43.5t9 43.5t24.5 36.5t36 25
t43.5 9t43.5 -9t36 -25t24.5 -36.5t9 -43.5z" />
    <glyph glyph-name="cdotaccent" unicode="&#x10b;" horiz-adv-x="1014" 
d="M911 127q-34 -35 -71 -62.5t-79 -47t-90.5 -30t-105.5 -10.5q-88 0 -169.5 34t-144.5 103t-100.5 173.5t-37.5 244.5q0 149 40.5 256t106 176t148.5 101.5t167 32.5q110 0 193.5 -36t146.5 -91l-92 -115q-29 26 -58 46.5t-59.5 34.5t-65 21t-75.5 7q-63 0 -117.5 -28
t-94 -81.5t-62.5 -132t-23 -178.5q0 -99 20.5 -179t59.5 -137t95.5 -87.5t127.5 -30.5q39 0 72.5 8t63 22.5t57 35.5t55.5 48zM691 1348q0 -23 -9 -43.5t-24.5 -36t-36 -24.5t-43.5 -9t-43.5 9t-36 24.5t-24.5 36t-9 43.5t9 43.5t24.5 36.5t36 25t43.5 9t43.5 -9t36 -25
t24.5 -36.5t9 -43.5z" />
    <glyph glyph-name="Ccaron" unicode="&#x10c;" horiz-adv-x="1286" 
d="M1042 1130q-35 47 -69.5 81t-73.5 56.5t-85.5 33t-104.5 10.5q-92 0 -169.5 -43.5t-133.5 -122t-87.5 -187.5t-31.5 -239q0 -131 32 -240.5t89 -188.5t134.5 -123t168.5 -44q116 0 200.5 49.5t153.5 138.5l111 -96q-39 -53 -88 -96.5t-107.5 -75t-127 -49t-146.5 -17.5
q-88 0 -165 25.5t-141.5 72.5t-115 113.5t-86 148.5t-54 177.5t-18.5 200.5q0 160 43 295.5t120.5 234.5t185 155t237.5 56q148 0 259.5 -56t196.5 -173zM803 1516h-172l-252 327h133l207 -211l207 211h129z" />
    <glyph glyph-name="ccaron" unicode="&#x10d;" horiz-adv-x="1014" 
d="M911 127q-34 -35 -71 -62.5t-79 -47t-90.5 -30t-105.5 -10.5q-88 0 -169.5 34t-144.5 103t-100.5 173.5t-37.5 244.5q0 149 40.5 256t106 176t148.5 101.5t167 32.5q110 0 193.5 -36t146.5 -91l-92 -115q-29 26 -58 46.5t-59.5 34.5t-65 21t-75.5 7q-63 0 -117.5 -28
t-94 -81.5t-62.5 -132t-23 -178.5q0 -99 20.5 -179t59.5 -137t95.5 -87.5t127.5 -30.5q39 0 72.5 8t63 22.5t57 35.5t55.5 48zM659 1219h-172l-252 327h133l207 -211l207 211h129z" />
    <glyph glyph-name="Dcaron" unicode="&#x10e;" horiz-adv-x="1348" 
d="M1221 727q0 -97 -12.5 -178t-45.5 -170.5t-98 -166t-148.5 -123.5t-177.5 -68t-200 -21h-351v1434h379q141 0 261 -41.5t207.5 -127.5t136.5 -220t49 -318zM1061 721q0 137 -32.5 243t-96.5 178t-158.5 109t-218.5 37h-207v-1143h211q116 0 209 32t158 101.5t100 178.5
t35 264zM760 1526h-172l-252 327h133l207 -211l207 211h129z" />
    <glyph glyph-name="dcaron" unicode="&#x10f;" horiz-adv-x="1233" 
d="M821 0v131q-29 -31 -62.5 -59t-73 -49t-86.5 -33.5t-101 -12.5q-81 0 -151 31.5t-122 98t-82 169t-30 244.5q0 143 31.5 251t86.5 181t129 109.5t158 36.5q51 0 94 -10.5t80 -29.5t68.5 -45.5t60.5 -58.5v453l154 86v-1493h-154zM821 803q-22 34 -52.5 63.5t-67.5 51.5
t-80 34.5t-91 12.5q-134 0 -200 -112.5t-66 -330.5q0 -105 20 -184t58 -130t87 -74t108 -23q47 0 84 11t72 31t66.5 48t61.5 65v537zM1208 977h-106l30 457h209z" />
    <glyph glyph-name="Dcroat" unicode="&#x110;" horiz-adv-x="1397" 
d="M1241 727q0 -195 -52.5 -333t-144.5 -225.5t-216.5 -128t-268.5 -40.5h-350v678h-127v143h127v613h379q141 0 261 -41.5t207 -127.5t136 -220t49 -318zM1081 721q0 137 -32.5 243t-96.5 178t-158.5 109t-218.5 37h-210v-467h290v-143h-290v-533h215q116 0 208.5 32
t157.5 101.5t100 178.5t35 264z" />
    <glyph glyph-name="dcroat" unicode="&#x111;" horiz-adv-x="1176" 
d="M1167 1288v-143h-192v-1145h-154v131q-74 -79 -153.5 -116.5t-169.5 -37.5q-81 0 -151 31.5t-122 98t-82 169t-30 244.5q0 143 31.5 251t86.5 181t129 109.5t158 36.5q51 0 94 -10.5t80 -29.5t68.5 -45.5t60.5 -58.5v191h-211v143h211v119l154 86v-205h192zM821 803
q-22 34 -52.5 63.5t-67.5 51.5t-80 34.5t-91 12.5q-134 0 -200 -112.5t-66 -330.5q0 -105 20 -184t58 -130t87 -74t108 -23q47 0 84 11t72 31t66.5 48t61.5 65v537z" />
    <glyph glyph-name="Emacron" unicode="&#x112;" horiz-adv-x="1202" 
d="M1085 0h-897v1434h867v-146h-707v-450h572v-146h-572v-547h737v-145zM356 1573v143h558v-143h-558z" />
    <glyph glyph-name="emacron" unicode="&#x113;" horiz-adv-x="1106" 
d="M989 569q0 -28 -1.5 -46.5t-4.5 -37.5h-717q6 -86 28.5 -155t60.5 -118t91 -75t119 -26q47 0 85.5 6.5t73 19.5t68 32t70.5 44l72 -111q-48 -31 -91.5 -54.5t-88.5 -39t-94.5 -23.5t-110.5 -8q-49 0 -100.5 12.5t-100 40.5t-91.5 72t-75 107t-50.5 146t-18.5 188
q0 128 33.5 231t92.5 175t140.5 110.5t177.5 38.5q105 0 186 -39.5t135.5 -109.5t82.5 -167.5t28 -212.5zM846 610q-5 78 -24.5 143.5t-55 112.5t-88.5 73t-123 26q-60 0 -110 -21.5t-87.5 -66t-61 -111t-30.5 -156.5h580zM274 1266v143h558v-143h-558z" />
    <glyph glyph-name="Ebreve" unicode="&#x114;" horiz-adv-x="1202" 
d="M1085 0h-897v1434h867v-146h-707v-450h572v-146h-572v-547h737v-145zM938 1715.5q-25 -60.5 -69 -102.5t-107 -64.5t-143 -22.5q-75 0 -136.5 22.5t-106.5 64.5t-71 102.5t-30 137.5h127q9 -111 64 -162t157 -51q95 0 152 51.5t67 161.5h125q-4 -77 -29 -137.5z" />
    <glyph glyph-name="ebreve" unicode="&#x115;" horiz-adv-x="1106" 
d="M989 569q0 -28 -1.5 -46.5t-4.5 -37.5h-717q6 -86 28.5 -155t60.5 -118t91 -75t119 -26q47 0 85.5 6.5t73 19.5t68 32t70.5 44l72 -111q-48 -31 -91.5 -54.5t-88.5 -39t-94.5 -23.5t-110.5 -8q-49 0 -100.5 12.5t-100 40.5t-91.5 72t-75 107t-50.5 146t-18.5 188
q0 128 33.5 231t92.5 175t140.5 110.5t177.5 38.5q105 0 186 -39.5t135.5 -109.5t82.5 -167.5t28 -212.5zM846 610q-5 78 -24.5 143.5t-55 112.5t-88.5 73t-123 26q-60 0 -110 -21.5t-87.5 -66t-61 -111t-30.5 -156.5h580zM872 1408.5q-25 -60.5 -69 -102.5t-107 -64.5
t-143 -22.5q-75 0 -136.5 22.5t-106.5 64.5t-71 102.5t-30 137.5h127q9 -111 64 -162t157 -51q95 0 152 51.5t67 161.5h125q-4 -77 -29 -137.5z" />
    <glyph glyph-name="Edotaccent" unicode="&#x116;" horiz-adv-x="1202" 
d="M1085 0h-897v1434h867v-146h-707v-450h572v-146h-572v-547h737v-145zM713 1655q0 -23 -9 -43.5t-24.5 -36t-36 -24.5t-43.5 -9t-43.5 9t-36 24.5t-24.5 36t-9 43.5t9 43.5t24.5 36.5t36 25t43.5 9t43.5 -9t36 -25t24.5 -36.5t9 -43.5z" />
    <glyph glyph-name="edotaccent" unicode="&#x117;" horiz-adv-x="1106" 
d="M989 569q0 -28 -1.5 -46.5t-4.5 -37.5h-717q6 -86 28.5 -155t60.5 -118t91 -75t119 -26q47 0 85.5 6.5t73 19.5t68 32t70.5 44l72 -111q-48 -31 -91.5 -54.5t-88.5 -39t-94.5 -23.5t-110.5 -8q-49 0 -100.5 12.5t-100 40.5t-91.5 72t-75 107t-50.5 146t-18.5 188
q0 128 33.5 231t92.5 175t140.5 110.5t177.5 38.5q105 0 186 -39.5t135.5 -109.5t82.5 -167.5t28 -212.5zM846 610q-5 78 -24.5 143.5t-55 112.5t-88.5 73t-123 26q-60 0 -110 -21.5t-87.5 -66t-61 -111t-30.5 -156.5h580zM666 1348q0 -23 -9 -43.5t-24.5 -36t-36 -24.5
t-43.5 -9t-43.5 9t-36 24.5t-24.5 36t-9 43.5t9 43.5t24.5 36.5t36 25t43.5 9t43.5 -9t36 -25t24.5 -36.5t9 -43.5z" />
    <glyph glyph-name="Eogonek" unicode="&#x118;" horiz-adv-x="1202" 
d="M1085 0h-897v1434h867v-146h-707v-450h572v-146h-572v-547h737v-145zM1085 0q-42 -24 -72 -43t-60.5 -43t-52.5 -57t-22 -68q0 -34 17.5 -47.5t43.5 -13.5q21 0 41 8.5t35 21.5l70 -102q-34 -33 -81.5 -49.5t-101.5 -16.5q-37 0 -71 11t-60.5 32t-42.5 50.5t-16 66.5
q0 51 20.5 91t51.5 68.5t63 49t84 41.5h154z" />
    <glyph glyph-name="eogonek" unicode="&#x119;" horiz-adv-x="1106" 
d="M862 213l72 -111l-84.5 -52t-64.5 -41t-64 -45t-59 -50t-46.5 -60t-19.5 -71q0 -20 18.5 -38.5t47.5 -18.5q19 0 36.5 6.5t32.5 17.5l66 -98q-39 -28 -82 -45t-88 -17q-41 0 -75 11.5t-58.5 33t-38 53t-13.5 72.5q0 63 45 120t111 97q-105 -7 -198 28.5t-162.5 120
t-97 194t-27.5 223.5q0 128 33.5 231t92.5 175t140.5 110.5t177.5 38.5q105 0 186 -39.5t135.5 -109.5t82.5 -167.5t28 -212.5q0 -28 -1.5 -46.5t-4.5 -37.5h-717q6 -86 28.5 -155t60.5 -118t91 -75t119 -26q80 0 145.5 21.5t151.5 80.5zM846 610q-5 78 -24.5 143.5
t-55 112.5t-88 73t-123.5 26q-60 0 -110 -21.5t-87.5 -66t-61 -111t-30.5 -156.5h580z" />
    <glyph glyph-name="Ecaron" unicode="&#x11a;" horiz-adv-x="1202" 
d="M1085 0h-897v1434h867v-146h-707v-450h572v-146h-572v-547h737v-145zM704 1526h-172l-252 327h133l207 -211l207 211h129z" />
    <glyph glyph-name="ecaron" unicode="&#x11b;" horiz-adv-x="1106" 
d="M989 569q0 -28 -1.5 -46.5t-4.5 -37.5h-717q6 -86 28.5 -155t60.5 -118t91 -75t119 -26q47 0 85.5 6.5t73 19.5t68 32t70.5 44l72 -111q-48 -31 -91.5 -54.5t-88.5 -39t-94.5 -23.5t-110.5 -8q-49 0 -100.5 12.5t-100 40.5t-91.5 72t-75 107t-50.5 146t-18.5 188
q0 128 33.5 231t92.5 175t140.5 110.5t177.5 38.5q105 0 186 -39.5t135.5 -109.5t82.5 -167.5t28 -212.5zM846 610q-5 78 -24.5 143.5t-55 112.5t-88.5 73t-123 26q-60 0 -110 -21.5t-87.5 -66t-61 -111t-30.5 -156.5h580zM639 1219h-172l-252 327h133l207 -211l207 211h129
z" />
    <glyph glyph-name="Gcircumflex" unicode="&#x11c;" horiz-adv-x="1350" 
d="M1237 571q0 -148 -40 -259.5t-111 -185.5t-168 -111.5t-211 -37.5q-138 0 -249 62t-182 161.5t-109 226t-40 288.5q0 160 43 295.5t120.5 234.5t185 155t237.5 56q148 0 259.5 -56t196.5 -173l-127 -97q-35 47 -69.5 81t-73.5 56.5t-85.5 33t-104.5 10.5
q-92 0 -169.5 -43.5t-133.5 -122t-87.5 -187.5t-31.5 -239q0 -131 32.5 -240.5t89.5 -188.5t134.5 -123t167.5 -44q180 0 275 108t95 320v12h-258v148h414v-140zM924 1516l-207 211l-207 -211h-129l252 327h172l252 -327h-133z" />
    <glyph glyph-name="gcircumflex" unicode="&#x11d;" horiz-adv-x="1145" 
d="M975 96q0 -115 -29 -207.5t-96 -154.5q-62 -59 -173 -91.5t-280 -37.5l-39 125q153 0 243.5 20t131.5 55q45 39 66.5 106.5t21.5 164.5v55q-29 -31 -62.5 -59t-73 -49t-86.5 -33.5t-101 -12.5q-81 0 -151 31.5t-122 98t-82 169t-30 244.5q0 143 31.5 251t86.5 181
t129 109.5t158 36.5q51 0 94 -10.5t80 -29.5t68.5 -45.5t60.5 -58.5v121h154v-979zM537 111q86 0 156.5 42t127.5 113v537q-22 34 -52.5 63.5t-67.5 51.5t-80 34.5t-91 12.5q-134 0 -200 -112.5t-66 -330.5q0 -203 72.5 -307t200.5 -104zM783 1201l-207 211l-207 -211h-129
l252 327h172l252 -327h-133z" />
    <glyph glyph-name="Gbreve" unicode="&#x11e;" horiz-adv-x="1350" 
d="M1237 571q0 -148 -40 -259.5t-111 -185.5t-168 -111.5t-211 -37.5q-138 0 -249 62t-182 161.5t-109 226t-40 288.5q0 160 43 295.5t120.5 234.5t185 155t237.5 56q148 0 259.5 -56t196.5 -173l-127 -97q-35 47 -69.5 81t-73.5 56.5t-85.5 33t-104.5 10.5
q-92 0 -169.5 -43.5t-133.5 -122t-87.5 -187.5t-31.5 -239q0 -131 32.5 -240.5t89.5 -188.5t134.5 -123t167.5 -44q180 0 275 108t95 320v12h-258v148h414v-140zM1036 1705.5q-25 -60.5 -69 -102.5t-107 -64.5t-143 -22.5q-75 0 -136.5 22.5t-106.5 64.5t-71 102.5
t-30 137.5h127q9 -111 64 -162t157 -51q95 0 152 51.5t67 161.5h125q-4 -77 -29 -137.5z" />
    <glyph glyph-name="gbreve" unicode="&#x11f;" horiz-adv-x="1145" 
d="M975 96q0 -115 -29 -207.5t-96 -154.5q-62 -59 -173 -91.5t-280 -37.5l-39 125q153 0 243.5 20t131.5 55q45 39 66.5 106.5t21.5 164.5v55q-29 -31 -62.5 -59t-73 -49t-86.5 -33.5t-101 -12.5q-81 0 -151 31.5t-122 98t-82 169t-30 244.5q0 143 31.5 251t86.5 181
t129 109.5t158 36.5q51 0 94 -10.5t80 -29.5t68.5 -45.5t60.5 -58.5v121h154v-979zM537 111q86 0 156.5 42t127.5 113v537q-22 34 -52.5 63.5t-67.5 51.5t-80 34.5t-91 12.5q-134 0 -200 -112.5t-66 -330.5q0 -203 72.5 -307t200.5 -104zM888 1408.5q-25 -60.5 -69 -102.5
t-107 -64.5t-143 -22.5q-75 0 -136.5 22.5t-106.5 64.5t-71 102.5t-30 137.5h127q9 -111 64 -162t157 -51q95 0 152 51.5t67 161.5h125q-4 -77 -29 -137.5z" />
    <glyph glyph-name="Gdotaccent" unicode="&#x120;" horiz-adv-x="1350" 
d="M1237 571q0 -148 -40 -259.5t-111 -185.5t-168 -111.5t-211 -37.5q-138 0 -249 62t-182 161.5t-109 226t-40 288.5q0 160 43 295.5t120.5 234.5t185 155t237.5 56q148 0 259.5 -56t196.5 -173l-127 -97q-35 47 -69.5 81t-73.5 56.5t-85.5 33t-104.5 10.5
q-92 0 -169.5 -43.5t-133.5 -122t-87.5 -187.5t-31.5 -239q0 -131 32.5 -240.5t89.5 -188.5t134.5 -123t167.5 -44q180 0 275 108t95 320v12h-258v148h414v-140zM828 1655q0 -23 -9 -43.5t-24.5 -36t-36 -24.5t-43.5 -9t-43.5 9t-36 24.5t-24.5 36t-9 43.5t9 43.5t24.5 36.5
t36 25t43.5 9t43.5 -9t36 -25t24.5 -36.5t9 -43.5z" />
    <glyph glyph-name="gdotaccent" unicode="&#x121;" horiz-adv-x="1145" 
d="M975 96q0 -115 -29 -207.5t-96 -154.5q-62 -59 -173 -91.5t-280 -37.5l-39 125q153 0 243.5 20t131.5 55q45 39 66.5 106.5t21.5 164.5v55q-29 -31 -62.5 -59t-73 -49t-86.5 -33.5t-101 -12.5q-81 0 -151 31.5t-122 98t-82 169t-30 244.5q0 143 31.5 251t86.5 181
t129 109.5t158 36.5q51 0 94 -10.5t80 -29.5t68.5 -45.5t60.5 -58.5v121h154v-979zM537 111q86 0 156.5 42t127.5 113v537q-22 34 -52.5 63.5t-67.5 51.5t-80 34.5t-91 12.5q-134 0 -200 -112.5t-66 -330.5q0 -203 72.5 -307t200.5 -104zM660 1348q0 -23 -9 -43.5t-24.5 -36
t-36 -24.5t-43.5 -9t-43.5 9t-36 24.5t-24.5 36t-9 43.5t9 43.5t24.5 36.5t36 25t43.5 9t43.5 -9t36 -25t24.5 -36.5t9 -43.5z" />
    <glyph glyph-name="Gcommaaccent" unicode="&#x122;" horiz-adv-x="1350" 
d="M1237 571q0 -148 -40 -259.5t-111 -185.5t-168 -111.5t-211 -37.5q-138 0 -249 62t-182 161.5t-109 226t-40 288.5q0 160 43 295.5t120.5 234.5t185 155t237.5 56q148 0 259.5 -56t196.5 -173l-127 -97q-35 47 -69.5 81t-73.5 56.5t-85.5 33t-104.5 10.5
q-92 0 -169.5 -43.5t-133.5 -122t-87.5 -187.5t-31.5 -239q0 -131 32.5 -240.5t89.5 -188.5t134.5 -123t167.5 -44q180 0 275 108t95 320v12h-258v148h414v-140zM654 -491h-84l24 385h170z" />
    <glyph glyph-name="gcommaaccent" unicode="&#x123;" horiz-adv-x="1145" 
d="M975 96q0 -115 -29 -207.5t-96 -154.5q-62 -59 -173 -91.5t-280 -37.5l-39 125q153 0 243.5 20t131.5 55q45 39 66.5 106.5t21.5 164.5v55q-29 -31 -62.5 -59t-73 -49t-86.5 -33.5t-101 -12.5q-81 0 -151 31.5t-122 98t-82 169t-30 244.5q0 143 31.5 251t86.5 181
t129 109.5t158 36.5q51 0 94 -10.5t80 -29.5t68.5 -45.5t60.5 -58.5v121h154v-979zM537 111q86 0 156.5 42t127.5 113v537q-22 34 -52.5 63.5t-67.5 51.5t-80 34.5t-91 12.5q-134 0 -200 -112.5t-66 -330.5q0 -203 72.5 -307t200.5 -104zM602.087 1679.91h93.2236
l-26.6357 -427.274h-188.666z" />
    <glyph glyph-name="Hcircumflex" unicode="&#x124;" horiz-adv-x="1409" 
d="M1061 0v676h-713v-676h-160v1434h160v-613h713v613h160v-1434h-160zM910 1526l-207 211l-207 -211h-129l252 327h172l252 -327h-133z" />
    <glyph glyph-name="hcircumflex" unicode="&#x125;" horiz-adv-x="1161" 
d="M844 0v629q0 174 -62 255t-192 81q-56 0 -104.5 -19.5t-84.5 -60.5t-56.5 -104.5t-20.5 -151.5v-629h-154v1407l154 86v-549q23 34 53 62t67.5 48.5t81.5 32t95 11.5q85 0 154.5 -25.5t118.5 -79.5t76 -138t27 -200v-655h-153zM790 1512l-207 211l-207 -211h-129l252 327
h172l252 -327h-133z" />
    <glyph glyph-name="Hbar" unicode="&#x126;" horiz-adv-x="1409" 
d="M1061 0v676h-713v-676h-160v1079h-102v145h102v210h160v-210h713v210h160v-210h103v-145h-103v-1079h-160zM1061 821v258h-713v-258h713z" />
    <glyph glyph-name="hbar" unicode="&#x127;" horiz-adv-x="1161" 
d="M844 0v629q0 85 -14.5 146.5t-45 104t-78.5 64t-116 21.5q-123 0 -194.5 -86t-71.5 -250v-629h-154v1167h-182v127h182v113l154 86v-199h200v-127h-200v-223q23 34 53 62t67.5 48.5t81.5 32t95 11.5q189 0 282.5 -116t93.5 -327v-655h-153z" />
    <glyph glyph-name="Itilde" unicode="&#x128;" horiz-adv-x="557" 
d="M199 0v1434h159v-1434h-159zM646 1806q0 -68 -17 -118t-46 -83t-67 -49t-79 -16t-77.5 12t-74 40.5t-56 42.5t-28.5 20q-22 15 -39.5 21.5t-38.5 6.5q-33 0 -52 -32t-28 -105h-127q0 68 17 118t46 83t67 49t79 16t77.5 -12t74 -40.5t56 -42.5t28.5 -20q22 -15 39.5 -21.5
t38.5 -6.5q32 0 51 32.5t29 104.5h127z" />
    <glyph glyph-name="itilde" unicode="&#x129;" horiz-adv-x="514" 
d="M180 0v1075h154v-1075h-154zM623 1491q0 -68 -17 -118t-46 -83t-67 -49t-79 -16t-77.5 12t-74 40.5t-56 42.5t-28.5 20q-22 15 -39.5 21.5t-38.5 6.5q-33 0 -52 -32t-28 -105h-127q0 68 17 118t46 83t67 49t79 16t77.5 -12t74 -40.5t56 -42.5t28.5 -20q22 -15 39.5 -21.5
t38.5 -6.5q32 0 51 32.5t29 104.5h127z" />
    <glyph glyph-name="Imacron" unicode="&#x12a;" horiz-adv-x="557" 
d="M199 0v1434h159v-1434h-159zM2 1573v143h558v-143h-558z" />
    <glyph glyph-name="imacron" unicode="&#x12b;" horiz-adv-x="514" 
d="M180 0v1075h154v-1075h-154zM-21 1266v143h558v-143h-558z" />
    <glyph glyph-name="Ibreve" unicode="&#x12c;" horiz-adv-x="557" 
d="M199 0v1434h159v-1434h-159zM598 1715.5q-25 -60.5 -69 -102.5t-107 -64.5t-143 -22.5q-75 0 -136.5 22.5t-106.5 64.5t-71 102.5t-30 137.5h127q9 -111 64 -162t157 -51q95 0 152 51.5t67 161.5h125q-4 -77 -29 -137.5z" />
    <glyph glyph-name="ibreve" unicode="&#x12d;" horiz-adv-x="514" 
d="M180 0v1075h154v-1075h-154zM575 1408.5q-25 -60.5 -69 -102.5t-107 -64.5t-143 -22.5q-75 0 -136.5 22.5t-106.5 64.5t-71 102.5t-30 137.5h127q9 -111 64 -162t157 -51q95 0 152 51.5t67 161.5h125q-4 -77 -29 -137.5z" />
    <glyph glyph-name="Iogonek" unicode="&#x12e;" horiz-adv-x="557" 
d="M199 0v1434h159v-1434h-159zM356 0q-42 -24 -72 -43t-60.5 -43t-52.5 -57t-22 -68q0 -34 17.5 -47.5t43.5 -13.5q21 0 41 8.5t35 21.5l70 -102q-34 -33 -81.5 -49.5t-101.5 -16.5q-37 0 -71 11t-60.5 32t-42.5 50.5t-16 66.5q0 51 20.5 91t51.5 68.5t63 49t84 41.5h154z
" />
    <glyph glyph-name="iogonek" unicode="&#x12f;" horiz-adv-x="514" 
d="M367 1376q0 -22 -8.5 -41.5t-23.5 -34.5t-34.5 -23.5t-40.5 -8.5q-24 0 -44.5 8.5t-35.5 23.5t-24 34.5t-9 41.5q0 23 9 43.5t24 35.5t35.5 23.5t44.5 8.5q21 0 40.5 -8.5t34.5 -23.5t23.5 -35.5t8.5 -43.5zM180 0v1075h154v-1075h-154zM336 0q-42 -24 -72 -43t-60.5 -43
t-52.5 -57t-22 -68q0 -34 17.5 -47.5t43.5 -13.5q21 0 41 8.5t35 21.5l70 -102q-34 -33 -81.5 -49.5t-101.5 -16.5q-37 0 -71 11t-60.5 32t-42.5 50.5t-16 66.5q0 51 20.5 91t51.5 68.5t63 49t84 41.5h154z" />
    <glyph glyph-name="Idotaccent" unicode="&#x130;" horiz-adv-x="557" 
d="M199 0v1434h159v-1434h-159zM394 1655q0 -23 -9 -43.5t-24.5 -36t-36 -24.5t-43.5 -9t-43.5 9t-36 24.5t-24.5 36t-9 43.5t9 43.5t24.5 36.5t36 25t43.5 9t43.5 -9t36 -25t24.5 -36.5t9 -43.5z" />
    <glyph glyph-name="dotlessi" unicode="&#x131;" horiz-adv-x="514" 
d="M180 0v1075h154v-1075h-154z" />
    <glyph glyph-name="IJ" unicode="&#x132;" horiz-adv-x="1741" 
d="M199 0v1434h159v-1434h-159zM1563 549q0 -287 -121.5 -429.5t-368.5 -142.5q-91 0 -162.5 22.5t-127 67t-96.5 109t-69 148.5l152 51q21 -59 48 -105.5t64 -79t85 -50t112 -17.5q86 0 147.5 25t100.5 78t57.5 134.5t18.5 194.5v879h160v-885z" />
    <glyph glyph-name="ij" unicode="&#x133;" horiz-adv-x="1028" 
d="M367 1376q0 -22 -8.5 -41.5t-23.5 -34.5t-34.5 -23.5t-40.5 -8.5q-24 0 -44.5 8.5t-35.5 23.5t-24 34.5t-9 41.5q0 23 9 43.5t24 35.5t35.5 23.5t44.5 8.5q21 0 40.5 -8.5t34.5 -23.5t23.5 -35.5t8.5 -43.5zM180 0v1075h154v-1075h-154zM881 1376q0 -22 -8.5 -41.5
t-23.5 -34.5t-34.5 -23.5t-40.5 -8.5q-24 0 -44.5 8.5t-35.5 23.5t-24 34.5t-9 41.5q0 23 9 43.5t24 35.5t35.5 23.5t44.5 8.5q21 0 40.5 -8.5t34.5 -23.5t23.5 -35.5t8.5 -43.5zM848 25q0 -92 -11.5 -160t-46 -117.5t-96.5 -83.5t-164 -59l-51 114q73 22 116 45.5t65 57
t28 82.5t6 123v1048h154v-1050z" />
    <glyph glyph-name="Jcircumflex" unicode="&#x134;" horiz-adv-x="1184" 
d="M1006 549q0 -287 -121.5 -429.5t-368.5 -142.5q-91 0 -162.5 22.5t-127 67t-96.5 109t-69 148.5l152 51q21 -59 48 -105.5t64 -79t85 -50t112 -17.5q86 0 147.5 25t100.5 78t57.5 134.5t18.5 194.5v879h160v-885zM1125 1516l-207 211l-207 -211h-129l252 327h172
l252 -327h-133z" />
    <glyph glyph-name="jcircumflex" unicode="&#x135;" horiz-adv-x="514" 
d="M334 25q0 -92 -11.5 -160t-46 -117.5t-96.5 -83.5t-164 -59l-51 114q73 22 116 45.5t65 57t28 82.5t6 123v1048h154v-1050zM461 1219l-207 211l-207 -211h-129l252 327h172l252 -327h-133z" />
    <glyph glyph-name="Kcommaaccent" unicode="&#x136;" horiz-adv-x="1315" 
d="M1227 0h-183l-423 764l-273 -352v-412h-160v1434h160v-809l625 809h174l-420 -539zM637 -491h-84l24 385h170z" />
    <glyph glyph-name="kcommaaccent" unicode="&#x137;" horiz-adv-x="1034" 
d="M782 0l-272 565l-186 -256v-309h-154v1407l154 86v-980l395 562h172l-283 -381l340 -694h-166zM496 -491h-84l24 385h170z" />
    <glyph glyph-name="kgreenlandic" unicode="&#x138;" horiz-adv-x="1034" 
d="M782 0l-272 565l-186 -256v-309h-154v1075h154v-561l395 561h172l-283 -381l340 -694h-166z" />
    <glyph glyph-name="Lacute" unicode="&#x139;" horiz-adv-x="1178" 
d="M188 0v1434h160v-1289h709v-145h-869zM319 1526h-121l211 327h219z" />
    <glyph glyph-name="lacute" unicode="&#x13a;" horiz-adv-x="514" 
d="M180 0v1407l154 86v-1493h-154zM305 1598h-121l211 327h219z" />
    <glyph glyph-name="Lcommaaccent" unicode="&#x13b;" horiz-adv-x="1178" 
d="M188 0v1434h160v-1289h709v-145h-869zM568 -491h-84l24 385h170z" />
    <glyph glyph-name="lcommaaccent" unicode="&#x13c;" horiz-adv-x="514" 
d="M180 0v1407l154 86v-1493h-154zM236 -491h-84l24 385h170z" />
    <glyph glyph-name="Lcaron" unicode="&#x13d;" horiz-adv-x="1178" 
d="M188 0v1434h160v-1289h709v-145h-869zM622 1180h-106l30 457h209z" />
    <glyph glyph-name="lcaron" unicode="&#x13e;" horiz-adv-x="590" 
d="M180 0v1407l154 86v-1493h-154zM565 977h-106l30 457h209z" />
    <glyph glyph-name="Ldot" unicode="&#x13f;" horiz-adv-x="1178" 
d="M188 0v1434h160v-1289h709v-145h-869zM905 752q0 -27 -10.5 -51t-28.5 -41.5t-42 -28t-50 -10.5q-27 0 -51 10.5t-41.5 28t-28 41.5t-10.5 51t10.5 51t28 43t41.5 30t51 11q26 0 50 -11t42 -30t28.5 -43t10.5 -51z" />
    <glyph glyph-name="ldot" unicode="&#x140;" horiz-adv-x="1006" 
d="M180 0v1407l154 86v-1493h-154zM891 752q0 -27 -10.5 -51t-28.5 -41.5t-42 -28t-50 -10.5q-27 0 -51 10.5t-41.5 28t-28 41.5t-10.5 51t10.5 51t28 43t41.5 30t51 11q26 0 50 -11t42 -30t28.5 -43t10.5 -51z" />
    <glyph glyph-name="Lslash" unicode="&#x141;" horiz-adv-x="1198" 
d="M209 0v487l-127 -110v182l127 111v764h160v-639l329 280v-182l-329 -281v-467h708v-145h-868z" />
    <glyph glyph-name="lslash" unicode="&#x142;" horiz-adv-x="535" 
d="M344 647v-647h-154v524l-100 -88v187l100 88v696l154 86v-662l100 91v-187z" />
    <glyph glyph-name="Nacute" unicode="&#x143;" horiz-adv-x="1409" 
d="M1221 0h-150l-729 1141v-1141h-154v1434h156l723 -1164v1164h154v-1434zM670 1526h-121l211 327h219z" />
    <glyph glyph-name="nacute" unicode="&#x144;" horiz-adv-x="1165" 
d="M844 0v629q0 174 -62 255t-192 81q-56 0 -104.5 -19.5t-84.5 -60.5t-56.5 -104.5t-20.5 -151.5v-629h-154v1075h154v-131q23 34 53 62t67.5 48.5t81.5 32t95 11.5q85 0 154.5 -25.5t118.5 -79.5t76 -138t27 -200v-655h-153zM635 1219h-121l211 327h219z" />
    <glyph glyph-name="Ncommaaccent" unicode="&#x145;" horiz-adv-x="1409" 
d="M1221 0h-150l-729 1141v-1141h-154v1434h156l723 -1164v1164h154v-1434zM685 -491h-84l24 385h170z" />
    <glyph glyph-name="ncommaaccent" unicode="&#x146;" horiz-adv-x="1165" 
d="M844 0v629q0 174 -62 255t-192 81q-56 0 -104.5 -19.5t-84.5 -60.5t-56.5 -104.5t-20.5 -151.5v-629h-154v1075h154v-131q23 34 53 62t67.5 48.5t81.5 32t95 11.5q85 0 154.5 -25.5t118.5 -79.5t76 -138t27 -200v-655h-153zM560 -491h-84l24 385h170z" />
    <glyph glyph-name="Ncaron" unicode="&#x147;" horiz-adv-x="1409" 
d="M1221 0h-150l-729 1141v-1141h-154v1434h156l723 -1164v1164h154v-1434zM791 1526h-172l-252 327h133l207 -211l207 211h129z" />
    <glyph glyph-name="ncaron" unicode="&#x148;" horiz-adv-x="1165" 
d="M844 0v629q0 174 -62 255t-192 81q-56 0 -104.5 -19.5t-84.5 -60.5t-56.5 -104.5t-20.5 -151.5v-629h-154v1075h154v-131q23 34 53 62t67.5 48.5t81.5 32t95 11.5q85 0 154.5 -25.5t118.5 -79.5t76 -138t27 -200v-655h-153zM666 1219h-172l-252 327h133l207 -211l207 211
h129z" />
    <glyph glyph-name="napostrophe" unicode="&#x149;" horiz-adv-x="1628" 
d="M1307 0v629q0 174 -62 255t-192 81q-56 0 -104.5 -19.5t-84.5 -60.5t-56.5 -104.5t-20.5 -151.5v-629h-154v1075h154v-131q23 34 53 62t67.5 48.5t81.5 32t95 11.5q85 0 154.5 -25.5t118.5 -79.5t76 -138t27 -200v-655h-153zM260 977h-106l30 457h209z" />
    <glyph glyph-name="Eng" unicode="&#x14a;" horiz-adv-x="1409" 
d="M1221 0q0 -85 -13 -148.5t-48.5 -110t-97.5 -79.5t-159 -57l-51 114q70 22 112 44.5t64.5 54t30 76.5t8.5 112l-725 1135v-1141h-154v1434h156l723 -1164v1164h154v-1434z" />
    <glyph glyph-name="eng" unicode="&#x14b;" horiz-adv-x="1165" 
d="M324 0h-154v1075h154v-131q23 34 53 62t67.5 48.5t81.5 32t95 11.5q85 0 154.5 -25.5t118.5 -79.5t76 -138t27 -200v-630q0 -92 -11.5 -160t-45.5 -117.5t-96.5 -83.5t-163.5 -59l-51 114q69 22 111 44t65.5 53t31 75t7.5 109v629q0 174 -62 255t-192 81
q-56 0 -104.5 -19.5t-84.5 -60.5t-56.5 -104.5t-20.5 -151.5v-629z" />
    <glyph glyph-name="Omacron" unicode="&#x14c;" horiz-adv-x="1444" 
d="M1317 719q0 -162 -43.5 -298t-122 -235t-189 -154t-243.5 -55q-134 0 -243 54.5t-186.5 152.5t-120 233.5t-42.5 297.5t43 298t121.5 234.5t188 153.5t243.5 55q133 0 242.5 -54.5t187.5 -152t121 -233t43 -297.5zM1157 715q0 135 -33.5 245t-92.5 188t-139.5 120.5
t-174.5 42.5q-93 0 -172 -42t-136 -119t-89.5 -186.5t-32.5 -244.5t33.5 -245t92 -188t138.5 -120.5t174 -42.5q93 0 172 41.5t137 119t90.5 187t32.5 244.5zM442 1573v143h558v-143h-558z" />
    <glyph glyph-name="omacron" unicode="&#x14d;" horiz-adv-x="1159" 
d="M1047 545q0 -137 -37 -243t-100.5 -178t-149.5 -109.5t-185 -37.5q-98 0 -182.5 36t-146.5 107t-97.5 175.5t-35.5 241.5q0 136 36.5 241t100.5 176t150 107.5t184 36.5t182.5 -35t147 -105t98 -173.5t35.5 -239.5zM893 541q0 106 -23 185.5t-64 132.5t-98.5 79.5
t-127.5 26.5t-127.5 -26.5t-98.5 -79.5t-63.5 -132.5t-22.5 -185.5t22.5 -186.5t63.5 -134.5t98.5 -81.5t127.5 -27.5t127.5 27.5t98.5 81.5t64 134.5t23 186.5zM301 1266v143h558v-143h-558z" />
    <glyph glyph-name="Obreve" unicode="&#x14e;" horiz-adv-x="1444" 
d="M1317 719q0 -162 -43.5 -298t-122 -235t-189 -154t-243.5 -55q-134 0 -243 54.5t-186.5 152.5t-120 233.5t-42.5 297.5t43 298t121.5 234.5t188 153.5t243.5 55q133 0 242.5 -54.5t187.5 -152t121 -233t43 -297.5zM1157 715q0 135 -33.5 245t-92.5 188t-139.5 120.5
t-174.5 42.5q-93 0 -172 -42t-136 -119t-89.5 -186.5t-32.5 -244.5t33.5 -245t92 -188t138.5 -120.5t174 -42.5q93 0 172 41.5t137 119t90.5 187t32.5 244.5zM1036 1705.5q-25 -60.5 -69 -102.5t-107 -64.5t-143 -22.5q-75 0 -136.5 22.5t-106.5 64.5t-71 102.5t-30 137.5
h127q9 -111 64 -162t157 -51q95 0 152 51.5t67 161.5h125q-4 -77 -29 -137.5z" />
    <glyph glyph-name="obreve" unicode="&#x14f;" horiz-adv-x="1159" 
d="M1047 545q0 -137 -37 -243t-100.5 -178t-149.5 -109.5t-185 -37.5q-98 0 -182.5 36t-146.5 107t-97.5 175.5t-35.5 241.5q0 136 36.5 241t100.5 176t150 107.5t184 36.5t182.5 -35t147 -105t98 -173.5t35.5 -239.5zM893 541q0 106 -23 185.5t-64 132.5t-98.5 79.5
t-127.5 26.5t-127.5 -26.5t-98.5 -79.5t-63.5 -132.5t-22.5 -185.5t22.5 -186.5t63.5 -134.5t98.5 -81.5t127.5 -27.5t127.5 27.5t98.5 81.5t64 134.5t23 186.5zM897 1408.5q-25 -60.5 -69 -102.5t-107 -64.5t-143 -22.5q-75 0 -136.5 22.5t-106.5 64.5t-71 102.5t-30 137.5
h127q9 -111 64 -162t157 -51q95 0 152 51.5t67 161.5h125q-4 -77 -29 -137.5z" />
    <glyph glyph-name="Ohungarumlaut" unicode="&#x150;" horiz-adv-x="1444" 
d="M1317 719q0 -162 -43.5 -298t-122 -235t-189 -154t-243.5 -55q-134 0 -243 54.5t-186.5 152.5t-120 233.5t-42.5 297.5t43 298t121.5 234.5t188 153.5t243.5 55q133 0 242.5 -54.5t187.5 -152t121 -233t43 -297.5zM1157 715q0 135 -33.5 245t-92.5 188t-139.5 120.5
t-174.5 42.5q-93 0 -172 -42t-136 -119t-89.5 -186.5t-32.5 -244.5t33.5 -245t92 -188t138.5 -120.5t174 -42.5q93 0 172 41.5t137 119t90.5 187t32.5 244.5zM938 1526h-115l191 327h204zM575 1526h-114l190 327h205z" />
    <glyph glyph-name="ohungarumlaut" unicode="&#x151;" horiz-adv-x="1159" 
d="M1047 545q0 -137 -37 -243t-100.5 -178t-149.5 -109.5t-185 -37.5q-98 0 -182.5 36t-146.5 107t-97.5 175.5t-35.5 241.5q0 136 36.5 241t100.5 176t150 107.5t184 36.5t182.5 -35t147 -105t98 -173.5t35.5 -239.5zM893 541q0 106 -23 185.5t-64 132.5t-98.5 79.5
t-127.5 26.5t-127.5 -26.5t-98.5 -79.5t-63.5 -132.5t-22.5 -185.5t22.5 -186.5t63.5 -134.5t98.5 -81.5t127.5 -27.5t127.5 27.5t98.5 81.5t64 134.5t23 186.5zM758 1219h-115l191 327h204zM395 1219h-114l190 327h205z" />
    <glyph glyph-name="OE" unicode="&#x152;" horiz-adv-x="2136" 
d="M1288 692v-547h731v-145h-874v238q-33 -56 -72 -104t-89.5 -83t-116 -54.5t-152.5 -19.5q-133 0 -241.5 55t-185.5 153t-119 234t-42 298t42 297.5t119 234t185.5 153t241.5 54.5q80 0 146 -20t119 -54.5t94 -81t71 -98.5v232h844v-146h-701v-450h576v-146h-576z
M1145 715q0 135 -32.5 245t-90.5 188t-137.5 120.5t-173.5 42.5q-93 0 -171 -42t-134 -119t-87.5 -186.5t-31.5 -244.5t32.5 -245t90 -188t136.5 -120.5t173 -42.5q93 0 171 41.5t135 119t88.5 187t31.5 244.5z" />
    <glyph glyph-name="oe" unicode="&#x153;" horiz-adv-x="1835" 
d="M1718 569q0 -28 -1.5 -46.5t-4.5 -37.5h-696q5 -86 27.5 -155t59.5 -118t88 -75t114 -26q74 0 138.5 22.5t147.5 79.5l72 -111q-92 -59 -175.5 -92t-199.5 -33q-60 0 -114.5 20.5t-100.5 55.5t-80.5 81.5t-54.5 98.5q-21 -53 -55 -99.5t-80.5 -81.5t-106 -55t-131.5 -20
q-93 0 -175.5 36t-144 107t-97 175.5t-35.5 241.5q0 136 37 241t100 176t146.5 107.5t176.5 36.5q70 0 129 -20.5t105.5 -55t80.5 -81t54 -97.5q43 109 137 181.5t217 72.5q100 0 178.5 -39.5t132.5 -109.5t82.5 -167.5t28.5 -212.5zM1575 610q-5 78 -24 143.5t-54 112.5
t-85.5 73t-117.5 26q-114 0 -188.5 -87.5t-89.5 -267.5h559zM872 541q0 106 -22.5 185.5t-63 132.5t-96 79.5t-121.5 26.5t-121.5 -26.5t-95 -79.5t-62 -132.5t-22.5 -185.5t22.5 -186.5t62 -134.5t95 -81.5t121.5 -27.5t121.5 27.5t96 81.5t63 134.5t22.5 186.5z" />
    <glyph glyph-name="Racute" unicode="&#x154;" horiz-adv-x="1331" 
d="M995 0l-307 610h-340v-610h-160v1434h568q94 0 175.5 -24.5t141.5 -74.5t94.5 -126.5t34.5 -180.5q0 -84 -24 -151.5t-68 -118.5t-106.5 -85t-139.5 -50l316 -623h-185zM1021 1143.5q-21 52.5 -64 86t-96.5 46t-110.5 12.5h-402v-534h381q69 0 125.5 13t100.5 45t65.5 86
t21.5 124q0 69 -21 121.5zM631 1526h-121l211 327h219z" />
    <glyph glyph-name="racute" unicode="&#x155;" horiz-adv-x="834" 
d="M719 915q-32 19 -70 30t-92 11q-112 0 -172.5 -85.5t-60.5 -239.5v-631h-154v1075h154v-133q18 32 46 60.5t62.5 49.5t74.5 33.5t83 12.5q60 0 100 -7.5t68 -19.5zM446 1219h-121l211 327h219z" />
    <glyph glyph-name="Rcommaaccent" unicode="&#x156;" horiz-adv-x="1331" 
d="M995 0l-307 610h-340v-610h-160v1434h568q94 0 175.5 -24.5t141.5 -74.5t94.5 -126.5t34.5 -180.5q0 -84 -24 -151.5t-68 -118.5t-106.5 -85t-139.5 -50l316 -623h-185zM1021 1143.5q-21 52.5 -64 86t-96.5 46t-110.5 12.5h-402v-534h381q69 0 125.5 13t100.5 45t65.5 86
t21.5 124q0 69 -21 121.5zM646 -491h-84l24 385h170z" />
    <glyph glyph-name="rcommaaccent" unicode="&#x157;" horiz-adv-x="834" 
d="M719 915q-32 19 -70 30t-92 11q-112 0 -172.5 -85.5t-60.5 -239.5v-631h-154v1075h154v-133q18 32 46 60.5t62.5 49.5t74.5 33.5t83 12.5q60 0 100 -7.5t68 -19.5zM224 -491h-84l24 385h170z" />
    <glyph glyph-name="Rcaron" unicode="&#x158;" horiz-adv-x="1331" 
d="M995 0l-307 610h-340v-610h-160v1434h568q94 0 175.5 -24.5t141.5 -74.5t94.5 -126.5t34.5 -180.5q0 -84 -24 -151.5t-68 -118.5t-106.5 -85t-139.5 -50l316 -623h-185zM1021 1143.5q-21 52.5 -64 86t-96.5 46t-110.5 12.5h-402v-534h381q69 0 125.5 13t100.5 45t65.5 86
t21.5 124q0 69 -21 121.5zM752 1526h-172l-252 327h133l207 -211l207 211h129z" />
    <glyph glyph-name="rcaron" unicode="&#x159;" horiz-adv-x="834" 
d="M719 915q-32 19 -70 30t-92 11q-112 0 -172.5 -85.5t-60.5 -239.5v-631h-154v1075h154v-133q18 32 46 60.5t62.5 49.5t74.5 33.5t83 12.5q60 0 100 -7.5t68 -19.5zM504 1219h-172l-252 327h133l207 -211l207 211h129z" />
    <glyph glyph-name="Sacute" unicode="&#x15a;" horiz-adv-x="1212" 
d="M1069 377q0 -84 -32 -157t-93 -127t-149.5 -85t-200.5 -31q-73 0 -141.5 15t-130 41.5t-114.5 63t-95 79.5l106 119q82 -79 176 -125.5t205 -46.5q72 0 129 17t97 49t61.5 77.5t21.5 102.5q0 50 -16.5 90.5t-56 76t-105.5 68.5t-164 68q-116 41 -195 82.5t-127.5 90
t-69.5 108t-21 137.5q0 86 32.5 154t91 115t141 72t183.5 25q72 0 132.5 -10.5t113 -30t99 -48t91.5 -64.5l-102 -125q-39 32 -78 57t-80 42t-86.5 25.5t-99.5 8.5q-74 0 -127 -17t-86.5 -46.5t-49.5 -67.5t-16 -80q0 -45 13 -81t50 -69.5t103.5 -67t173.5 -71.5
q119 -43 199 -86.5t128 -94t68.5 -112t20.5 -141.5zM571 1526h-121l211 327h219z" />
    <glyph glyph-name="sacute" unicode="&#x15b;" horiz-adv-x="956" 
d="M809 983l-86 -113q-69 54 -127.5 75.5t-140.5 21.5q-85 0 -132 -37.5t-47 -95.5q0 -34 11.5 -59.5t39 -48.5t73.5 -46.5t114 -54.5q76 -35 136 -66t101 -69t63 -87.5t22 -121.5q0 -79 -31.5 -136.5t-83.5 -94.5t-118 -55t-136 -18q-112 0 -207 38t-172 100l90 112
q65 -57 139 -87.5t154 -30.5q111 0 164 43.5t53 121.5q0 33 -13 60t-42.5 52.5t-78 51t-120.5 56.5q-81 34 -138.5 66t-94.5 68.5t-54.5 83t-17.5 111.5q0 61 25 112t70 87t106.5 56t134.5 20q111 0 196.5 -32t147.5 -83zM444 1219h-121l211 327h219z" />
    <glyph glyph-name="Scircumflex" unicode="&#x15c;" horiz-adv-x="1212" 
d="M1069 377q0 -84 -32 -157t-93 -127t-149.5 -85t-200.5 -31q-73 0 -141.5 15t-130 41.5t-114.5 63t-95 79.5l106 119q82 -79 176 -125.5t205 -46.5q72 0 129 17t97 49t61.5 77.5t21.5 102.5q0 50 -16.5 90.5t-56 76t-105.5 68.5t-164 68q-116 41 -195 82.5t-127.5 90
t-69.5 108t-21 137.5q0 86 32.5 154t91 115t141 72t183.5 25q72 0 132.5 -10.5t113 -30t99 -48t91.5 -64.5l-102 -125q-39 32 -78 57t-80 42t-86.5 25.5t-99.5 8.5q-74 0 -127 -17t-86.5 -46.5t-49.5 -67.5t-16 -80q0 -45 13 -81t50 -69.5t103.5 -67t173.5 -71.5
q119 -43 199 -86.5t128 -94t68.5 -112t20.5 -141.5zM817 1516l-207 211l-207 -211h-129l252 327h172l252 -327h-133z" />
    <glyph glyph-name="scircumflex" unicode="&#x15d;" horiz-adv-x="956" 
d="M809 983l-86 -113q-69 54 -127.5 75.5t-140.5 21.5q-85 0 -132 -37.5t-47 -95.5q0 -34 11.5 -59.5t39 -48.5t73.5 -46.5t114 -54.5q76 -35 136 -66t101 -69t63 -87.5t22 -121.5q0 -79 -31.5 -136.5t-83.5 -94.5t-118 -55t-136 -18q-112 0 -207 38t-172 100l90 112
q65 -57 139 -87.5t154 -30.5q111 0 164 43.5t53 121.5q0 33 -13 60t-42.5 52.5t-78 51t-120.5 56.5q-81 34 -138.5 66t-94.5 68.5t-54.5 83t-17.5 111.5q0 61 25 112t70 87t106.5 56t134.5 20q111 0 196.5 -32t147.5 -83zM684 1201l-207 211l-207 -211h-129l252 327h172
l252 -327h-133z" />
    <glyph glyph-name="Scedilla" unicode="&#x15e;" horiz-adv-x="1212" 
d="M1069 377q0 -84 -32 -157t-93 -127t-149.5 -85t-200.5 -31q-73 0 -141.5 15t-130 41.5t-114.5 63t-95 79.5l106 119q82 -79 176 -125.5t205 -46.5q72 0 129 17t97 49t61.5 77.5t21.5 102.5q0 50 -16.5 90.5t-56 76t-105.5 68.5t-164 68q-116 41 -195 82.5t-127.5 90
t-69.5 108t-21 137.5q0 86 32.5 154t91 115t141 72t183.5 25q72 0 132.5 -10.5t113 -30t99 -48t91.5 -64.5l-102 -125q-39 32 -78 57t-80 42t-86.5 25.5t-99.5 8.5q-74 0 -127 -17t-86.5 -46.5t-49.5 -67.5t-16 -80q0 -45 13 -81t50 -69.5t103.5 -67t173.5 -71.5
q119 -43 199 -86.5t128 -94t68.5 -112t20.5 -141.5zM551 0h92l-35 -104q22 14 49 21t64 7q21 0 45 -7.5t44.5 -24t34 -43.5t13.5 -66q0 -50 -19.5 -84t-53 -55t-77.5 -30t-93 -9q-63 0 -125.5 19t-116.5 54l39 66q85 -55 188 -55q71 0 104 23t33 65q0 31 -16.5 49t-48.5 18
q-60 0 -98 -37l-74 29z" />
    <glyph glyph-name="scedilla" unicode="&#x15f;" horiz-adv-x="956" 
d="M809 983l-86 -113q-69 54 -127.5 75.5t-140.5 21.5q-85 0 -132 -37.5t-47 -95.5q0 -34 11.5 -59.5t39 -48.5t73.5 -46.5t114 -54.5q76 -35 136 -66t101 -69t63 -87.5t22 -121.5q0 -79 -31.5 -136.5t-83.5 -94.5t-118 -55t-136 -18q-112 0 -207 38t-172 100l90 112
q65 -57 139 -87.5t154 -30.5q111 0 164 43.5t53 121.5q0 33 -13 60t-42.5 52.5t-78 51t-120.5 56.5q-81 34 -138.5 66t-94.5 68.5t-54.5 83t-17.5 111.5q0 61 25 112t70 87t106.5 56t134.5 20q111 0 196.5 -32t147.5 -83zM424 0h92l-35 -104q22 14 49 21t64 7q21 0 45 -7.5
t44.5 -24t34 -43.5t13.5 -66q0 -50 -19.5 -84t-53 -55t-77.5 -30t-93 -9q-63 0 -125.5 19t-116.5 54l39 66q85 -55 188 -55q71 0 104 23t33 65q0 31 -16.5 49t-48.5 18q-60 0 -98 -37l-74 29z" />
    <glyph glyph-name="Scaron" unicode="&#x160;" horiz-adv-x="1212" 
d="M1069 377q0 -84 -32 -157t-93 -127t-149.5 -85t-200.5 -31q-73 0 -141.5 15t-130 41.5t-114.5 63t-95 79.5l106 119q82 -79 176 -125.5t205 -46.5q72 0 129 17t97 49t61.5 77.5t21.5 102.5q0 50 -16.5 90.5t-56 76t-105.5 68.5t-164 68q-116 41 -195 82.5t-127.5 90
t-69.5 108t-21 137.5q0 86 32.5 154t91 115t141 72t183.5 25q72 0 132.5 -10.5t113 -30t99 -48t91.5 -64.5l-102 -125q-39 32 -78 57t-80 42t-86.5 25.5t-99.5 8.5q-74 0 -127 -17t-86.5 -46.5t-49.5 -67.5t-16 -80q0 -45 13 -81t50 -69.5t103.5 -67t173.5 -71.5
q119 -43 199 -86.5t128 -94t68.5 -112t20.5 -141.5zM692 1526h-172l-252 327h133l207 -211l207 211h129z" />
    <glyph glyph-name="scaron" unicode="&#x161;" horiz-adv-x="956" 
d="M809 983l-86 -113q-69 54 -127.5 75.5t-140.5 21.5q-85 0 -132 -37.5t-47 -95.5q0 -34 11.5 -59.5t39 -48.5t73.5 -46.5t114 -54.5q76 -35 136 -66t101 -69t63 -87.5t22 -121.5q0 -79 -31.5 -136.5t-83.5 -94.5t-118 -55t-136 -18q-112 0 -207 38t-172 100l90 112
q65 -57 139 -87.5t154 -30.5q111 0 164 43.5t53 121.5q0 33 -13 60t-42.5 52.5t-78 51t-120.5 56.5q-81 34 -138.5 66t-94.5 68.5t-54.5 83t-17.5 111.5q0 61 25 112t70 87t106.5 56t134.5 20q111 0 196.5 -32t147.5 -83zM565 1219h-172l-252 327h133l207 -211l207 211h129z
" />
    <glyph glyph-name="Tcedilla" unicode="&#x162;" horiz-adv-x="1204" 
d="M682 1288v-1288h-160v1288h-422v146h1004v-146h-422zM555 0h92l-35 -104q22 14 49 21t64 7q21 0 45 -7.5t44.5 -24t34 -43.5t13.5 -66q0 -50 -19.5 -84t-53 -55t-77.5 -30t-93 -9q-63 0 -125.5 19t-116.5 54l39 66q85 -55 188 -55q71 0 104 23t33 65q0 31 -16.5 49
t-48.5 18q-60 0 -98 -37l-74 29z" />
    <glyph glyph-name="tcedilla" unicode="&#x163;" horiz-adv-x="762" 
d="M616 14q-45 -18 -90.5 -27.5t-107.5 -9.5q-50 0 -88 13t-64 42t-39.5 75.5t-13.5 113.5v725h-133v129h133v332l154 86v-418h266v-129h-266v-700q0 -36 5.5 -60.5t18 -40t33 -22t51.5 -6.5q47 0 81 7.5t71 22.5zM328 0h92l-35 -104q22 14 49 21t64 7q21 0 45 -7.5
t44.5 -24t34 -43.5t13.5 -66q0 -50 -19.5 -84t-53 -55t-77.5 -30t-93 -9q-63 0 -125.5 19t-116.5 54l39 66q85 -55 188 -55q71 0 104 23t33 65q0 31 -16.5 49t-48.5 18q-60 0 -98 -37l-74 29z" />
    <glyph glyph-name="Tcaron" unicode="&#x164;" horiz-adv-x="1204" 
d="M682 1288v-1288h-160v1288h-422v146h1004v-146h-422zM688 1526h-172l-252 327h133l207 -211l207 211h129z" />
    <glyph glyph-name="tcaron" unicode="&#x165;" horiz-adv-x="762" 
d="M635 1176h-84l24 370h170zM616 14q-45 -18 -90.5 -27.5t-107.5 -9.5q-50 0 -88 13t-64 42t-39.5 75.5t-13.5 113.5v725h-133v129h133v332l154 86v-418h266v-129h-266v-700q0 -36 5.5 -60.5t18 -40t33 -22t51.5 -6.5q47 0 81 7.5t71 22.5z" />
    <glyph glyph-name="Tbar" unicode="&#x166;" horiz-adv-x="1204" 
d="M682 663v-663h-160v663h-328v146h328v479h-422v146h1004v-146h-422v-479h329v-146h-329z" />
    <glyph glyph-name="tbar" unicode="&#x167;" horiz-adv-x="762" 
d="M616 14q-45 -18 -90.5 -27.5t-107.5 -9.5q-50 0 -88 13t-64 42t-39.5 75.5t-13.5 113.5v352h-133v129h133v244h-133v129h133v332l154 86v-418h266v-129h-266v-244h266v-129h-266v-327q0 -36 5.5 -60.5t18 -40t33 -22t51.5 -6.5q47 0 81 7.5t71 22.5z" />
    <glyph glyph-name="Utilde" unicode="&#x168;" horiz-adv-x="1389" 
d="M1210 582q0 -165 -38.5 -281.5t-105.5 -186.5t-158 -103.5t-212 -33.5t-213 33.5t-160 103.5t-106.5 186.5t-38.5 281.5v852h160v-848q0 -234 90 -348.5t277 -114.5q183 0 264.5 111.5t81.5 347.5v852h159v-852zM1059 1806q0 -68 -17 -118t-46 -83t-67 -49t-79 -16
t-77.5 12t-74 40.5t-56 42.5t-28.5 20q-22 15 -39.5 21.5t-38.5 6.5q-33 0 -52 -32t-28 -105h-127q0 68 17 118t46 83t67 49t79 16t77.5 -12t74 -40.5t56 -42.5t28.5 -20q22 -15 39.5 -21.5t38.5 -6.5q32 0 51 32.5t29 104.5h127z" />
    <glyph glyph-name="utilde" unicode="&#x169;" horiz-adv-x="1161" 
d="M838 0v131q-47 -69 -122 -111.5t-175 -42.5q-182 0 -279.5 112.5t-97.5 330.5v655h153v-629q0 -174 62 -254.5t192 -80.5q123 0 195 86t72 249v629h153v-1075h-153zM945 1491q0 -68 -17 -118t-46 -83t-67 -49t-79 -16t-77.5 12t-74 40.5t-56 42.5t-28.5 20
q-22 15 -39.5 21.5t-38.5 6.5q-33 0 -52 -32t-28 -105h-127q0 68 17 118t46 83t67 49t79 16t77.5 -12t74 -40.5t56 -42.5t28.5 -20q22 -15 39.5 -21.5t38.5 -6.5q32 0 51 32.5t29 104.5h127z" />
    <glyph glyph-name="Umacron" unicode="&#x16a;" horiz-adv-x="1389" 
d="M1210 582q0 -165 -38.5 -281.5t-105.5 -186.5t-158 -103.5t-212 -33.5t-213 33.5t-160 103.5t-106.5 186.5t-38.5 281.5v852h160v-848q0 -234 90 -348.5t277 -114.5q183 0 264.5 111.5t81.5 347.5v852h159v-852zM415 1573v143h558v-143h-558z" />
    <glyph glyph-name="umacron" unicode="&#x16b;" horiz-adv-x="1161" 
d="M838 0v131q-47 -69 -122 -111.5t-175 -42.5q-182 0 -279.5 112.5t-97.5 330.5v655h153v-629q0 -174 62 -254.5t192 -80.5q123 0 195 86t72 249v629h153v-1075h-153zM301 1266v143h558v-143h-558z" />
    <glyph glyph-name="Ubreve" unicode="&#x16c;" horiz-adv-x="1389" 
d="M1210 582q0 -165 -38.5 -281.5t-105.5 -186.5t-158 -103.5t-212 -33.5t-213 33.5t-160 103.5t-106.5 186.5t-38.5 281.5v852h160v-848q0 -234 90 -348.5t277 -114.5q183 0 264.5 111.5t81.5 347.5v852h159v-852zM1011 1705.5q-25 -60.5 -69 -102.5t-107 -64.5t-143 -22.5
q-75 0 -136.5 22.5t-106.5 64.5t-71 102.5t-30 137.5h127q9 -111 64 -162t157 -51q95 0 152 51.5t67 161.5h125q-4 -77 -29 -137.5z" />
    <glyph glyph-name="ubreve" unicode="&#x16d;" horiz-adv-x="1161" 
d="M838 0v131q-47 -69 -122 -111.5t-175 -42.5q-182 0 -279.5 112.5t-97.5 330.5v655h153v-629q0 -174 62 -254.5t192 -80.5q123 0 195 86t72 249v629h153v-1075h-153zM897 1408.5q-25 -60.5 -69 -102.5t-107 -64.5t-143 -22.5q-75 0 -136.5 22.5t-106.5 64.5t-71 102.5
t-30 137.5h127q9 -111 64 -162t157 -51q95 0 152 51.5t67 161.5h125q-4 -77 -29 -137.5z" />
    <glyph glyph-name="Uring" unicode="&#x16e;" horiz-adv-x="1389" 
d="M1210 582q0 -165 -38.5 -281.5t-105.5 -186.5t-158 -103.5t-212 -33.5t-213 33.5t-160 103.5t-106.5 186.5t-38.5 281.5v852h160v-848q0 -234 90 -348.5t277 -114.5q183 0 264.5 111.5t81.5 347.5v852h159v-852zM934 1727q0 -50 -18 -93.5t-50 -76t-76 -51t-96 -18.5
t-96 18.5t-76 51t-50 76t-18 93.5t18 93.5t50 75.5t76 50.5t96 18.5t96 -18.5t76 -50.5t50 -75.5t18 -93.5zM837 1727q0 31 -10 58t-28.5 46.5t-45 30.5t-59.5 11t-59.5 -11t-45 -30.5t-28.5 -46.5t-10 -58q0 -32 10 -59t28.5 -46.5t45 -30.5t59.5 -11t59.5 11t45 30.5
t28.5 46.5t10 59z" />
    <glyph glyph-name="uring" unicode="&#x16f;" horiz-adv-x="1161" 
d="M838 0v131q-47 -69 -122 -111.5t-175 -42.5q-182 0 -279.5 112.5t-97.5 330.5v655h153v-629q0 -174 62 -254.5t192 -80.5q123 0 195 86t72 249v629h153v-1075h-153zM820 1466q0 -50 -18 -93.5t-50 -76t-76 -51t-96 -18.5t-96 18.5t-76 51t-50 76t-18 93.5t18 93.5
t50 75.5t76 50.5t96 18.5t96 -18.5t76 -50.5t50 -75.5t18 -93.5zM723 1466q0 31 -10 58t-28.5 46.5t-45 30.5t-59.5 11t-59.5 -11t-45 -30.5t-28.5 -46.5t-10 -58q0 -32 10 -59t28.5 -46.5t45 -30.5t59.5 -11t59.5 11t45 30.5t28.5 46.5t10 59z" />
    <glyph glyph-name="Uhungarumlaut" unicode="&#x170;" horiz-adv-x="1389" 
d="M1210 582q0 -165 -38.5 -281.5t-105.5 -186.5t-158 -103.5t-212 -33.5t-213 33.5t-160 103.5t-106.5 186.5t-38.5 281.5v852h160v-848q0 -234 90 -348.5t277 -114.5q183 0 264.5 111.5t81.5 347.5v852h159v-852zM883 1526h-115l191 327h204zM520 1526h-114l190 327h205z
" />
    <glyph glyph-name="uhungarumlaut" unicode="&#x171;" horiz-adv-x="1161" 
d="M838 0v131q-47 -69 -122 -111.5t-175 -42.5q-182 0 -279.5 112.5t-97.5 330.5v655h153v-629q0 -174 62 -254.5t192 -80.5q123 0 195 86t72 249v629h153v-1075h-153zM791 1219h-115l191 327h204zM428 1219h-114l190 327h205z" />
    <glyph glyph-name="Uogonek" unicode="&#x172;" horiz-adv-x="1389" 
d="M1051 582v852h159v-848q0 -124 -20 -217t-63.5 -171t-108 -127t-156.5 -73q-101 -47 -160 -101t-59 -108q0 -34 18 -47.5t44 -13.5q20 0 40.5 8.5t34.5 21.5l70 -102q-34 -34 -81.5 -50t-100.5 -16q-37 0 -71.5 11t-61 32t-42.5 50.5t-16 66.5q0 65 48 124.5t120 105.5
q-123 8 -209 51.5t-144.5 121t-86 186.5t-27.5 243v852h160v-848q0 -111 20.5 -196.5t65.5 -145.5t114 -90.5t167 -30.5q93 0 158.5 28t107 85t61 143.5t19.5 202.5z" />
    <glyph glyph-name="uogonek" unicode="&#x173;" horiz-adv-x="1161" 
d="M838 0v131q-47 -69 -122 -111.5t-175 -42.5q-182 0 -279.5 112.5t-97.5 330.5v655h153v-629q0 -174 62 -254.5t192 -80.5q123 0 195 86t72 249v629h153v-1075h-153zM991 0q-42 -24 -72 -43t-60.5 -43t-52.5 -57t-22 -68q0 -34 17.5 -47.5t43.5 -13.5q21 0 41 8.5t35 21.5
l70 -102q-34 -33 -81.5 -49.5t-101.5 -16.5q-37 0 -71 11t-60.5 32t-42.5 50.5t-16 66.5q0 51 20.5 91t51.5 68.5t63 49t84 41.5h154z" />
    <glyph glyph-name="Wcircumflex" unicode="&#x174;" horiz-adv-x="1753" 
d="M1637 1434l-287 -1434h-181l-294 1202l-295 -1202h-177l-286 1434h159l220 -1208l297 1208h172l295 -1208l221 1208h156zM1084 1485l-207 211l-207 -211h-129l252 327h172l252 -327h-133z" />
    <glyph glyph-name="wcircumflex" unicode="&#x175;" horiz-adv-x="1495" 
d="M1114 0h-141l-228 846l-227 -846h-137l-285 1075h158l199 -840l227 840h139l228 -840l198 840h154zM953 1211l-207 211l-207 -211h-129l252 327h172l252 -327h-133z" />
    <glyph glyph-name="Ycircumflex" unicode="&#x176;" horiz-adv-x="1335" 
d="M1239 1434l-491 -865v-569h-160v567l-492 867h183l390 -703l392 703h178zM873 1526l-207 211l-207 -211h-129l252 327h172l252 -327h-133z" />
    <glyph glyph-name="ycircumflex" unicode="&#x177;" horiz-adv-x="1087" 
d="M471 -379h-154l148 391l-383 1063h162l299 -891l301 891h162zM748 1219l-207 211l-207 -211h-129l252 327h172l252 -327h-133z" />
    <glyph glyph-name="Ydieresis" unicode="&#x178;" horiz-adv-x="1335" 
d="M1239 1434l-491 -865v-569h-160v567l-492 867h183l390 -703l392 703h178zM977 1635q0 -23 -9 -43.5t-24 -36t-35.5 -24.5t-43.5 -9t-43.5 9t-36 24.5t-24.5 36t-9 43.5t9 43.5t24.5 36.5t36 25t43.5 9t43.5 -9t35.5 -25t24 -36.5t9 -43.5zM580 1635q0 -23 -9 -43.5
t-24 -36t-35.5 -24.5t-42.5 -9q-24 0 -44.5 9t-36 24.5t-24.5 36t-9 43.5t9 43.5t24.5 36.5t36 25t44.5 9q22 0 42.5 -9t35.5 -25t24 -36.5t9 -43.5z" />
    <glyph glyph-name="Zacute" unicode="&#x179;" horiz-adv-x="1286" 
d="M1149 0h-1024v139l848 1155h-807v140h983v-140l-848 -1155h848v-139zM608 1526h-121l211 327h219z" />
    <glyph glyph-name="zacute" unicode="&#x17a;" horiz-adv-x="1008" 
d="M111 0v113l587 833h-540v129h714v-112l-587 -834h587v-129h-761zM471 1219h-121l211 327h219z" />
    <glyph glyph-name="Zdotaccent" unicode="&#x17b;" horiz-adv-x="1286" 
d="M1149 0h-1024v139l848 1155h-807v140h983v-140l-848 -1155h848v-139zM756 1655q0 -23 -9 -43.5t-24.5 -36t-36 -24.5t-43.5 -9t-43.5 9t-36 24.5t-24.5 36t-9 43.5t9 43.5t24.5 36.5t36 25t43.5 9t43.5 -9t36 -25t24.5 -36.5t9 -43.5z" />
    <glyph glyph-name="zdotaccent" unicode="&#x17c;" horiz-adv-x="1008" 
d="M111 0v113l587 833h-540v129h714v-112l-587 -834h587v-129h-761zM619 1348q0 -23 -9 -43.5t-24.5 -36t-36 -24.5t-43.5 -9t-43.5 9t-36 24.5t-24.5 36t-9 43.5t9 43.5t24.5 36.5t36 25t43.5 9t43.5 -9t36 -25t24.5 -36.5t9 -43.5z" />
    <glyph glyph-name="Zcaron" unicode="&#x17d;" horiz-adv-x="1286" 
d="M1149 0h-1024v139l848 1155h-807v140h983v-140l-848 -1155h848v-139zM729 1526h-172l-252 327h133l207 -211l207 211h129z" />
    <glyph glyph-name="zcaron" unicode="&#x17e;" horiz-adv-x="1008" 
d="M111 0v113l587 833h-540v129h714v-112l-587 -834h587v-129h-761zM592 1219h-172l-252 327h133l207 -211l207 211h129z" />
    <glyph glyph-name="longs" unicode="&#x17f;" horiz-adv-x="729" 
d="M244 1223q0 72 18.5 122t52 81.5t80.5 46t103 14.5q46 0 76.5 -4.5t58.5 -14.5v-145q-26 12 -57 18.5t-68 6.5q-24 0 -44.5 -5t-35 -18t-23 -34.5t-8.5 -55.5v-1235h-153v1223z" />
    <glyph glyph-name="uni018F" unicode="&#x18f;" horiz-adv-x="1436" 
d="M127 821h1016q-10 111 -46 200t-90.5 153.5t-125 100.5t-154.5 36q-115 0 -190.5 -44t-143.5 -137l-127 97q45 61 95.5 104t110.5 72t125 41t134 12q133 0 239.5 -56.5t182.5 -154.5t116 -234.5t40 -295.5q0 -125 -35 -266.5t-120 -255t-195.5 -165t-239.5 -51.5
q-133 0 -242.5 54.5t-186.5 153t-120 233.5t-43 297v0v106zM319 473q35 -108 93.5 -186t138.5 -121t174 -43q86 0 162 41t131 112.5t90 174t39 225.5h-860q6 -111 32 -203z" />
    <glyph glyph-name="florin" unicode="&#x192;" 
d="M1108 1292q-28 11 -78.5 18t-107.5 7q-87 0 -139 -36t-70 -120l-19 -86h322l-27 -129h-321l-203 -946h-154l203 946h-250l27 129h250l16 80q17 83 50 140.5t81.5 93t112 51.5t141.5 16q65 0 116.5 -6t80.5 -12z" />
    <glyph glyph-name="Aringacute" unicode="&#x1fa;" horiz-adv-x="1389" 
d="M1112 0l-123 365h-592l-125 -365h-163l471 1348q-59 31 -93 87t-34 128q0 50 18 93t49.5 75t75.5 50.5t96 18.5t96 -18.5t76 -50.5t50 -75t18 -93q0 -70 -34 -126t-91 -87l473 -1350h-168zM836 1563q0 32 -10 59.5t-29 47t-45.5 30.5t-59.5 11t-59.5 -11t-45 -30.5
t-28.5 -47t-10 -59.5t10 -59.5t28.5 -47t45 -30.5t59.5 -11t59.5 11t45.5 30.5t29 47t10 59.5zM940 510l-246 733l-248 -733h494zM647 1854h-121l211 327h219z" />
    <glyph glyph-name="aringacute" unicode="&#x1fb;" horiz-adv-x="1104" 
d="M786 0v131q-28 -31 -62.5 -59t-76 -49t-90.5 -33.5t-106 -12.5q-63 0 -125 17t-110.5 57.5t-79 106.5t-30.5 164q0 90 34.5 155t91.5 107t131.5 62t154.5 20q82 0 151 -18t117 -44v127q0 121 -57 179.5t-176 58.5q-85 0 -156 -22t-137 -60l-57 125q71 38 163 62t197 24
q87 0 157 -19.5t118.5 -61.5t75 -108t26.5 -159v-750h-154zM786 481q-26 15 -54 26.5t-61 19.5t-72.5 12t-88.5 4q-119 0 -185.5 -54.5t-66.5 -156.5q0 -60 16 -103.5t44.5 -71.5t69 -41.5t89.5 -13.5q52 0 97.5 12.5t84.5 34.5t71 51.5t56 63.5v217zM795 1466
q0 -50 -18 -93.5t-50 -76t-76 -51t-96 -18.5t-96 18.5t-76 51t-50 76t-18 93.5t18 93.5t50 75.5t76 50.5t96 18.5t96 -18.5t76 -50.5t50 -75.5t18 -93.5zM698 1466q0 31 -10 58t-28.5 46.5t-45 30.5t-59.5 11t-59.5 -11t-45 -30.5t-28.5 -46.5t-10 -58q0 -32 10 -59
t28.5 -46.5t45 -30.5t59.5 -11t59.5 11t45 30.5t28.5 46.5t10 59zM508 1803h-121l211 327h219z" />
    <glyph glyph-name="AEacute" unicode="&#x1fc;" horiz-adv-x="2044" 
d="M1896 1434v-146h-714v-450h575v-146h-575v-547h745v-145h-897v365h-559l-240 -365h-182l963 1434h884zM565 510h465v706zM1065 1526h-121l211 327h219z" />
    <glyph glyph-name="aeacute" unicode="&#x1fd;" horiz-adv-x="1716" 
d="M1599 569q0 -28 -1.5 -46.5t-4.5 -37.5h-688q6 -86 26.5 -155t56 -118t86 -75t116.5 -26q47 0 83 6.5t68 19.5t63.5 32t68.5 44l71 -111q-48 -31 -89.5 -54.5t-83.5 -39t-89.5 -23.5t-107.5 -8q-94 0 -181.5 44t-150.5 143q-90 -104 -183 -145.5t-223 -41.5
q-63 0 -122.5 17t-105.5 57.5t-74 106.5t-28 164q0 90 32 155t87 107t127 62t152 20q81 0 143.5 -18t110.5 -44v127q0 121 -50.5 179.5t-168.5 58.5q-88 0 -156.5 -24.5t-122.5 -57.5l-57 125q71 38 156 62t190 24q143 0 219 -52t94 -143q48 93 128 144t192 51
q105 0 183.5 -39.5t130 -109.5t77.5 -167.5t26 -212.5zM1456 610q-5 78 -22 143.5t-50 112.5t-83.5 73t-120.5 26q-67 0 -116.5 -26t-82.5 -73t-51.5 -112.5t-24.5 -143.5h551zM754 483q-26 14 -51 25t-55 19t-67 12t-85 4q-119 0 -178.5 -54.5t-59.5 -156.5
q0 -120 53.5 -175t151.5 -55q37 0 77.5 9t82 30.5t83 56.5t80.5 87q-14 43 -21.5 92t-10.5 106zM837 1219h-121l211 327h219z" />
    <glyph glyph-name="Oslashacute" unicode="&#x1fe;" horiz-adv-x="1444" 
d="M1317 719q0 -162 -43.5 -298t-122 -235t-189 -154t-243.5 -55q-134 0 -254 60l-64 -139h-141l98 213q-111 99 -171 253.5t-60 350.5q0 162 43 298t121.5 234.5t188 153.5t243.5 55q122 0 227 -47l58 127h141l-88 -195q60 -47 107.5 -111t80.5 -143.5t50.5 -172
t17.5 -195.5zM889 1276q-80 41 -172 41q-94 0 -173.5 -42.5t-138 -120.5t-91.5 -188.5t-33 -246.5q0 -147 38.5 -263.5t106.5 -195.5zM1163 715q0 159 -45 282t-123 201l-469 -1026q89 -55 199 -55q94 0 174 42t138.5 120t92 188.5t33.5 247.5zM743 1526h-121l211 327h219z
" />
    <glyph glyph-name="oslashacute" unicode="&#x1ff;" horiz-adv-x="1159" 
d="M1047 545q0 -137 -37 -243t-100.5 -178t-149.5 -109.5t-185 -37.5q-95 0 -176 33l-53 -112h-135l84 176q-85 68 -133.5 184.5t-48.5 278.5q0 136 36.5 241t100.5 176t150 107.5t184 36.5q49 0 94.5 -9t87.5 -26l55 115h135l-86 -179q82 -68 129.5 -181.5t47.5 -272.5z
M709 942q-58 27 -129 27t-129 -27t-99.5 -80.5t-64.5 -134t-23 -186.5q0 -113 24.5 -195.5t69.5 -138.5zM897 541q0 108 -23.5 188.5t-66.5 134.5l-350 -733q58 -25 123 -25q70 0 128.5 28t100.5 82.5t65 136t23 188.5zM602 1219h-121l211 327h219z" />
    <glyph glyph-name="Scommaaccent" unicode="&#x218;" horiz-adv-x="1212" 
d="M1069 377q0 -84 -32 -157t-93 -127t-149.5 -85t-200.5 -31q-73 0 -141.5 15t-130 41.5t-114.5 63t-95 79.5l106 119q82 -79 176 -125.5t205 -46.5q72 0 129 17t97 49t61.5 77.5t21.5 102.5q0 50 -16.5 90.5t-56 76t-105.5 68.5t-164 68q-116 41 -195 82.5t-127.5 90
t-69.5 108t-21 137.5q0 86 32.5 154t91 115t141 72t183.5 25q72 0 132.5 -10.5t113 -30t99 -48t91.5 -64.5l-102 -125q-39 32 -78 57t-80 42t-86.5 25.5t-99.5 8.5q-74 0 -127 -17t-86.5 -46.5t-49.5 -67.5t-16 -80q0 -45 13 -81t50 -69.5t103.5 -67t173.5 -71.5
q119 -43 199 -86.5t128 -94t68.5 -112t20.5 -141.5zM586 -491h-84l24 385h170z" />
    <glyph glyph-name="scommaaccent" unicode="&#x219;" horiz-adv-x="956" 
d="M809 983l-86 -113q-69 54 -127.5 75.5t-140.5 21.5q-85 0 -132 -37.5t-47 -95.5q0 -34 11.5 -59.5t39 -48.5t73.5 -46.5t114 -54.5q76 -35 136 -66t101 -69t63 -87.5t22 -121.5q0 -79 -31.5 -136.5t-83.5 -94.5t-118 -55t-136 -18q-112 0 -207 38t-172 100l90 112
q65 -57 139 -87.5t154 -30.5q111 0 164 43.5t53 121.5q0 33 -13 60t-42.5 52.5t-78 51t-120.5 56.5q-81 34 -138.5 66t-94.5 68.5t-54.5 83t-17.5 111.5q0 61 25 112t70 87t106.5 56t134.5 20q111 0 196.5 -32t147.5 -83zM457 -491h-84l24 385h170z" />
    <glyph glyph-name="Tcommaaccent" unicode="&#x21a;" horiz-adv-x="1204" 
d="M682 1288v-1288h-160v1288h-422v146h1004v-146h-422zM582 -491h-84l24 385h170z" />
    <glyph glyph-name="tcommaaccent" unicode="&#x21b;" horiz-adv-x="762" 
d="M616 14q-45 -18 -90.5 -27.5t-107.5 -9.5q-50 0 -88 13t-64 42t-39.5 75.5t-13.5 113.5v725h-133v129h133v332l154 86v-418h266v-129h-266v-700q0 -36 5.5 -60.5t18 -40t33 -22t51.5 -6.5q47 0 81 7.5t71 22.5zM361 -491h-84l24 385h170z" />
    <glyph glyph-name="afii10846" unicode="&#x259;" horiz-adv-x="1106" 
d="M113 506q0 29 2 47t4 37h717q-7 86 -29.5 154.5t-60 117.5t-91 76t-118.5 27q-48 0 -85.5 -7.5t-72.5 -19.5t-69 -31.5t-70 -44.5l-72 111q47 31 91 54.5t89 38.5t94.5 23.5t110.5 8.5q49 0 100.5 -12.5t100.5 -40t92 -71.5t74.5 -107.5t50 -146.5t18.5 -188
q0 -129 -33.5 -231t-92 -175t-140.5 -111t-178 -38q-105 0 -185.5 39t-135 110t-83 168t-28.5 212zM256 465q4 -78 23.5 -143.5t55.5 -112.5t89 -72.5t123 -25.5q59 0 109.5 21.5t88 65.5t61 110.5t30.5 156.5h-580z" />
    <glyph glyph-name="circumflex" unicode="&#x2c6;" horiz-adv-x="1024" 
d="M717 1219l-207 211l-207 -211h-129l252 327h172l252 -327h-133z" />
    <glyph glyph-name="caron" unicode="&#x2c7;" horiz-adv-x="1024" 
d="M598 1219h-172l-252 327h133l207 -211l207 211h129z" />
    <glyph glyph-name="breve" unicode="&#x2d8;" horiz-adv-x="1024" 
d="M829 1408.5q-25 -60.5 -69 -102.5t-107 -64.5t-143 -22.5q-75 0 -136.5 22.5t-106.5 64.5t-71 102.5t-30 137.5h127q9 -111 64 -162t157 -51q95 0 152 51.5t67 161.5h125q-4 -77 -29 -137.5z" />
    <glyph glyph-name="dotaccent" unicode="&#x2d9;" horiz-adv-x="1024" 
d="M625 1348q0 -23 -9 -43.5t-24.5 -36t-36 -24.5t-43.5 -9t-43.5 9t-36 24.5t-24.5 36t-9 43.5t9 43.5t24.5 36.5t36 25t43.5 9t43.5 -9t36 -25t24.5 -36.5t9 -43.5z" />
    <glyph glyph-name="ring" unicode="&#x2da;" horiz-adv-x="1024" 
d="M752 1466q0 -50 -18 -93.5t-50 -76t-76 -51t-96 -18.5t-96 18.5t-76 51t-50 76t-18 93.5t18 93.5t50 75.5t76 50.5t96 18.5t96 -18.5t76 -50.5t50 -75.5t18 -93.5zM655 1466q0 31 -10 58t-28.5 46.5t-45 30.5t-59.5 11t-59.5 -11t-45 -30.5t-28.5 -46.5t-10 -58
q0 -32 10 -59t28.5 -46.5t45 -30.5t59.5 -11t59.5 11t45 30.5t28.5 46.5t10 59z" />
    <glyph glyph-name="ogonek" unicode="&#x2db;" horiz-adv-x="1024" 
d="M621 0q-42 -24 -72 -43t-60.5 -43t-52.5 -57t-22 -68q0 -34 17.5 -47.5t43.5 -13.5q21 0 41 8.5t35 21.5l70 -102q-34 -33 -81.5 -49.5t-101.5 -16.5q-37 0 -71 11t-60.5 32t-42.5 50.5t-16 66.5q0 51 20.5 91t51.5 68.5t63 49t84 41.5h154z" />
    <glyph glyph-name="tilde" unicode="&#x2dc;" horiz-adv-x="1024" 
d="M877 1491q0 -68 -17 -118t-46 -83t-67 -49t-79 -16t-77.5 12t-74 40.5t-56 42.5t-28.5 20q-22 15 -39.5 21.5t-38.5 6.5q-33 0 -52 -32t-28 -105h-127q0 68 17 118t46 83t67 49t79 16t77.5 -12t74 -40.5t56 -42.5t28.5 -20q22 -15 39.5 -21.5t38.5 -6.5q32 0 51 32.5
t29 104.5h127z" />
    <glyph glyph-name="hungarumlaut" unicode="&#x2dd;" horiz-adv-x="1024" 
d="M629 1219h-115l191 327h204zM266 1219h-114l190 327h205z" />
    <glyph glyph-name="tonos" unicode="&#x384;" horiz-adv-x="1024" 
d="M477 1219h-121l211 327h219z" />
    <glyph glyph-name="dieresistonos" unicode="&#x385;" horiz-adv-x="1188" 
d="M582 1239h-121l170 328h219zM987 1327q0 -23 -9 -43.5t-24.5 -36t-36 -24.5t-43.5 -9t-43.5 9t-35.5 24.5t-24 36t-9 43.5t9 44t24 36.5t35.5 25t43.5 9.5t43.5 -9.5t36 -25t24.5 -36.5t9 -44zM426 1327q0 -23 -9 -43.5t-24 -36t-35.5 -24.5t-42.5 -9q-24 0 -44.5 9
t-36 24.5t-24.5 36t-9 43.5t9 44t24.5 36.5t36 25t44.5 9.5q22 0 42.5 -9.5t35.5 -25t24 -36.5t9 -44z" />
    <glyph glyph-name="Alphatonos" unicode="&#x386;" horiz-adv-x="1389" 
d="M1280 0h-168l-123 365h-592l-125 -365h-163l497 1434h176zM940 510l-246 733l-248 -733h494zM61 1110h-121l211 327h219z" />
    <glyph glyph-name="Epsilontonos" unicode="&#x388;" horiz-adv-x="1202" 
d="M1085 0h-897v1434h867v-146h-707v-450h572v-146h-572v-547h737v-145zM-253 1110h-121l211 327h219z" />
    <glyph glyph-name="Etatonos" unicode="&#x389;" horiz-adv-x="1409" 
d="M1061 0v676h-713v-676h-160v1434h160v-613h713v613h160v-1434h-160zM-252 1110h-121l211 327h219z" />
    <glyph glyph-name="Iotatonos" unicode="&#x38a;" horiz-adv-x="557" 
d="M199 0v1434h159v-1434h-159zM-242 1110h-121l211 327h219z" />
    <glyph glyph-name="Omicrontonos" unicode="&#x38c;" horiz-adv-x="1444" 
d="M1317 719q0 -162 -43.5 -298t-122 -235t-189 -154t-243.5 -55q-134 0 -243 54.5t-186.5 152.5t-120 233.5t-42.5 297.5t43 298t121.5 234.5t188 153.5t243.5 55q133 0 242.5 -54.5t187.5 -152t121 -233t43 -297.5zM1157 715q0 135 -33.5 245t-92.5 188t-139.5 120.5
t-174.5 42.5q-93 0 -172 -42t-136 -119t-89.5 -186.5t-32.5 -244.5t33.5 -245t92 -188t138.5 -120.5t174 -42.5q93 0 172 41.5t137 119t90.5 187t32.5 244.5zM-109 1110h-121l211 327h219z" />
    <glyph glyph-name="Upsilontonos" unicode="&#x38e;" horiz-adv-x="1335" 
d="M1239 1434l-491 -865v-569h-160v567l-492 867h183l390 -703l392 703h178zM-253 1110h-121l211 327h219z" />
    <glyph glyph-name="Omegatonos" unicode="&#x38f;" horiz-adv-x="1483" 
d="M295 772q0 -99 23 -184t66 -161t104 -145.5t137 -136.5v-145h-473v145h294q-81 68 -134.5 131.5t-96 148t-61.5 167t-19 166.5q0 157 45.5 286t126.5 220.5t192 141.5t242 50q132 0 243 -50t192 -141.5t126.5 -220.5t45.5 -286q0 -85 -19.5 -168t-58.5 -161.5
t-97.5 -150.5t-136.5 -133h295v-145h-473v145q76 67 137 136.5t104 145.5t66 161t23 184q0 127 -36.5 227.5t-98 169.5t-143 105.5t-171.5 36.5t-170.5 -36.5t-141 -105.5t-96.5 -169.5t-36 -227.5zM-109 1110h-121l211 327h219z" />
    <glyph glyph-name="iotadieresistonos" unicode="&#x390;" horiz-adv-x="514" 
d="M180 0v1075h154v-1075h-154zM291 1239h-121l170 328h219zM696 1327q0 -23 -9 -43.5t-24.5 -36t-36 -24.5t-43.5 -9t-43.5 9t-35.5 24.5t-24 36t-9 43.5t9 44t24 36.5t35.5 25t43.5 9.5t43.5 -9.5t36 -25t24.5 -36.5t9 -44zM135 1327q0 -23 -9 -43.5t-24 -36t-35.5 -24.5
t-42.5 -9q-24 0 -44.5 9t-36 24.5t-24.5 36t-9 43.5t9 44t24.5 36.5t36 25t44.5 9.5q22 0 42.5 -9.5t35.5 -25t24 -36.5t9 -44z" />
    <glyph glyph-name="Alpha" unicode="&#x391;" horiz-adv-x="1389" 
d="M1280 0h-168l-123 365h-592l-125 -365h-163l497 1434h176zM940 510l-246 733l-248 -733h494z" />
    <glyph glyph-name="Beta" unicode="&#x392;" horiz-adv-x="1282" 
d="M1169 424q0 -212 -120.5 -318t-346.5 -106h-514v1434h525q85 0 156.5 -21.5t123 -66t80.5 -112t29 -159.5q0 -59 -15.5 -106t-43 -83t-65.5 -62t-83 -42q72 -19 123.5 -52.5t84 -78t49.5 -101.5t17 -126zM942 1069q0 49 -14.5 89.5t-43.5 69t-73 44.5t-104 16h-359v-446
h346q67 0 114 18t77 48.5t43.5 72t13.5 88.5zM1010 416q0 67 -21.5 119.5t-61 88.5t-96 55t-126.5 19h-357v-553h365q81 0 137.5 19.5t92 54.5t51.5 85t16 112z" />
    <glyph glyph-name="Gamma" unicode="&#x393;" horiz-adv-x="1071" 
d="M348 1288v-1288h-160v1434h801v-146h-641z" />
    <glyph glyph-name="uni0394" unicode="&#x394;" horiz-adv-x="1405" 
d="M96 0l522 1434h173l518 -1434h-1213zM315 145h772l-384 1105z" />
    <glyph glyph-name="Epsilon" unicode="&#x395;" horiz-adv-x="1202" 
d="M1085 0h-897v1434h867v-146h-707v-450h572v-146h-572v-547h737v-145z" />
    <glyph glyph-name="Zeta" unicode="&#x396;" horiz-adv-x="1286" 
d="M1149 0h-1024v139l848 1155h-807v140h983v-140l-848 -1155h848v-139z" />
    <glyph glyph-name="Eta" unicode="&#x397;" horiz-adv-x="1409" 
d="M1061 0v676h-713v-676h-160v1434h160v-613h713v613h160v-1434h-160z" />
    <glyph glyph-name="Theta" unicode="&#x398;" horiz-adv-x="1468" 
d="M485 821h498v-145h-498v145zM1186 715q0 133 -33.5 242.5t-94 188t-144.5 122t-185 43.5t-183 -42t-140.5 -119t-90.5 -186.5t-32 -244.5t33 -245t93 -188t143.5 -120.5t184.5 -42.5q100 0 182.5 41.5t142 119t92 187t32.5 244.5zM1346 713q0 -162 -43.5 -297.5
t-124 -233t-194 -151.5t-253.5 -54t-252.5 54.5t-191.5 152.5t-121.5 233.5t-42.5 297.5t43 298t123 234.5t193 153.5t253 55q141 0 254 -55.5t192.5 -154t122 -235t42.5 -298.5z" />
    <glyph glyph-name="Iota" unicode="&#x399;" horiz-adv-x="557" 
d="M199 0v1434h159v-1434h-159z" />
    <glyph glyph-name="Kappa" unicode="&#x39a;" horiz-adv-x="1315" 
d="M1227 0h-183l-423 764l-273 -352v-412h-160v1434h160v-809l625 809h174l-420 -539z" />
    <glyph glyph-name="Lambda" unicode="&#x39b;" horiz-adv-x="1364" 
d="M279 0h-164l479 1434h176l479 -1434h-166l-401 1237z" />
    <glyph glyph-name="Mu" unicode="&#x39c;" horiz-adv-x="1614" 
d="M1425 0h-153v1094l-469 -1131l-461 1131v-1094h-154v1434h179l440 -1117l444 1117h174v-1434z" />
    <glyph glyph-name="Nu" unicode="&#x39d;" horiz-adv-x="1409" 
d="M1221 0h-150l-729 1141v-1141h-154v1434h156l723 -1164v1164h154v-1434z" />
    <glyph glyph-name="Xi" unicode="&#x39e;" horiz-adv-x="1237" 
d="M137 0v145h402v547h-250v146h250v450h-385v146h929v-146h-385v-450h250v-146h-250v-547h402v-145h-963z" />
    <glyph glyph-name="Omicron" unicode="&#x39f;" horiz-adv-x="1444" 
d="M1317 719q0 -162 -43.5 -298t-122 -235t-189 -154t-243.5 -55q-134 0 -243 54.5t-186.5 152.5t-120 233.5t-42.5 297.5t43 298t121.5 234.5t188 153.5t243.5 55q133 0 242.5 -54.5t187.5 -152t121 -233t43 -297.5zM1157 715q0 135 -33.5 245t-92.5 188t-139.5 120.5
t-174.5 42.5q-93 0 -172 -42t-136 -119t-89.5 -186.5t-32.5 -244.5t33.5 -245t92 -188t138.5 -120.5t174 -42.5q93 0 172 41.5t137 119t90.5 187t32.5 244.5z" />
    <glyph glyph-name="Pi" unicode="&#x3a0;" horiz-adv-x="1384" 
d="M1036 0v1288h-688v-1288h-160v1434h1008v-1434h-160z" />
    <glyph glyph-name="Rho" unicode="&#x3a1;" horiz-adv-x="1266" 
d="M1182 1006q0 -107 -35.5 -189.5t-100 -139t-153.5 -85.5t-197 -29h-348v-563h-160v1434h537q97 0 181 -26t145 -79t96 -133.5t35 -189.5zM1022 999q0 89 -30 148t-76 89t-95.5 41t-101.5 11h-371v-579h350q166 0 245 73.5t79 216.5z" />
    <glyph glyph-name="Sigma" unicode="&#x3a3;" horiz-adv-x="1264" 
d="M336 1294l479 -540l-520 -615h854v-139h-1024v139l510 604l-485 551v140h983v-140h-797z" />
    <glyph glyph-name="Tau" unicode="&#x3a4;" horiz-adv-x="1204" 
d="M682 1288v-1288h-160v1288h-422v146h1004v-146h-422z" />
    <glyph glyph-name="Upsilon" unicode="&#x3a5;" horiz-adv-x="1335" 
d="M1239 1434l-491 -865v-569h-160v567l-492 867h183l390 -703l392 703h178z" />
    <glyph glyph-name="Phi" unicode="&#x3a6;" horiz-adv-x="1640" 
d="M1522 737q0 -124 -44.5 -225t-126 -175t-196 -118.5t-254.5 -56.5v-162h-160v162q-142 10 -257 54t-196 117.5t-125 174t-44 225.5q0 124 44.5 225.5t125.5 175t196 118t256 55.5v127h160v-127q141 -11 255.5 -55t195.5 -117t125.5 -173.5t44.5 -224.5zM1362 733
q0 100 -34 178t-95 133t-146 87.5t-186 42.5v-879q102 8 187 39.5t146 86.5t94.5 133t33.5 179zM741 1176q-103 -9 -188 -40.5t-146 -86t-94.5 -132.5t-33.5 -180q0 -101 34 -179.5t95 -134t146 -87.5t187 -41v881z" />
    <glyph glyph-name="Chi" unicode="&#x3a7;" horiz-adv-x="1294" 
d="M1178 0h-181l-350 597l-354 -597h-176l446 745l-409 689h180l315 -537l316 537h176l-410 -684z" />
    <glyph glyph-name="Psi" unicode="&#x3a8;" horiz-adv-x="1452" 
d="M1329 877q0 -107 -32 -199.5t-97 -162t-163.5 -112t-231.5 -49.5v-354h-160v354q-133 5 -231 46.5t-162.5 111t-96.5 162.5t-32 200v560h160v-557q0 -174 94.5 -275t267.5 -110v942h160v-945q181 10 272.5 110t91.5 275v560h160v-557z" />
    <glyph glyph-name="uni03A9" unicode="&#x3a9;" horiz-adv-x="1483" 
d="M295 772q0 -99 23 -184t66 -161t104 -145.5t137 -136.5v-145h-473v145h294q-81 68 -134.5 131.5t-96 148t-61.5 167t-19 166.5q0 157 45.5 286t126.5 220.5t192 141.5t242 50q132 0 243 -50t192 -141.5t126.5 -220.5t45.5 -286q0 -85 -19.5 -168t-58.5 -161.5
t-97.5 -150.5t-136.5 -133h295v-145h-473v145q76 67 137 136.5t104 145.5t66 161t23 184q0 127 -36.5 227.5t-98 169.5t-143 105.5t-171.5 36.5t-170.5 -36.5t-141 -105.5t-96.5 -169.5t-36 -227.5z" />
    <glyph glyph-name="Iotadieresis" unicode="&#x3aa;" horiz-adv-x="557" 
d="M199 0v1434h159v-1434h-159zM589 1663q0 -23 -9 -43.5t-24 -36t-35.5 -24.5t-43.5 -9t-43.5 9t-36 24.5t-24.5 36t-9 43.5t9 43.5t24.5 36.5t36 25t43.5 9t43.5 -9t35.5 -25t24 -36.5t9 -43.5zM192 1663q0 -23 -9 -43.5t-24 -36t-35.5 -24.5t-42.5 -9q-24 0 -44.5 9
t-36 24.5t-24.5 36t-9 43.5t9 43.5t24.5 36.5t36 25t44.5 9q22 0 42.5 -9t35.5 -25t24 -36.5t9 -43.5z" />
    <glyph glyph-name="Upsilondieresis" unicode="&#x3ab;" horiz-adv-x="1335" 
d="M1239 1434l-491 -865v-569h-160v567l-492 867h183l390 -703l392 703h178zM977 1635q0 -23 -9 -43.5t-24 -36t-35.5 -24.5t-43.5 -9t-43.5 9t-36 24.5t-24.5 36t-9 43.5t9 43.5t24.5 36.5t36 25t43.5 9t43.5 -9t35.5 -25t24 -36.5t9 -43.5zM580 1635q0 -23 -9 -43.5
t-24 -36t-35.5 -24.5t-42.5 -9q-24 0 -44.5 9t-36 24.5t-24.5 36t-9 43.5t9 43.5t24.5 36.5t36 25t44.5 9q22 0 42.5 -9t35.5 -25t24 -36.5t9 -43.5z" />
    <glyph glyph-name="alphatonos" unicode="&#x3ac;" horiz-adv-x="1145" 
d="M821 0v131q-81 -85 -159 -119.5t-164 -34.5q-81 0 -151 31.5t-122 98t-82 169t-30 244.5q0 143 31.5 251t86.5 181t129 109.5t158 36.5q93 0 166 -36t137 -108v121h154v-1075h-154zM821 803q-51 75 -126.5 118.5t-164.5 43.5q-67 0 -117 -28t-84.5 -87.5t-49.5 -143.5
t-15 -184q0 -203 72.5 -307t200.5 -104q86 0 156.5 42t127.5 113v537zM621 1219h-121l211 327h219z" />
    <glyph glyph-name="epsilontonos" unicode="&#x3ad;" horiz-adv-x="1049" 
d="M516 506q-58 0 -104 -16t-78 -43.5t-49 -65.5t-17 -82q0 -88 65 -138t210 -50q39 0 82 7t86.5 21.5t86 35.5t81.5 48l77 -108q-52 -37 -93.5 -58t-97 -41t-111 -29.5t-115.5 -9.5q-114 0 -191 21t-130 60t-79 96t-26 127q0 51 18 98.5t50.5 86.5t77 67t97.5 40
q-48 10 -85 33t-61.5 54.5t-37 68.5t-12.5 76q0 66 32 120t86 92.5t125.5 59.5t151.5 21q121 0 218 -34t163 -85l-78 -117q-37 27 -68 44t-71.5 31.5t-84.5 21t-89 6.5q-105 0 -167.5 -44.5t-62.5 -123.5q0 -29 13 -58.5t40 -53.5t69 -39t100 -15h215v-125h-236zM617 1219
h-121l211 327h219z" />
    <glyph glyph-name="etatonos" unicode="&#x3ae;" horiz-adv-x="1161" 
d="M997 -310l-152 -85v1024q-1 174 -63 255t-192 81q-56 0 -104.5 -19.5t-84.5 -60.5t-56.5 -104.5t-20.5 -151.5v-629h-154v1075h154v-131q23 34 53 62t67.5 48.5t81.5 32t95 11.5q85 0 154.5 -25.5t118.5 -79.5t76 -138t27 -200v-965zM637 1219h-121l211 327h219z" />
    <glyph glyph-name="iotatonos" unicode="&#x3af;" horiz-adv-x="514" 
d="M180 0v1075h154v-1075h-154zM318 1219h-121l211 327h219z" />
    <glyph glyph-name="upsilondieresistonos" unicode="&#x3b0;" horiz-adv-x="1155" 
d="M991 442q0 -101 -20 -186t-67.5 -147t-127 -97t-198.5 -35q-125 0 -205.5 35t-127 97t-64 147t-17.5 186v633h153v-624q0 -92 16 -157t48.5 -105.5t81.5 -59t115 -18.5q65 0 114 18.5t81.5 59t48.5 105.5t16 157v624h153v-633zM582 1239h-121l170 328h219zM987 1327
q0 -23 -9 -43.5t-24.5 -36t-36 -24.5t-43.5 -9t-43.5 9t-35.5 24.5t-24 36t-9 43.5t9 44t24 36.5t35.5 25t43.5 9.5t43.5 -9.5t36 -25t24.5 -36.5t9 -44zM426 1327q0 -23 -9 -43.5t-24 -36t-35.5 -24.5t-42.5 -9q-24 0 -44.5 9t-36 24.5t-24.5 36t-9 43.5t9 44t24.5 36.5
t36 25t44.5 9.5q22 0 42.5 -9.5t35.5 -25t24 -36.5t9 -44z" />
    <glyph glyph-name="alpha" unicode="&#x3b1;" horiz-adv-x="1145" 
d="M821 0v131q-81 -85 -159 -119.5t-164 -34.5q-81 0 -151 31.5t-122 98t-82 169t-30 244.5q0 143 31.5 251t86.5 181t129 109.5t158 36.5q93 0 166 -36t137 -108v121h154v-1075h-154zM821 803q-51 75 -126.5 118.5t-164.5 43.5q-67 0 -117 -28t-84.5 -87.5t-49.5 -143.5
t-15 -184q0 -203 72.5 -307t200.5 -104q86 0 156.5 42t127.5 113v537z" />
    <glyph glyph-name="beta" unicode="&#x3b2;" horiz-adv-x="1145" 
d="M170 -395v1472q0 102 30 178.5t82 128t122 77.5t151 26q80 0 148 -25.5t118 -73t78.5 -114.5t28.5 -150q0 -63 -15.5 -113.5t-43 -89t-65 -65.5t-81.5 -43q48 -11 102 -38.5t100 -75.5t76.5 -118t30.5 -165q0 -111 -37 -193t-97.5 -136t-137 -80.5t-154.5 -26.5
q-72 0 -145.5 23t-136.5 73v-385zM324 211q63 -46 131.5 -72t136.5 -26q54 0 106 16t92.5 51.5t65.5 91.5t25 136q0 91 -28 154t-76 102t-112.5 56t-136.5 17h-36v133h26q119 0 187.5 65.5t68.5 186.5q0 107 -60 169.5t-161 62.5q-100 0 -164.5 -68t-64.5 -182v-893z" />
    <glyph glyph-name="gamma" unicode="&#x3b3;" horiz-adv-x="1044" 
d="M805 1075h158l-363 -1075v-309l-154 -86v395l-364 1075h164l279 -917z" />
    <glyph glyph-name="delta" unicode="&#x3b4;" horiz-adv-x="1157" 
d="M463 1333l321 -303q44 -41 90 -90.5t84 -111t62 -136.5t24 -166q0 -132 -36.5 -234.5t-99.5 -172t-148.5 -106t-184.5 -36.5q-92 0 -175.5 33t-147.5 99.5t-101.5 167.5t-37.5 237q0 105 33 197t89 158t141.5 109.5t217.5 43.5l-336 311v131h698v-131h-493zM709 915
l-60 5q-101 0 -173.5 -28.5t-118.5 -81t-67.5 -126t-21.5 -162.5q0 -106 24.5 -183.5t66.5 -128t99 -75t122 -24.5q70 0 127 26.5t98 79t63.5 130t22.5 179.5q0 70 -16.5 128t-42.5 105.5t-58.5 85.5t-64.5 70z" />
    <glyph glyph-name="epsilon" unicode="&#x3b5;" horiz-adv-x="1049" 
d="M516 506q-58 0 -104 -16t-78 -43.5t-49 -65.5t-17 -82q0 -88 65 -138t210 -50q39 0 82 7t86.5 21.5t86 35.5t81.5 48l77 -108q-52 -37 -93.5 -58t-97 -41t-111 -29.5t-115.5 -9.5q-114 0 -191 21t-130 60t-79 96t-26 127q0 51 18 98.5t50.5 86.5t77 67t97.5 40
q-48 10 -85 33t-61.5 54.5t-37 68.5t-12.5 76q0 66 32 120t86 92.5t125.5 59.5t151.5 21q121 0 218 -34t163 -85l-78 -117q-37 27 -68 44t-71.5 31.5t-84.5 21t-89 6.5q-105 0 -167.5 -44.5t-62.5 -123.5q0 -29 13 -58.5t40 -53.5t69 -39t100 -15h215v-125h-236z" />
    <glyph glyph-name="zeta" unicode="&#x3b6;" horiz-adv-x="991" 
d="M762 1321h-559v143h735v-145q-83 -63 -196.5 -157t-222.5 -212.5t-179 -267.5t-70 -315q0 -74 26 -119t67.5 -70t92.5 -33t101 -8h174q103 0 158 -41.5t55 -126.5q0 -80 -47.5 -164.5t-118.5 -148.5l-100 72q60 56 92.5 108t32.5 90q0 37 -19 55.5t-73 18.5h-166
q-96 0 -176 20.5t-137 64t-89 112t-32 165.5q0 143 58.5 289.5t161.5 274t211 222.5t220 173z" />
    <glyph glyph-name="eta" unicode="&#x3b7;" horiz-adv-x="1161" 
d="M997 -310l-152 -85v1024q-1 174 -63 255t-192 81q-56 0 -104.5 -19.5t-84.5 -60.5t-56.5 -104.5t-20.5 -151.5v-629h-154v1075h154v-131q23 34 53 62t67.5 48.5t81.5 32t95 11.5q85 0 154.5 -25.5t118.5 -79.5t76 -138t27 -200v-965z" />
    <glyph glyph-name="theta" unicode="&#x3b8;" horiz-adv-x="1176" 
d="M1032 731q0 -161 -22 -298.5t-74 -239t-137 -159t-211 -57.5q-125 0 -210 57.5t-137 159t-75 239t-23 298.5q0 160 23 298.5t75 240t137 159.5t210 58q126 0 211 -58t137 -159.5t74 -240t22 -298.5zM877 811q-6 111 -20.5 210t-46.5 173t-85.5 117t-136.5 43t-136 -43
t-85 -117t-46.5 -173t-19.5 -210h576zM299 682q4 -116 18.5 -219.5t47 -181.5t87 -124t138.5 -46q87 0 141 46t85.5 124.5t45 182t17.5 218.5h-580z" />
    <glyph glyph-name="iota" unicode="&#x3b9;" horiz-adv-x="514" 
d="M180 0v1075h154v-1075h-154z" />
    <glyph glyph-name="kappa" unicode="&#x3ba;" horiz-adv-x="1075" 
d="M748 1075h172l-310 -397l379 -678h-166l-309 555l-190 -246v-309h-154v1075h154v-557z" />
    <glyph glyph-name="lambda" unicode="&#x3bb;" horiz-adv-x="1096" 
d="M231 0h-149l414 1032l-95 244q-15 38 -39.5 55t-72.5 17q-31 0 -58.5 -8.5t-52.5 -22.5v143q19 9 59.5 18t69.5 9q43 0 77 -9t61.5 -29.5t49 -54.5t40.5 -85l479 -1309h-152l-301 837z" />
    <glyph glyph-name="uni03BC" unicode="&#x3bc;" horiz-adv-x="1167" 
d="M844 0v131q-47 -68 -121 -111t-176 -43q-79 0 -135 19t-88 42v-347l-154 -86v1470h154v-629q0 -86 16 -151t50.5 -107.5t82 -59.5t105.5 -17q56 0 104.5 19.5t84.5 60t56.5 104t20.5 151.5v629h153v-1075h-153z" />
    <glyph glyph-name="nu" unicode="&#x3bd;" horiz-adv-x="1069" 
d="M602 0h-135l-385 1075h164l291 -897l290 897h160z" />
    <glyph glyph-name="xi" unicode="&#x3be;" horiz-adv-x="997" 
d="M414 1333h-217v131h747v-131h-237q-71 0 -135 -15.5t-112.5 -47t-77 -81t-28.5 -116.5q0 -45 18.5 -86.5t52 -72.5t81.5 -49.5t108 -18.5h220v-125h-226q-90 0 -154 -28.5t-105 -75.5t-60 -107t-19 -123q0 -74 26 -122t67.5 -76.5t92.5 -40t101 -11.5h215q28 0 58 -9
t55.5 -29t42 -52t16.5 -78q0 -80 -47.5 -164.5t-118.5 -148.5l-100 72q60 56 92.5 108t32.5 90q0 37 -19 55.5t-73 18.5h-166q-96 0 -175.5 23.5t-136.5 71t-88.5 119.5t-31.5 169q0 70 24 137.5t66.5 122.5t101.5 94t129 54q-108 27 -171.5 100t-63.5 178q0 96 55.5 164.5
t159.5 99.5z" />
    <glyph glyph-name="omicron" unicode="&#x3bf;" horiz-adv-x="1159" 
d="M1047 545q0 -137 -37 -243t-100.5 -178t-149.5 -109.5t-185 -37.5q-98 0 -182.5 36t-146.5 107t-97.5 175.5t-35.5 241.5q0 136 36.5 241t100.5 176t150 107.5t184 36.5t182.5 -35t147 -105t98 -173.5t35.5 -239.5zM893 541q0 106 -23 185.5t-64 132.5t-98.5 79.5
t-127.5 26.5t-127.5 -26.5t-98.5 -79.5t-63.5 -132.5t-22.5 -185.5t22.5 -186.5t63.5 -134.5t98.5 -81.5t127.5 -27.5t127.5 27.5t98.5 81.5t64 134.5t23 186.5z" />
    <glyph glyph-name="pi" unicode="&#x3c0;" horiz-adv-x="1233" 
d="M80 1075h1073v-129h-133v-946h-154v946h-499v-946h-154v946h-133v129z" />
    <glyph glyph-name="rho" unicode="&#x3c1;" horiz-adv-x="1108" 
d="M287 -309l-154 -86v948q0 114 22.5 213t73 173t132 116.5t198.5 42.5q114 0 196 -42t135.5 -115t79 -172.5t25.5 -213.5q0 -143 -29 -251t-82 -181t-127 -109.5t-165 -36.5q-101 0 -175 39.5t-130 104.5v-430zM844 553q0 77 -12 151t-44 132t-87.5 93.5t-143.5 35.5
q-86 0 -139 -36t-82 -94.5t-39 -132.5t-10 -149v-281q48 -74 125.5 -117.5t165.5 -43.5q66 0 116 26.5t84.5 82t50 140t15.5 193.5z" />
    <glyph glyph-name="sigma1" unicode="&#x3c2;" horiz-adv-x="1014" 
d="M825 -55q0 -42 -12.5 -80.5t-34 -74.5t-50 -69.5t-60.5 -64.5l-101 72q25 23 46.5 47t37.5 47.5t25.5 47t9.5 44.5q0 26 -18.5 47.5t-50.5 40.5t-75 37t-93 37q-66 25 -126.5 65t-107 97.5t-74.5 135.5t-28 179q0 139 41.5 241.5t107.5 170t148.5 100.5t164.5 33
q110 0 193.5 -36t146.5 -91l-92 -115q-29 26 -58 46.5t-59.5 34.5t-65 21t-75.5 7q-60 0 -113.5 -28t-94.5 -80.5t-65 -127t-24 -166.5q0 -78 18 -134.5t50 -98.5t76 -71.5t96 -53.5q60 -27 117 -48.5t101.5 -48.5t71.5 -65t27 -98z" />
    <glyph glyph-name="sigma" unicode="&#x3c3;" horiz-adv-x="1190" 
d="M268 539q0 -106 22.5 -186t64 -134t99 -81t126.5 -27t126.5 27t99 81t64.5 134t23 186q0 146 -43.5 246.5t-114.5 160.5h-125q-71 0 -133 -24t-108.5 -74t-73.5 -126.5t-27 -182.5zM871 946q87 -77 131.5 -180t44.5 -223q0 -137 -37 -242.5t-100.5 -177.5t-149.5 -109
t-185 -37q-98 0 -182.5 36t-146.5 106.5t-97.5 174.5t-35.5 241q0 136 40 237.5t107.5 169t156.5 100.5t187 33h473v-129h-206z" />
    <glyph glyph-name="tau" unicode="&#x3c4;" horiz-adv-x="979" 
d="M864 1075v-129h-321v-700q0 -36 5.5 -60.5t18 -40t33 -22t51.5 -6.5q47 0 86 8.5t76 24.5l-10 -134q-45 -18 -94 -28.5t-111 -10.5q-108 0 -158.5 59t-50.5 185v725h-309v129h784z" />
    <glyph glyph-name="upsilon" unicode="&#x3c5;" horiz-adv-x="1155" 
d="M991 442q0 -101 -20 -186t-67.5 -147t-127 -97t-198.5 -35q-125 0 -205.5 35t-127 97t-64 147t-17.5 186v633h153v-624q0 -92 16 -157t48.5 -105.5t81.5 -59t115 -18.5q65 0 114 18.5t81.5 59t48.5 105.5t16 157v624h153v-633z" />
    <glyph glyph-name="phi" unicode="&#x3c6;" horiz-adv-x="1430" 
d="M639 -395v377q-102 7 -197 43.5t-168 104.5t-117 169t-44 238t44 238t117.5 169t168.5 104.5t196 45.5v219l154 88v-307q101 -6 195.5 -41t168.5 -102t117 -168t43 -238t-44 -239.5t-117 -172t-167.5 -107t-195.5 -44.5v-291zM1163 541q0 106 -32 184t-84.5 130
t-119 79.5t-134.5 32.5v-858q68 6 134.5 33.5t119 79.5t84.5 131t32 188zM639 967q-69 -5 -135.5 -32.5t-119 -80t-84.5 -130.5t-32 -183q0 -108 32 -187.5t84.5 -132t119 -80t135.5 -32.5v858z" />
    <glyph glyph-name="chi" unicode="&#x3c7;" horiz-adv-x="1077" 
d="M264 0h-160l353 551l-332 524h170l247 -405l249 405h159l-332 -518l355 -557h-170l-269 437z" />
    <glyph glyph-name="psi" unicode="&#x3c8;" horiz-adv-x="1448" 
d="M647 -18q-129 4 -222.5 42t-154 104.5t-89.5 158t-29 202.5v586h153v-579q0 -185 88 -281t254 -106v1204l154 88v-1292q166 10 254 106t88 281v579h153v-577q0 -111 -29 -204.5t-89.5 -161.5t-154 -107t-222.5 -43v-291l-154 -86v377z" />
    <glyph glyph-name="omega" unicode="&#x3c9;" horiz-adv-x="1491" 
d="M530 1075q-58 -60 -106.5 -130t-83 -146.5t-53.5 -157.5t-19 -164q0 -101 15.5 -170.5t44 -113t67.5 -63t86 -19.5q40 0 74.5 13t60 40.5t40 70.5t14.5 103v399h153v-399q0 -60 14 -103t39.5 -70.5t60 -40.5t75.5 -13q47 0 86 22.5t67.5 67.5t44 114t15.5 162
q0 94 -19.5 174.5t-55 152.5t-86 138t-112.5 133h174q56 -57 102.5 -124t79.5 -142t51.5 -157t18.5 -169q0 -95 -21 -185.5t-66.5 -162t-118 -115t-175.5 -43.5q-52 0 -94 14.5t-73.5 38t-53 53.5t-33.5 62q-14 -33 -37.5 -63.5t-57.5 -53.5t-77 -37t-94 -14q-101 0 -170 40
t-112.5 107.5t-62.5 157t-19 189.5q0 91 19 174.5t53 158.5t80 142.5t100 128.5h165z" />
    <glyph glyph-name="iotadieresis" unicode="&#x3ca;" horiz-adv-x="514" 
d="M180 0v1075h154v-1075h-154zM571 1348q0 -23 -9 -43.5t-24 -36t-35.5 -24.5t-43.5 -9t-43.5 9t-36 24.5t-24.5 36t-9 43.5t9 43.5t24.5 36.5t36 25t43.5 9t43.5 -9t35.5 -25t24 -36.5t9 -43.5zM174 1348q0 -23 -9 -43.5t-24 -36t-35.5 -24.5t-42.5 -9q-24 0 -44.5 9
t-36 24.5t-24.5 36t-9 43.5t9 43.5t24.5 36.5t36 25t44.5 9q22 0 42.5 -9t35.5 -25t24 -36.5t9 -43.5z" />
    <glyph glyph-name="upsilondieresis" unicode="&#x3cb;" horiz-adv-x="1155" 
d="M991 442q0 -101 -20 -186t-67.5 -147t-127 -97t-198.5 -35q-125 0 -205.5 35t-127 97t-64 147t-17.5 186v633h153v-624q0 -92 16 -157t48.5 -105.5t81.5 -59t115 -18.5q65 0 114 18.5t81.5 59t48.5 105.5t16 157v624h153v-633zM899 1348q0 -23 -9 -43.5t-24 -36
t-35.5 -24.5t-43.5 -9t-43.5 9t-36 24.5t-24.5 36t-9 43.5t9 43.5t24.5 36.5t36 25t43.5 9t43.5 -9t35.5 -25t24 -36.5t9 -43.5zM502 1348q0 -23 -9 -43.5t-24 -36t-35.5 -24.5t-42.5 -9q-24 0 -44.5 9t-36 24.5t-24.5 36t-9 43.5t9 43.5t24.5 36.5t36 25t44.5 9
q22 0 42.5 -9t35.5 -25t24 -36.5t9 -43.5z" />
    <glyph glyph-name="omicrontonos" unicode="&#x3cc;" horiz-adv-x="1159" 
d="M1047 545q0 -137 -37 -243t-100.5 -178t-149.5 -109.5t-185 -37.5q-98 0 -182.5 36t-146.5 107t-97.5 175.5t-35.5 241.5q0 136 36.5 241t100.5 176t150 107.5t184 36.5t182.5 -35t147 -105t98 -173.5t35.5 -239.5zM893 541q0 106 -23 185.5t-64 132.5t-98.5 79.5
t-127.5 26.5t-127.5 -26.5t-98.5 -79.5t-63.5 -132.5t-22.5 -185.5t22.5 -186.5t63.5 -134.5t98.5 -81.5t127.5 -27.5t127.5 27.5t98.5 81.5t64 134.5t23 186.5zM627 1219h-121l211 327h219z" />
    <glyph glyph-name="upsilontonos" unicode="&#x3cd;" horiz-adv-x="1155" 
d="M991 442q0 -101 -20 -186t-67.5 -147t-127 -97t-198.5 -35q-125 0 -205.5 35t-127 97t-64 147t-17.5 186v633h153v-624q0 -92 16 -157t48.5 -105.5t81.5 -59t115 -18.5q65 0 114 18.5t81.5 59t48.5 105.5t16 157v624h153v-633zM625 1219h-121l211 327h219z" />
    <glyph glyph-name="omegatonos" unicode="&#x3ce;" horiz-adv-x="1491" 
d="M530 1075q-58 -60 -106.5 -130t-83 -146.5t-53.5 -157.5t-19 -164q0 -101 15.5 -170.5t44 -113t67.5 -63t86 -19.5q40 0 74.5 13t60 40.5t40 70.5t14.5 103v399h153v-399q0 -60 14 -103t39.5 -70.5t60 -40.5t75.5 -13q47 0 86 22.5t67.5 67.5t44 114t15.5 162
q0 94 -19.5 174.5t-55 152.5t-86 138t-112.5 133h174q56 -57 102.5 -124t79.5 -142t51.5 -157t18.5 -169q0 -95 -21 -185.5t-66.5 -162t-118 -115t-175.5 -43.5q-52 0 -94 14.5t-73.5 38t-53 53.5t-33.5 62q-14 -33 -37.5 -63.5t-57.5 -53.5t-77 -37t-94 -14q-101 0 -170 40
t-112.5 107.5t-62.5 157t-19 189.5q0 91 19 174.5t53 158.5t80 142.5t100 128.5h165zM813 1219h-121l211 327h219z" />
    <glyph glyph-name="afii10023" unicode="&#x401;" horiz-adv-x="1202" 
d="M1085 0h-897v1434h867v-146h-707v-450h572v-146h-572v-547h737v-145zM934 1655q0 -23 -9 -43.5t-24 -36t-35.5 -24.5t-43.5 -9t-43.5 9t-36 24.5t-24.5 36t-9 43.5t9 43.5t24.5 36.5t36 25t43.5 9t43.5 -9t35.5 -25t24 -36.5t9 -43.5zM537 1655q0 -23 -9 -43.5t-24 -36
t-35.5 -24.5t-42.5 -9q-24 0 -44.5 9t-36 24.5t-24.5 36t-9 43.5t9 43.5t24.5 36.5t36 25t44.5 9q22 0 42.5 -9t35.5 -25t24 -36.5t9 -43.5z" />
    <glyph glyph-name="afii10051" unicode="&#x402;" horiz-adv-x="1628" 
d="M1104 1288h-422v-381q59 65 150.5 105.5t216.5 40.5q105 0 191 -31t147.5 -96t95 -167t33.5 -243v-213q0 -91 -19.5 -162.5t-58.5 -127t-98 -96.5t-138 -69l-51 152q51 21 89 48t64 64t39 85t13 112v207q0 201 -80.5 296t-247.5 95q-108 0 -196 -45.5t-150 -134.5v-727
h-160v1288h-422v146h1004v-146z" />
    <glyph glyph-name="afii10052" unicode="&#x403;" horiz-adv-x="1122" 
d="M348 1288v-1288h-160v1434h842v-146h-682zM536 1526h-121l211 327h219z" />
    <glyph glyph-name="afii10053" unicode="&#x404;" horiz-adv-x="1286" 
d="M1176 215q-39 -53 -88 -96.5t-107.5 -75t-127 -49t-146.5 -17.5q-130 0 -238 56t-184 156t-117 234.5t-41 291.5q0 160 43 295.5t120.5 234.5t185 155t237.5 56q148 0 259.5 -56t196.5 -173l-127 -97q-74 100 -148 140.5t-185 40.5q-83 0 -154.5 -35.5t-126 -100
t-90 -154.5t-47.5 -200h708v-145h-712q5 -123 39.5 -225t91 -174.5t131.5 -113t162 -40.5q116 0 200.5 49.5t153.5 138.5z" />
    <glyph glyph-name="afii10054" unicode="&#x405;" horiz-adv-x="1212" 
d="M1069 377q0 -84 -32 -157t-93 -127t-149.5 -85t-200.5 -31q-73 0 -141.5 15t-130 41.5t-114.5 63t-95 79.5l106 119q82 -79 176 -125.5t205 -46.5q72 0 129 17t97 49t61.5 77.5t21.5 102.5q0 50 -16.5 90.5t-56 76t-105.5 68.5t-164 68q-116 41 -195 82.5t-127.5 90
t-69.5 108t-21 137.5q0 86 32.5 154t91 115t141 72t183.5 25q72 0 132.5 -10.5t113 -30t99 -48t91.5 -64.5l-102 -125q-39 32 -78 57t-80 42t-86.5 25.5t-99.5 8.5q-74 0 -127 -17t-86.5 -46.5t-49.5 -67.5t-16 -80q0 -45 13 -81t50 -69.5t103.5 -67t173.5 -71.5
q119 -43 199 -86.5t128 -94t68.5 -112t20.5 -141.5z" />
    <glyph glyph-name="afii10055" unicode="&#x406;" horiz-adv-x="557" 
d="M199 0v1434h159v-1434h-159z" />
    <glyph glyph-name="afii10056" unicode="&#x407;" horiz-adv-x="557" 
d="M199 0v1434h159v-1434h-159zM589 1664q0 -23 -9 -43.5t-24 -36t-35.5 -24.5t-43.5 -9t-43.5 9t-36 24.5t-24.5 36t-9 43.5t9 43.5t24.5 36.5t36 25t43.5 9t43.5 -9t35.5 -25t24 -36.5t9 -43.5zM192 1664q0 -23 -9 -43.5t-24 -36t-35.5 -24.5t-42.5 -9q-24 0 -44.5 9
t-36 24.5t-24.5 36t-9 43.5t9 43.5t24.5 36.5t36 25t44.5 9q22 0 42.5 -9t35.5 -25t24 -36.5t9 -43.5z" />
    <glyph glyph-name="afii10057" unicode="&#x408;" horiz-adv-x="1184" 
d="M1006 549q0 -287 -121.5 -429.5t-368.5 -142.5q-91 0 -162.5 22.5t-127 67t-96.5 109t-69 148.5l152 51q21 -59 48 -105.5t64 -79t85 -50t112 -17.5q86 0 147.5 25t100.5 78t57.5 134.5t18.5 194.5v879h160v-885z" />
    <glyph glyph-name="afii10058" unicode="&#x409;" horiz-adv-x="2056" 
d="M1128 870h377q97 0 181 -26t145 -79t96 -133.5t35 -189.5q0 -107 -35.5 -189t-99.5 -138.5t-153.5 -85.5t-196.5 -29h-508v1288h-484l-120 -856q-29 -194 -109.5 -299t-204.5 -156l-51 152q83 39 134 108t71 201l141 996h782v-564zM1802 436q0 140 -77 214.5t-226 74.5
h-371v-580h351q165 0 244 74t79 217z" />
    <glyph glyph-name="afii10059" unicode="&#x40a;" horiz-adv-x="2142" 
d="M1182 870h377q97 0 180.5 -26t145 -79t96 -133.5t34.5 -189.5q0 -107 -35.5 -189t-99.5 -138.5t-153 -85.5t-197 -29h-508v725h-674v-725h-160v1434h160v-564h674v564h160v-564zM1855 436q0 140 -77 214.5t-226 74.5h-370v-580h350q165 0 244 74t79 217z" />
    <glyph glyph-name="afii10060" unicode="&#x40b;" horiz-adv-x="1628" 
d="M1104 1288h-422v-381q30 33 67.5 59t83.5 46.5t101 30.5t115 10q105 0 191 -31t147.5 -96t95 -167t33.5 -243v-516h-160v516q0 94 -18.5 168.5t-58.5 123.5t-102.5 74t-148.5 25q-111 0 -199 -47t-147 -133v-727h-160v1288h-422v146h1004v-146z" />
    <glyph glyph-name="afii10061" unicode="&#x40c;" horiz-adv-x="1315" 
d="M1227 0h-183l-423 764l-273 -352v-412h-160v1434h160v-809l625 809h174l-420 -539zM621 1526h-121l211 327h219z" />
    <glyph glyph-name="afii10062" unicode="&#x40e;" horiz-adv-x="1247" 
d="M1024 1434h174l-692 -1434h-168l213 416l-492 1018h183l391 -829zM633 1526q-80 0 -147.5 19.5t-118 54t-81.5 83t-38 107.5h135q8 -29 30 -54t54.5 -43t74.5 -28t91 -10t91 10t74.5 28t54 43t30.5 54h135q-7 -59 -38 -107.5t-81.5 -83t-118 -54t-147.5 -19.5z" />
    <glyph glyph-name="afii10145" unicode="&#x40f;" horiz-adv-x="1409" 
d="M1221 0h-435l-14 -309h-149v309h-435v1434h160v-1289h713v1289h160v-1434z" />
    <glyph glyph-name="afii10017" unicode="&#x410;" horiz-adv-x="1389" 
d="M1280 0h-168l-123 365h-592l-125 -365h-163l497 1434h176zM940 510l-246 733l-248 -733h494z" />
    <glyph glyph-name="afii10018" unicode="&#x411;" horiz-adv-x="1305" 
d="M1024 420q0 137 -84 213t-227 76h-365v-564h373q150 0 226.5 68.5t76.5 206.5zM348 1288v-434h365q107 0 194 -28.5t148.5 -82.5t95 -133t33.5 -180q0 -102 -28.5 -182t-88.5 -135.5t-147.5 -84t-208.5 -28.5h-523v1434h908v-146h-748z" />
    <glyph glyph-name="afii10019" unicode="&#x412;" horiz-adv-x="1296" 
d="M1169 424q0 -212 -120.5 -318t-346.5 -106h-514v1434h525q85 0 156.5 -21.5t123 -66t80.5 -112t29 -159.5q0 -59 -15.5 -106t-43 -83t-65.5 -62t-83 -42q72 -19 123.5 -52.5t84 -78t49.5 -101.5t17 -126zM942 1069q0 49 -14.5 89.5t-43.5 69t-73 44.5t-104 16h-359v-446
h346q67 0 114 18t77 48.5t43.5 72t13.5 88.5zM1010 416q0 67 -21.5 119.5t-61 88.5t-96 55t-126.5 19h-357v-553h365q81 0 137.5 19.5t92 54.5t51.5 85t16 112z" />
    <glyph glyph-name="afii10020" unicode="&#x413;" horiz-adv-x="1122" 
d="M348 1288v-1288h-160v1434h842v-146h-682z" />
    <glyph glyph-name="afii10021" unicode="&#x414;" horiz-adv-x="1339" 
d="M991 1288h-495l-66 -467q-14 -102 -27 -181t-24.5 -142t-23 -112t-23 -90.5t-23 -77.5t-24.5 -73h706v1143zM356 1434h795v-1289h133v-454h-149l-15 309h-923l-15 -309h-149v454h92q23 66 45 143t41 174.5t32 177t27 181.5z" />
    <glyph glyph-name="afii10022" unicode="&#x415;" horiz-adv-x="1202" 
d="M1085 0h-897v1434h867v-146h-707v-450h572v-146h-572v-547h737v-145z" />
    <glyph glyph-name="afii10024" unicode="&#x416;" horiz-adv-x="2032" 
d="M1096 1434v-775l594 775h174l-420 -539l500 -895h-183l-424 764l-241 -313v-451h-160v446l-246 318l-420 -764h-178l496 889l-424 545h178l594 -775v775h160z" />
    <glyph glyph-name="afii10025" unicode="&#x417;" horiz-adv-x="1112" 
d="M555 819q73 0 124.5 20t84.5 54.5t48 80.5t15 97q0 48 -16 91.5t-49.5 76.5t-86.5 52.5t-126 19.5q-107 0 -189.5 -31.5t-160.5 -95.5l-97 119q91 72 198 112.5t249 40.5q116 0 199 -31.5t136 -84t78 -122t25 -145.5q0 -114 -55 -192.5t-170 -120.5q47 -13 93.5 -38
t84 -67.5t61 -104.5t23.5 -149q0 -90 -32 -167.5t-93 -134.5t-149.5 -89.5t-200.5 -32.5q-135 0 -262.5 53t-218.5 146l102 115q80 -79 174.5 -123.5t204.5 -44.5q70 0 128.5 19t99.5 54t64 85t23 112q0 67 -21.5 120t-61.5 89t-96 55t-126 19h-250v143h246z" />
    <glyph glyph-name="afii10026" unicode="&#x418;" horiz-adv-x="1409" 
d="M1061 1434h160v-1434h-160v1160l-713 -1160h-160v1434h160v-1167z" />
    <glyph glyph-name="afii10027" unicode="&#x419;" horiz-adv-x="1409" 
d="M1061 1434h160v-1434h-160v1160l-713 -1160h-160v1434h160v-1167zM705 1526q-80 0 -147.5 19.5t-118 54t-81.5 83t-38 107.5h135q8 -29 30 -54t54.5 -43t74.5 -28t91 -10t91 10t74.5 28t54 43t30.5 54h135q-7 -59 -38 -107.5t-81.5 -83t-118 -54t-147.5 -19.5z" />
    <glyph glyph-name="afii10028" unicode="&#x41a;" horiz-adv-x="1315" 
d="M1227 0h-183l-423 764l-273 -352v-412h-160v1434h160v-809l625 809h174l-420 -539z" />
    <glyph glyph-name="afii10029" unicode="&#x41b;" horiz-adv-x="1329" 
d="M365 432q-13 -91 -38.5 -162.5t-64.5 -127t-91.5 -96.5t-119.5 -69l-51 152q43 21 77 48t59.5 64t42.5 85t26 112l141 996h795v-1434h-160v1288h-496z" />
    <glyph glyph-name="afii10030" unicode="&#x41c;" horiz-adv-x="1614" 
d="M1425 0h-153v1094l-469 -1131l-461 1131v-1094h-154v1434h179l440 -1117l444 1117h174v-1434z" />
    <glyph glyph-name="afii10031" unicode="&#x41d;" horiz-adv-x="1409" 
d="M1061 0v676h-713v-676h-160v1434h160v-613h713v613h160v-1434h-160z" />
    <glyph glyph-name="afii10032" unicode="&#x41e;" horiz-adv-x="1444" 
d="M1317 719q0 -162 -43.5 -298t-122 -235t-189 -154t-243.5 -55q-134 0 -243 54.5t-186.5 152.5t-120 233.5t-42.5 297.5t43 298t121.5 234.5t188 153.5t243.5 55q133 0 242.5 -54.5t187.5 -152t121 -233t43 -297.5zM1157 715q0 135 -33.5 245t-92.5 188t-139.5 120.5
t-174.5 42.5q-93 0 -172 -42t-136 -119t-89.5 -186.5t-32.5 -244.5t33.5 -245t92 -188t138.5 -120.5t174 -42.5q93 0 172 41.5t137 119t90.5 187t32.5 244.5z" />
    <glyph glyph-name="afii10033" unicode="&#x41f;" horiz-adv-x="1409" 
d="M1061 0v1288h-713v-1288h-160v1434h1033v-1434h-160z" />
    <glyph glyph-name="afii10034" unicode="&#x420;" horiz-adv-x="1266" 
d="M1182 1006q0 -107 -35.5 -189.5t-100 -139t-153.5 -85.5t-197 -29h-348v-563h-160v1434h537q97 0 181 -26t145 -79t96 -133.5t35 -189.5zM1022 999q0 89 -30 148t-76 89t-95.5 41t-101.5 11h-371v-579h350q166 0 245 73.5t79 216.5z" />
    <glyph glyph-name="afii10035" unicode="&#x421;" horiz-adv-x="1286" 
d="M1042 1130q-35 47 -69.5 81t-73.5 56.5t-85.5 33t-104.5 10.5q-92 0 -169.5 -43.5t-133.5 -122t-87.5 -187.5t-31.5 -239q0 -131 32 -240.5t89 -188.5t134.5 -123t168.5 -44q116 0 200.5 49.5t153.5 138.5l111 -96q-39 -53 -88 -96.5t-107.5 -75t-127 -49t-146.5 -17.5
q-88 0 -165 25.5t-141.5 72.5t-115 113.5t-86 148.5t-54 177.5t-18.5 200.5q0 160 43 295.5t120.5 234.5t185 155t237.5 56q148 0 259.5 -56t196.5 -173z" />
    <glyph glyph-name="afii10036" unicode="&#x422;" horiz-adv-x="1204" 
d="M682 1288v-1288h-160v1288h-422v146h1004v-146h-422z" />
    <glyph glyph-name="afii10037" unicode="&#x423;" horiz-adv-x="1247" 
d="M1024 1434h174l-692 -1434h-168l213 416l-492 1018h183l391 -829z" />
    <glyph glyph-name="afii10038" unicode="&#x424;" horiz-adv-x="1806" 
d="M983 190q143 0 245 38t167.5 107.5t96 166.5t30.5 215q0 117 -30.5 214t-96 166.5t-167.5 107.5t-245 38v-1053zM823 1243q-143 0 -245 -38t-167 -107.5t-95.5 -166.5t-30.5 -214q0 -118 30.5 -215t95.5 -166.5t167 -107.5t245 -38v1053zM823 1493h160v-104
q144 0 271.5 -38.5t222 -120t149.5 -209t55 -304.5t-56.5 -304.5t-152 -209t-222 -120t-267.5 -38.5v-106h-160v106q-140 0 -266.5 38.5t-222.5 120t-152.5 209t-56.5 304.5t55 304.5t149.5 209t222 120t271.5 38.5v104z" />
    <glyph glyph-name="afii10039" unicode="&#x425;" horiz-adv-x="1294" 
d="M1178 0h-181l-350 597l-354 -597h-176l446 745l-409 689h180l315 -537l316 537h176l-410 -684z" />
    <glyph glyph-name="afii10040" unicode="&#x426;" horiz-adv-x="1409" 
d="M1221 145h133v-454h-150l-14 309h-1002v1434h160v-1289h713v1289h160v-1289z" />
    <glyph glyph-name="afii10041" unicode="&#x427;" horiz-adv-x="1370" 
d="M348 1067q0 -108 21.5 -181t64.5 -120.5t105.5 -68.5t136.5 -21q59 0 110 13t94.5 37t78.5 57t63 73v578h160v-1434h-160v676q-29 -32 -61.5 -56t-81.5 -46t-102 -33t-122 -11q-105 0 -191 31t-147.5 96t-95 167t-33.5 243v367h160v-367z" />
    <glyph glyph-name="afii10042" unicode="&#x428;" horiz-adv-x="1933" 
d="M1745 0h-1557v1434h160v-1289h539v1289h160v-1289h538v1289h160v-1434z" />
    <glyph glyph-name="afii10043" unicode="&#x429;" horiz-adv-x="1933" 
d="M1745 145h133v-454h-149l-15 309h-1526v1434h160v-1289h539v1289h160v-1289h538v1289h160v-1289z" />
    <glyph glyph-name="afii10044" unicode="&#x42a;" horiz-adv-x="1440" 
d="M1153 436q0 140 -77 214.5t-226 74.5h-371v-580h350q166 0 245 74t79 217zM479 870h377q97 0 181 -26t145 -79t96 -133.5t35 -189.5q0 -107 -35.5 -189t-100 -138.5t-153.5 -85.5t-197 -29h-508v1288h-319v146h479v-564z" />
    <glyph glyph-name="afii10045" unicode="&#x42b;" horiz-adv-x="1769" 
d="M348 870h377q97 0 181 -26t145 -79t96 -133.5t35 -189.5q0 -107 -35.5 -189t-100 -138.5t-153.5 -85.5t-197 -29h-508v1434h160v-564zM1022 436q0 140 -77.5 214.5t-225.5 74.5h-371v-580h350q166 0 245 74t79 217zM1421 0v1434h160v-1434h-160z" />
    <glyph glyph-name="afii10046" unicode="&#x42c;" horiz-adv-x="1309" 
d="M348 870h377q97 0 181 -26t145 -79t96 -133.5t35 -189.5q0 -107 -35.5 -189t-100 -138.5t-153.5 -85.5t-197 -29h-508v1434h160v-564zM1022 436q0 140 -77.5 214.5t-225.5 74.5h-371v-580h350q166 0 245 74t79 217z" />
    <glyph glyph-name="afii10047" unicode="&#x42d;" horiz-adv-x="1286" 
d="M221 311q69 -89 153.5 -138.5t200.5 -49.5q87 0 162 40.5t131 113t90 174.5t39 225h-710v145h706q-11 110 -46.5 200t-89.5 154.5t-125 100t-154 35.5q-116 0 -191.5 -44t-142.5 -137l-127 97q45 61 95 104t110 71.5t124.5 41t135.5 12.5q132 0 238.5 -56t182 -155
t116 -234.5t40.5 -295.5q0 -125 -35 -266.5t-119.5 -255t-195.5 -165t-229 -51.5q-78 0 -146.5 17.5t-127 49t-107.5 75t-88 96.5z" />
    <glyph glyph-name="afii10048" unicode="&#x42e;" horiz-adv-x="1939" 
d="M348 821h279q14 141 62 257.5t125 200.5t179.5 130.5t225.5 46.5q133 0 242.5 -54.5t187.5 -152t120.5 -233t42.5 -297.5t-43 -298t-122 -235t-189 -154t-244 -55q-130 0 -236.5 51.5t-183.5 143.5t-121.5 220.5t-49.5 283.5h-275v-676h-160v1434h160v-613zM1653 715
q0 135 -34 245t-93 188t-139.5 120.5t-174.5 42.5q-93 0 -171.5 -42t-136 -119t-90 -186.5t-32.5 -244.5t33.5 -245t92.5 -188t139 -120.5t174 -42.5q93 0 172 41.5t136.5 119t90.5 187t33 244.5z" />
    <glyph glyph-name="afii10049" unicode="&#x42f;" horiz-adv-x="1321" 
d="M139 1028q0 104 33 180.5t91 126.5t137 74.5t171 24.5h562v-1434h-160v612h-434l-306 -612h-174l324 649q-113 45 -178.5 141t-65.5 238zM299 1022q0 -131 72.5 -198.5t224.5 -67.5h377v532h-398q-61 0 -112.5 -15.5t-88.5 -49.5t-56 -84t-19 -117z" />
    <glyph glyph-name="afii10065" unicode="&#x430;" horiz-adv-x="1104" 
d="M786 0v131q-28 -31 -62.5 -59t-76 -49t-90.5 -33.5t-106 -12.5q-63 0 -125 17t-110.5 57.5t-79 106.5t-30.5 164q0 90 34.5 155t91.5 107t131.5 62t154.5 20q82 0 151 -18t117 -44v127q0 121 -57 179.5t-176 58.5q-85 0 -156 -22t-137 -60l-57 125q71 38 163 62t197 24
q87 0 157 -19.5t118.5 -61.5t75 -108t26.5 -159v-750h-154zM786 481q-26 15 -54 26.5t-61 19.5t-72.5 12t-88.5 4q-119 0 -185.5 -54.5t-66.5 -156.5q0 -60 16 -103.5t44.5 -71.5t69 -41.5t89.5 -13.5q52 0 97.5 12.5t84.5 34.5t71 51.5t56 63.5v217z" />
    <glyph glyph-name="afii10066" unicode="&#x431;" horiz-adv-x="1124" 
d="M860 528q0 104 -21.5 181.5t-60.5 129.5t-93.5 77.5t-119.5 25.5q-66 0 -120.5 -25.5t-94 -77.5t-61 -129.5t-21.5 -181.5q0 -103 21.5 -181t61 -130.5t94 -79t120.5 -26.5q65 0 119.5 26.5t93.5 79t60.5 130.5t21.5 181zM745 1360q-107 0 -195.5 -29t-152 -86.5
t-98.5 -143t-35 -198.5q56 85 133 128.5t174 43.5q96 0 177 -34.5t139.5 -102.5t91.5 -169.5t33 -236.5q0 -134 -35.5 -237t-96.5 -174t-144 -107.5t-177 -36.5q-95 0 -176 35.5t-140.5 105t-93.5 172t-34 236.5v377q0 142 49 252t134.5 185t200.5 114t246 39
q58 0 105.5 6.5t85.5 18.5v-140q-29 -7 -70.5 -12.5t-120.5 -5.5z" />
    <glyph glyph-name="afii10067" unicode="&#x432;" horiz-adv-x="1063" 
d="M676 1075q64 0 117.5 -16t92 -49t60 -83.5t21.5 -119.5q0 -89 -46 -143t-118 -78q35 -9 70 -28t62.5 -50.5t44.5 -78t17 -112.5q0 -74 -20 -132.5t-64 -100t-109.5 -63t-156.5 -21.5h-477v1075h506zM813 793q0 71 -41.5 114t-126.5 43h-321v-319h311q83 0 130.5 42.5
t47.5 119.5zM844 311q0 93 -57 144t-154 51h-309v-381h315q110 0 157.5 50t47.5 136z" />
    <glyph glyph-name="afii10068" unicode="&#x433;" horiz-adv-x="844" 
d="M324 946v-946h-154v1075h666v-129h-512z" />
    <glyph glyph-name="afii10069" unicode="&#x434;" horiz-adv-x="1061" 
d="M897 125h100v-434h-145l-10 309h-682l-10 -309h-146v434h72q15 42 27.5 84t25 98t26 134.5t29.5 193.5l62 440h651v-950zM743 125v825h-368l-45 -315q-16 -115 -29.5 -193.5t-25.5 -134.5t-24.5 -98t-27.5 -84h520z" />
    <glyph glyph-name="afii10070" unicode="&#x435;" horiz-adv-x="1106" 
d="M989 569q0 -28 -1.5 -46.5t-4.5 -37.5h-717q6 -86 28.5 -155t60.5 -118t91 -75t119 -26q47 0 85.5 6.5t73 19.5t68 32t70.5 44l72 -111q-48 -31 -91.5 -54.5t-88.5 -39t-94.5 -23.5t-110.5 -8q-49 0 -100.5 12.5t-100 40.5t-91.5 72t-75 107t-50.5 146t-18.5 188
q0 128 33.5 231t92.5 175t140.5 110.5t177.5 38.5q105 0 186 -39.5t135.5 -109.5t82.5 -167.5t28 -212.5zM846 610q-5 78 -24.5 143.5t-55 112.5t-88.5 73t-123 26q-60 0 -110 -21.5t-87.5 -66t-61 -111t-30.5 -156.5h580z" />
    <glyph glyph-name="afii10072" unicode="&#x436;" horiz-adv-x="1575" 
d="M711 309l-191 256l-268 -565h-162l336 688l-287 387h176l396 -561v561l153 86v-647l396 561h172l-283 -381l340 -694h-166l-272 565l-187 -256v-309h-153v309z" />
    <glyph glyph-name="afii10073" unicode="&#x437;" horiz-adv-x="913" 
d="M248 635h186q55 0 94 13.5t64 37t36 54t11 65.5q0 32 -12 61.5t-37.5 52t-65.5 35.5t-96 13q-42 0 -76 -6t-64.5 -18t-59 -30t-58.5 -43l-86 113q62 51 147.5 83t196.5 32q97 0 166 -23.5t113 -63.5t65 -92t21 -110q0 -45 -13 -80.5t-36 -64t-54.5 -50.5t-68.5 -39
q35 -9 71 -30t65 -55.5t47.5 -82t18.5 -108.5q0 -68 -26.5 -127t-77 -102.5t-123.5 -68t-166 -24.5q-111 0 -206 38t-173 100l90 112q63 -57 137 -87.5t152 -30.5q54 0 98 13.5t75.5 38.5t49 61t17.5 81q0 99 -62.5 151t-169.5 52h-190v129z" />
    <glyph glyph-name="afii10074" unicode="&#x438;" horiz-adv-x="1161" 
d="M844 1075h153v-1075h-153v835l-520 -835h-154v1075h154v-831z" />
    <glyph glyph-name="afii10075" unicode="&#x439;" horiz-adv-x="1161" 
d="M844 1075h153v-1075h-153v835l-520 -835h-154v1075h154v-831zM584 1196q-72 0 -133 17.5t-106.5 49t-73 75t-33.5 96.5h120q8 -27 27 -48.5t48 -38t66 -25.5t85 -9q47 0 84.5 9t66 25t47.5 37.5t27 49.5h121q-6 -53 -34 -96.5t-73.5 -75t-106 -49t-132.5 -17.5z" />
    <glyph glyph-name="afii10076" unicode="&#x43a;" horiz-adv-x="1034" 
d="M719 1075h172l-283 -381l340 -694h-166l-272 565l-186 -256v-309h-154v1075l154 86v-648z" />
    <glyph glyph-name="afii10077" unicode="&#x43b;" horiz-adv-x="1090" 
d="M311 324q-16 -122 -77 -210t-185 -137l-43 129q68 33 105 83t51 141l104 745h660v-1075h-154v946h-373z" />
    <glyph glyph-name="afii10078" unicode="&#x43c;" horiz-adv-x="1337" 
d="M1020 0v818l-352 -847l-344 847v-818h-154v1075h201l299 -760l305 760h199v-1075h-154z" />
    <glyph glyph-name="afii10079" unicode="&#x43d;" horiz-adv-x="1161" 
d="M997 1075v-1075h-153v506h-520v-506h-154v1075h154v-440h520v440h153z" />
    <glyph glyph-name="afii10080" unicode="&#x43e;" horiz-adv-x="1159" 
d="M1047 545q0 -137 -37 -243t-100.5 -178t-149.5 -109.5t-185 -37.5q-98 0 -182.5 36t-146.5 107t-97.5 175.5t-35.5 241.5q0 136 36.5 241t100.5 176t150 107.5t184 36.5t182.5 -35t147 -105t98 -173.5t35.5 -239.5zM893 541q0 106 -23 185.5t-64 132.5t-98.5 79.5
t-127.5 26.5t-127.5 -26.5t-98.5 -79.5t-63.5 -132.5t-22.5 -185.5t22.5 -186.5t63.5 -134.5t98.5 -81.5t127.5 -27.5t127.5 27.5t98.5 81.5t64 134.5t23 186.5z" />
    <glyph glyph-name="afii10081" unicode="&#x43f;" horiz-adv-x="1161" 
d="M997 1075v-1075h-153v946h-520v-946h-154v1075h827z" />
    <glyph glyph-name="afii10082" unicode="&#x440;" horiz-adv-x="1145" 
d="M1032 555q0 -143 -31.5 -251t-86.5 -181t-129 -109.5t-158 -36.5q-101 0 -174 39.5t-129 104.5v-430l-154 -86v1470h154v-131q65 73 147 113.5t176 40.5q81 0 151 -31.5t122 -98t82 -169t30 -244.5zM881 553q0 198 -71.5 305t-201.5 107q-83 0 -155 -42t-129 -114v-537
q22 -34 52.5 -63.5t67 -51t79.5 -34t91 -12.5q135 0 201 112t66 330z" />
    <glyph glyph-name="afii10083" unicode="&#x441;" horiz-adv-x="1014" 
d="M911 127q-34 -35 -71 -62.5t-79 -47t-90.5 -30t-105.5 -10.5q-88 0 -169.5 34t-144.5 103t-100.5 173.5t-37.5 244.5q0 149 40.5 256t106 176t148.5 101.5t167 32.5q110 0 193.5 -36t146.5 -91l-92 -115q-29 26 -58 46.5t-59.5 34.5t-65 21t-75.5 7q-63 0 -117.5 -28
t-94 -81.5t-62.5 -132t-23 -178.5q0 -99 20.5 -179t59.5 -137t95.5 -87.5t127.5 -30.5q39 0 72.5 8t63 22.5t57 35.5t55.5 48z" />
    <glyph glyph-name="afii10084" unicode="&#x442;" horiz-adv-x="891" 
d="M522 946v-946h-153v946h-336v129h827v-129h-338z" />
    <glyph glyph-name="afii10085" unicode="&#x443;" horiz-adv-x="1087" 
d="M471 -379h-154l148 391l-383 1063h162l299 -891l301 891h162z" />
    <glyph glyph-name="afii10086" unicode="&#x444;" horiz-adv-x="1632" 
d="M1364 553q0 101 -14.5 176.5t-45.5 130t-73.5 80t-95.5 25.5q-75 0 -134.5 -42.5t-107.5 -113.5v-537q41 -73 106 -117t140 -44q114 0 169.5 112t55.5 330zM739 -395v516q-50 -65 -113.5 -104.5t-152.5 -39.5q-75 0 -140 36.5t-113.5 109.5t-76.5 181t-28 251
q0 142 26.5 244.5t72 169t107.5 98t134 31.5q78 0 148.5 -37t135.5 -117v463l154 86v-549q61 76 132 115t153 39q71 0 133 -31.5t108 -98t72.5 -169t26.5 -244.5q0 -143 -28 -251t-77 -181t-114 -109.5t-140 -36.5q-89 0 -152 39.5t-114 104.5v-430zM268 553
q0 -218 55.5 -330t169.5 -112q75 0 140 44t106 117v537q-48 71 -107.5 113.5t-134.5 42.5q-53 0 -95.5 -25.5t-73.5 -80t-45.5 -130t-14.5 -176.5z" />
    <glyph glyph-name="afii10087" unicode="&#x445;" horiz-adv-x="1032" 
d="M758 0l-246 430l-248 -430h-160l332 555l-309 520h170l223 -392l225 392h160l-309 -516l332 -559h-170z" />
    <glyph glyph-name="afii10088" unicode="&#x446;" horiz-adv-x="1161" 
d="M997 1075v-946h103v-438l-154 -86v395h-776v1075h154v-946h520v946h153z" />
    <glyph glyph-name="afii10089" unicode="&#x447;" horiz-adv-x="1051" 
d="M887 0h-154v496q-23 -29 -46.5 -48.5t-60.5 -38t-77 -27.5t-90 -9q-170 0 -260 107t-90 315v280h153v-280q0 -68 12.5 -124t41.5 -93t72 -54.5t104 -17.5q83 0 143 34.5t98 90.5v444h154v-1075z" />
    <glyph glyph-name="afii10090" unicode="&#x448;" horiz-adv-x="1737" 
d="M1573 0h-1403v1075h154v-946h471v946h153v-946h471v946h154v-1075z" />
    <glyph glyph-name="afii10091" unicode="&#x449;" horiz-adv-x="1737" 
d="M1573 1075v-946h102v-438l-153 -86v395h-1352v1075h154v-946h471v946h153v-946h471v946h154z" />
    <glyph glyph-name="afii10092" unicode="&#x44a;" horiz-adv-x="1149" 
d="M930 336q0 99 -56.5 153t-162.5 54h-301v-418h286q119 0 176.5 54t57.5 157zM410 668h321q75 0 139.5 -20t112 -61t74 -102.5t26.5 -144.5q0 -82 -27.5 -145.5t-76.5 -106.5t-117.5 -65.5t-150.5 -22.5h-455v950h-256v125h410v-407z" />
    <glyph glyph-name="afii10093" unicode="&#x44b;" horiz-adv-x="1516" 
d="M324 668h321q75 0 139.5 -20t112 -61t74 -102.5t26.5 -144.5q0 -82 -27.5 -145.5t-76.5 -106.5t-117.5 -65.5t-150.5 -22.5h-455v1075h154v-407zM844 336q0 99 -56.5 153t-162.5 54h-301v-418h286q119 0 176.5 54t57.5 157zM1192 0v1075h154v-1075h-154z" />
    <glyph glyph-name="afii10094" unicode="&#x44c;" horiz-adv-x="1063" 
d="M324 668h321q75 0 139.5 -20t112 -61t74 -102.5t26.5 -144.5q0 -82 -27.5 -145.5t-76.5 -106.5t-117.5 -65.5t-150.5 -22.5h-455v1075h154v-407zM844 336q0 99 -56.5 153t-162.5 54h-301v-418h286q119 0 176.5 54t57.5 157z" />
    <glyph glyph-name="afii10095" unicode="&#x44d;" horiz-adv-x="1014" 
d="M227 635h514q-18 155 -98.5 244.5t-193.5 89.5q-82 0 -143 -28t-120 -81l-88 111q65 55 151.5 91t199.5 36q87 0 168.5 -32.5t144.5 -101.5t101 -176t38 -256q0 -140 -37.5 -244.5t-100.5 -173.5t-144.5 -103t-169.5 -34q-54 0 -103 9.5t-91 29.5t-79.5 47.5t-73.5 63.5
l88 94q56 -54 115 -84.5t137 -30.5q131 0 212 102t91 298h-518v129z" />
    <glyph glyph-name="afii10096" unicode="&#x44e;" horiz-adv-x="1577" 
d="M324 635h211q13 113 54 199.5t103 145t141 88.5t168 30q99 0 183.5 -35t146.5 -105t97.5 -173.5t35.5 -239.5q0 -137 -37 -243t-100.5 -178t-149.5 -109.5t-184 -37.5q-96 0 -179 34.5t-144.5 101t-98.5 165.5t-41 228h-206v-506h-154v1075h154v-440zM1311 541
q0 106 -23 185.5t-64 132.5t-99 79.5t-128 26.5t-127 -26.5t-98 -79.5t-63.5 -132.5t-22.5 -185.5t22.5 -186.5t63.5 -134.5t98 -81.5t127 -27.5t128 27.5t99 81.5t64 134.5t23 186.5z" />
    <glyph glyph-name="afii10097" unicode="&#x44f;" horiz-adv-x="1104" 
d="M113 770q0 78 24.5 135.5t68 95t102.5 56t128 18.5h504v-1075h-154v459h-342l-227 -459h-164l242 487q-84 32 -133 104.5t-49 178.5zM266 766q0 -90 51 -136t154 -46h315v366h-329q-91 0 -141 -48.5t-50 -135.5z" />
    <glyph glyph-name="afii10071" unicode="&#x451;" horiz-adv-x="1106" 
d="M989 569q0 -28 -1.5 -46.5t-4.5 -37.5h-717q6 -86 28.5 -155t60.5 -118t91 -75t119 -26q47 0 85.5 6.5t73 19.5t68 32t70.5 44l72 -111q-48 -31 -91.5 -54.5t-88.5 -39t-94.5 -23.5t-110.5 -8q-49 0 -100.5 12.5t-100 40.5t-91.5 72t-75 107t-50.5 146t-18.5 188
q0 128 33.5 231t92.5 175t140.5 110.5t177.5 38.5q105 0 186 -39.5t135.5 -109.5t82.5 -167.5t28 -212.5zM846 610q-5 78 -24.5 143.5t-55 112.5t-88.5 73t-123 26q-60 0 -110 -21.5t-87.5 -66t-61 -111t-30.5 -156.5h580zM866 1340q0 -23 -9 -43.5t-24 -36t-35.5 -24.5
t-43.5 -9t-43.5 9t-36 24.5t-24.5 36t-9 43.5t9 43.5t24.5 36.5t36 25t43.5 9t43.5 -9t35.5 -25t24 -36.5t9 -43.5zM469 1340q0 -23 -9 -43.5t-24 -36t-35.5 -24.5t-42.5 -9q-24 0 -44.5 9t-36 24.5t-24.5 36t-9 43.5t9 43.5t24.5 36.5t36 25t44.5 9q22 0 42.5 -9t35.5 -25
t24 -36.5t9 -43.5z" />
    <glyph glyph-name="afii10099" unicode="&#x452;" horiz-adv-x="1161" 
d="M324 1200v-323q46 68 120 110.5t177 42.5q85 0 154.5 -25.5t118.5 -79.5t76 -137.5t27 -199.5v-529q0 -171 -63.5 -281.5t-208.5 -172.5l-43 129q86 45 124 118t38 191v518q0 86 -15 149t-46.5 104.5t-79.5 62t-113 20.5q-56 0 -104.5 -19.5t-84.5 -60t-56.5 -104.5
t-20.5 -152v-561h-154v1200h-170v123h170v84l154 86v-170h520v-123h-520z" />
    <glyph glyph-name="afii10100" unicode="&#x453;" horiz-adv-x="862" 
d="M324 946v-946h-154v1075h666v-129h-512zM447 1219h-121l211 327h219z" />
    <glyph glyph-name="afii10101" unicode="&#x454;" horiz-adv-x="1014" 
d="M786 506h-520q9 -192 91.5 -296t213.5 -104q41 0 75 7.5t63 23t53 32t61 52.5l88 -94q-34 -35 -71 -62.5t-79 -47t-90.5 -30t-105.5 -10.5q-88 0 -169.5 34t-144.5 103t-100.5 173.5t-37.5 244.5q0 149 40.5 256t106 176t148.5 101.5t167 32.5q55 0 103.5 -9t93 -28
t76 -38.5t67.5 -51.5l-88 -111q-31 28 -56.5 46t-58.5 33t-68.5 22.5t-78.5 7.5q-115 0 -195 -89t-100 -245h516v-129z" />
    <glyph glyph-name="afii10102" unicode="&#x455;" horiz-adv-x="956" 
d="M809 983l-86 -113q-69 54 -127.5 75.5t-140.5 21.5q-85 0 -132 -37.5t-47 -95.5q0 -34 11.5 -59.5t39 -48.5t73.5 -46.5t114 -54.5q76 -35 136 -66t101 -69t63 -87.5t22 -121.5q0 -79 -31.5 -136.5t-83.5 -94.5t-118 -55t-136 -18q-112 0 -207 38t-172 100l90 112
q65 -57 139 -87.5t154 -30.5q111 0 164 43.5t53 121.5q0 33 -13 60t-42.5 52.5t-78 51t-120.5 56.5q-81 34 -138.5 66t-94.5 68.5t-54.5 83t-17.5 111.5q0 61 25 112t70 87t106.5 56t134.5 20q111 0 196.5 -32t147.5 -83z" />
    <glyph glyph-name="afii10103" unicode="&#x456;" horiz-adv-x="514" 
d="M367 1376q0 -22 -8.5 -41.5t-23.5 -34.5t-34.5 -23.5t-40.5 -8.5q-24 0 -44.5 8.5t-35.5 23.5t-24 34.5t-9 41.5q0 23 9 43.5t24 35.5t35.5 23.5t44.5 8.5q21 0 40.5 -8.5t34.5 -23.5t23.5 -35.5t8.5 -43.5zM180 0v1075h154v-1075h-154z" />
    <glyph glyph-name="afii10104" unicode="&#x457;" horiz-adv-x="514" 
d="M180 0v1075h154v-1075h-154zM569 1330q0 -23 -9 -43.5t-24 -36t-35.5 -24.5t-43.5 -9t-43.5 9t-36 24.5t-24.5 36t-9 43.5t9 43.5t24.5 36.5t36 25t43.5 9t43.5 -9t35.5 -25t24 -36.5t9 -43.5zM172 1330q0 -23 -9 -43.5t-24 -36t-35.5 -24.5t-42.5 -9q-24 0 -44.5 9
t-36 24.5t-24.5 36t-9 43.5t9 43.5t24.5 36.5t36 25t44.5 9q22 0 42.5 -9t35.5 -25t24 -36.5t9 -43.5z" />
    <glyph glyph-name="afii10105" unicode="&#x458;" horiz-adv-x="514" 
d="M367 1376q0 -22 -8.5 -41.5t-23.5 -34.5t-34.5 -23.5t-40.5 -8.5q-24 0 -44.5 8.5t-35.5 23.5t-24 34.5t-9 41.5q0 23 9 43.5t24 35.5t35.5 23.5t44.5 8.5q21 0 40.5 -8.5t34.5 -23.5t23.5 -35.5t8.5 -43.5zM334 25q0 -92 -11.5 -160t-46 -117.5t-96.5 -83.5t-164 -59
l-51 114q73 22 116 45.5t65 57t28 82.5t6 123v1048h154v-1050z" />
    <glyph glyph-name="afii10106" unicode="&#x459;" horiz-adv-x="1665" 
d="M907 668h322q75 0 139.5 -20t112 -61t74 -102.5t26.5 -144.5q0 -82 -27.5 -145.5t-77 -106.5t-118 -65.5t-150.5 -22.5h-454v946h-361l-88 -622q-16 -122 -77 -210t-185 -137l-43 129q68 33 105 83t51 141l104 745h647v-407zM1427 336q0 99 -56 153t-163 54h-301v-418
h287q119 0 176 54t57 157z" />
    <glyph glyph-name="afii10107" unicode="&#x45a;" horiz-adv-x="1751" 
d="M997 668h322q75 0 139.5 -20t112 -61t74 -102.5t26.5 -144.5q0 -82 -27.5 -145.5t-76.5 -106.5t-118 -65.5t-151 -22.5h-454v543h-520v-543h-154v1075h154v-407h520v407h153v-407zM1518 336q0 99 -56.5 153t-163.5 54h-301v-418h287q119 0 176.5 54t57.5 157z" />
    <glyph glyph-name="afii10108" unicode="&#x45b;" horiz-adv-x="1161" 
d="M324 1200v-323q46 68 120 110.5t177 42.5q85 0 154.5 -25.5t118.5 -79.5t76 -137.5t27 -199.5v-588h-153v561q0 80 -14 144.5t-46 107t-79.5 63.5t-114.5 21q-56 0 -104.5 -19.5t-84.5 -60t-56.5 -104.5t-20.5 -152v-561h-154v1200h-170v123h170v84l154 86v-170h520v-123
h-520z" />
    <glyph glyph-name="afii10109" unicode="&#x45c;" horiz-adv-x="1034" 
d="M719 1075h172l-283 -381l340 -694h-166l-272 565l-186 -256v-309h-154v1075l154 86v-648zM508 1219h-121l211 327h219z" />
    <glyph glyph-name="afii10110" unicode="&#x45e;" horiz-adv-x="1087" 
d="M471 -379h-154l148 391l-383 1063h162l299 -891l301 891h162zM544 1196q-72 0 -133 17.5t-106.5 49t-73 75t-33.5 96.5h120q8 -27 27 -48.5t48 -38t66 -25.5t85 -9q47 0 84.5 9t66 25t47.5 37.5t27 49.5h121q-6 -53 -34 -96.5t-73.5 -75t-106 -49t-132.5 -17.5z" />
    <glyph glyph-name="afii10193" unicode="&#x45f;" horiz-adv-x="1161" 
d="M997 1075v-1075h-335v-309l-154 -86v395h-338v1075h154v-946h520v946h153z" />
    <glyph glyph-name="afii10050" unicode="&#x490;" horiz-adv-x="1122" 
d="M1030 1288h-682v-1288h-160v1434h689v180l153 86v-412z" />
    <glyph glyph-name="afii10098" unicode="&#x491;" horiz-adv-x="918" 
d="M836 946h-512v-946h-154v1075h512v180l154 86v-395z" />
    <glyph glyph-name="Wgrave" unicode="&#x1e80;" horiz-adv-x="1753" 
d="M1637 1434l-287 -1434h-181l-294 1202l-295 -1202h-177l-286 1434h159l220 -1208l297 1208h172l295 -1208l221 1208h156zM821 1526l-309 327h219l211 -327h-121z" />
    <glyph glyph-name="wgrave" unicode="&#x1e81;" horiz-adv-x="1495" 
d="M1114 0h-141l-228 846l-227 -846h-137l-285 1075h158l199 -840l227 840h139l228 -840l198 840h154zM701 1219l-309 327h219l211 -327h-121z" />
    <glyph glyph-name="Wacute" unicode="&#x1e82;" horiz-adv-x="1753" 
d="M1637 1434l-287 -1434h-181l-294 1202l-295 -1202h-177l-286 1434h159l220 -1208l297 1208h172l295 -1208l221 1208h156zM934 1526h-121l211 327h219z" />
    <glyph glyph-name="wacute" unicode="&#x1e83;" horiz-adv-x="1495" 
d="M1114 0h-141l-228 846l-227 -846h-137l-285 1075h158l199 -840l227 840h139l228 -840l198 840h154zM805 1219h-121l211 327h219z" />
    <glyph glyph-name="Wdieresis" unicode="&#x1e84;" horiz-adv-x="1753" 
d="M1637 1434l-287 -1434h-181l-294 1202l-295 -1202h-177l-286 1434h159l220 -1208l297 1208h172l295 -1208l221 1208h156zM1192 1655q0 -23 -9 -43.5t-24 -36t-35.5 -24.5t-43.5 -9t-43.5 9t-36 24.5t-24.5 36t-9 43.5t9 43.5t24.5 36.5t36 25t43.5 9t43.5 -9t35.5 -25
t24 -36.5t9 -43.5zM795 1655q0 -23 -9 -43.5t-24 -36t-35.5 -24.5t-42.5 -9q-24 0 -44.5 9t-36 24.5t-24.5 36t-9 43.5t9 43.5t24.5 36.5t36 25t44.5 9q22 0 42.5 -9t35.5 -25t24 -36.5t9 -43.5z" />
    <glyph glyph-name="wdieresis" unicode="&#x1e85;" horiz-adv-x="1495" 
d="M1114 0h-141l-228 846l-227 -846h-137l-285 1075h158l199 -840l227 840h139l228 -840l198 840h154zM1059 1348q0 -23 -9 -43.5t-24 -36t-35.5 -24.5t-43.5 -9t-43.5 9t-36 24.5t-24.5 36t-9 43.5t9 43.5t24.5 36.5t36 25t43.5 9t43.5 -9t35.5 -25t24 -36.5t9 -43.5z
M662 1348q0 -23 -9 -43.5t-24 -36t-35.5 -24.5t-42.5 -9q-24 0 -44.5 9t-36 24.5t-24.5 36t-9 43.5t9 43.5t24.5 36.5t36 25t44.5 9q22 0 42.5 -9t35.5 -25t24 -36.5t9 -43.5z" />
    <glyph glyph-name="Ygrave" unicode="&#x1ef2;" horiz-adv-x="1335" 
d="M1239 1434l-491 -865v-569h-160v567l-492 867h183l390 -703l392 703h178zM707 1526l-309 327h219l211 -327h-121z" />
    <glyph glyph-name="ygrave" unicode="&#x1ef3;" horiz-adv-x="1087" 
d="M471 -379h-154l148 391l-383 1063h162l299 -891l301 891h162zM578 1219l-309 327h219l211 -327h-121z" />
    <glyph glyph-name="endash" unicode="&#x2013;" horiz-adv-x="864" 
d="M104 676v145h656v-145h-656z" />
    <glyph glyph-name="emdash" unicode="&#x2014;" horiz-adv-x="1188" 
d="M104 676v145h979v-145h-979z" />
    <glyph glyph-name="quoteleft" unicode="&#x2018;" horiz-adv-x="516" 
d="M332 977h-209l133 457h106z" />
    <glyph glyph-name="quoteright" unicode="&#x2019;" horiz-adv-x="516" 
d="M260 977h-106l30 457h209z" />
    <glyph glyph-name="quotesinglbase" unicode="&#x201a;" horiz-adv-x="516" 
d="M260 -221h-106l30 457h209z" />
    <glyph glyph-name="quotedblleft" unicode="&#x201c;" horiz-adv-x="961" 
d="M776 977h-209l133 457h107zM332 977h-209l133 457h106z" />
    <glyph glyph-name="quotedblright" unicode="&#x201d;" horiz-adv-x="961" 
d="M705 977h-107l31 457h209zM260 977h-106l30 457h209z" />
    <glyph glyph-name="quotedblbase" unicode="&#x201e;" horiz-adv-x="961" 
d="M705 -221h-107l31 457h209zM260 -221h-106l30 457h209z" />
    <glyph glyph-name="dagger" unicode="&#x2020;" horiz-adv-x="1174" 
d="M657 815v-1020h-141v1020h-403v135h403v484h141v-484h404v-135h-404z" />
    <glyph glyph-name="daggerdbl" unicode="&#x2021;" horiz-adv-x="1174" 
d="M657 279v-484h-141v484h-403v133h403v405h-403v133h403v484h141v-484h404v-133h-404v-405h404v-133h-404z" />
    <glyph glyph-name="bullet" unicode="&#x2022;" horiz-adv-x="766" 
d="M602 750q0 -45 -17 -85t-47 -70t-70 -47.5t-85 -17.5t-85 17.5t-70 47.5t-47 70t-17 85t17 85.5t47 71t70 48.5t85 18t85 -18t70 -48.5t47 -71t17 -85.5z" />
    <glyph glyph-name="ellipsis" unicode="&#x2026;" horiz-adv-x="1475" 
d="M1360 109q0 -27 -11 -51t-29 -42t-41.5 -28.5t-49.5 -10.5q-27 0 -51 10.5t-41.5 28.5t-28 42t-10.5 51t10.5 51t28 43t41.5 30t51 11q26 0 49.5 -11t41.5 -30t29 -43t11 -51zM868 109q0 -27 -10.5 -51t-28.5 -42t-42 -28.5t-50 -10.5q-27 0 -50.5 10.5t-41.5 28.5
t-28.5 42t-10.5 51t10.5 51t28.5 43t41.5 30t50.5 11q26 0 50 -11t42 -30t28.5 -43t10.5 -51zM377 109q0 -27 -11 -51t-29 -42t-41.5 -28.5t-49.5 -10.5q-27 0 -51 10.5t-41.5 28.5t-28 42t-10.5 51t10.5 51t28 43t41.5 30t51 11q26 0 49.5 -11t41.5 -30t29 -43t11 -51z" />
    <glyph glyph-name="perthousand" unicode="&#x2030;" horiz-adv-x="2755" 
d="M614 0h-149l891 1434h149zM1849 424q0 -98 -24 -180.5t-68.5 -141.5t-106.5 -92t-137 -33t-136 32.5t-103.5 91t-66 140t-23.5 179.5q0 100 23.5 182.5t67 141.5t105 91.5t138.5 32.5q78 0 139.5 -32.5t104 -91t65 -140.5t22.5 -180zM1708 420q0 70 -13.5 130t-38.5 103
t-60.5 67.5t-79.5 24.5q-85 0 -138 -87.5t-53 -233.5q0 -71 13.5 -130t38.5 -102.5t60.5 -67.5t80.5 -24q44 0 79.5 26t60 69.5t37.5 101.5t13 123zM2662 424q0 -98 -24 -180.5t-68.5 -141.5t-106.5 -92t-137 -33t-136 32.5t-103.5 91t-66 140t-23.5 179.5q0 100 23.5 182.5
t67 141.5t105 91.5t138.5 32.5q78 0 139.5 -32.5t104 -91t65 -140.5t22.5 -180zM2521 420q0 70 -13.5 130t-38.5 103t-60.5 67.5t-79.5 24.5q-85 0 -138 -87.5t-53 -233.5q0 -71 13.5 -130t38.5 -102.5t60.5 -67.5t80.5 -24q44 0 79.5 26t60 69.5t37.5 101.5t13 123z
M788 1012q0 -98 -24 -180.5t-68.5 -141.5t-106 -92t-136.5 -33t-136 32t-104 90.5t-66.5 140t-23.5 180.5q0 100 23.5 182.5t67 141.5t105 91.5t138.5 32.5q78 0 139.5 -32.5t104 -91t65 -140.5t22.5 -180zM647 1008q0 70 -13.5 130t-38.5 103t-60.5 67.5t-79.5 24.5
q-87 0 -139 -88t-52 -233q0 -71 13.5 -130.5t38.5 -102.5t60.5 -67t80.5 -24q44 0 79.5 26t60 69.5t37.5 101.5t13 123z" />
    <glyph glyph-name="guilsinglleft" unicode="&#x2039;" horiz-adv-x="743" 
d="M477 0l-416 537l416 538h174l-415 -536l415 -539h-174z" />
    <glyph glyph-name="guilsinglright" unicode="&#x203a;" horiz-adv-x="743" 
d="M266 0h-174l416 537l-416 538h174l416 -536z" />
    <glyph glyph-name="fraction" unicode="&#x2044;" horiz-adv-x="936" 
d="M63 0h-167l976 1434h168z" />
    <glyph glyph-name="fraction" unicode="&#x2215;" horiz-adv-x="936" 
d="M63 0h-167l976 1434h168z" />
    <glyph glyph-name="Euro" unicode="&#x20ac;" 
d="M729 -23q-99 0 -181 35.5t-144 103.5t-103 168t-59 228h-158v127h145q-2 19 -2 84t2 90h-145v127h160q45 259 173.5 387.5t317.5 128.5q73 0 129.5 -15t102.5 -45.5t84 -77t75 -108.5l-120 -82q-32 52 -59.5 88.5t-58 58.5t-68.5 32t-89 10q-59 0 -112 -21t-96.5 -66.5
t-76 -117t-49.5 -172.5h498v-127h-512q-2 -23 -2 -46v-48v-41.5t2 -38.5h512v-127h-500q18 -126 57.5 -203.5t88 -120t100 -57t94.5 -14.5q52 0 91.5 11.5t72 35t62 59.5t61.5 84l111 -78q-37 -57 -76.5 -103.5t-86.5 -79.5t-106 -51t-135 -18z" />
    <glyph glyph-name="litre" unicode="&#x2113;" horiz-adv-x="1104" 
d="M850 209l63 -94q-21 -21 -50.5 -46t-67 -47t-83 -36.5t-98.5 -14.5q-72 0 -121.5 25t-80 68t-44 100.5t-13.5 122.5v220l-132 -136l-67 86l199 203v456q0 180 70 277.5t196 97.5q60 0 100 -22t64.5 -55t35 -72.5t10.5 -73.5q0 -73 -17.5 -141t-49.5 -132.5t-76.5 -128
t-97.5 -127.5l-81 -97v-349q0 -101 39.5 -147t104.5 -46q31 0 60 10.5t54 27t46 35.5t37 36zM709 1245q0 51 -21 84t-61 33q-58 0 -88 -56t-30 -176v-324l56 73q27 38 54.5 85t47.5 96t31 97t11 88z" />
    <glyph glyph-name="afii61352" unicode="&#x2116;" horiz-adv-x="2234" 
d="M2060 1104q0 -69 -25 -130t-69 -106t-105.5 -71.5t-134.5 -26.5q-72 0 -132.5 26.5t-105 71.5t-69 106t-24.5 130t24.5 129t69 105t105 70.5t132.5 25.5q73 0 134.5 -25.5t105.5 -70.5t69 -105t25 -129zM1919 1104q0 45 -13.5 83t-38.5 65.5t-60.5 43t-80.5 15.5
q-44 0 -79 -15.5t-59.5 -43t-38 -65.5t-13.5 -83q0 -46 13.5 -85t38 -67t59.5 -43.5t79 -15.5q45 0 80.5 15.5t60.5 43.5t38.5 67t13.5 85zM1395 524v123h665v-123h-665zM1221 0h-150l-729 1141v-1141h-154v1434h156l723 -1164v1164h154v-1434z" />
    <glyph glyph-name="trademark" unicode="&#x2122;" horiz-adv-x="1561" 
d="M381 1348v-732h-98v732h-238v86h573v-86h-237zM1376 616v611l-264 -633l-258 637v-615h-92v818h106l247 -627l249 627h104v-818h-92z" />
    <glyph glyph-name="Omega" unicode="&#x2126;" horiz-adv-x="1483" 
d="M295 772q0 -99 23 -184t66 -161t104 -145.5t137 -136.5v-145h-473v145h294q-81 68 -134.5 131.5t-96 148t-61.5 167t-19 166.5q0 157 45.5 286t126.5 220.5t192 141.5t242 50q132 0 243 -50t192 -141.5t126.5 -220.5t45.5 -286q0 -85 -19.5 -168t-58.5 -161.5
t-97.5 -150.5t-136.5 -133h295v-145h-473v145q76 67 137 136.5t104 145.5t66 161t23 184q0 127 -36.5 227.5t-98 169.5t-143 105.5t-171.5 36.5t-170.5 -36.5t-141 -105.5t-96.5 -169.5t-36 -227.5z" />
    <glyph glyph-name="estimated" unicode="&#x212e;" horiz-adv-x="1427" 
d="M356 651v-450q73 -72 161.5 -109t195.5 -37q91 0 163 22.5t130 62t104.5 94t87.5 118.5l76 -47q-48 -73 -102 -133.5t-120.5 -104t-149.5 -68t-189 -24.5q-145 0 -262.5 54t-200 146.5t-127.5 215.5t-45 262q0 141 44 264.5t126.5 215.5t201.5 145t269 53t268 -54
t200 -146.5t126.5 -216t46.5 -263.5h-1004zM1075 1106q-33 31 -74 58t-87 46t-96 30t-101 11q-105 0 -197 -36.5t-164 -108.5v-373h719v373z" />
    <glyph glyph-name="down.arrow" unicode="&#x2193;" horiz-adv-x="750" 
d="M618 352q7 -9 -4 -22l-239 -361l-240 361q-10 13 -4 22q7 11 19 6l153 -61v1137h143v-1137l154 61q6 3 10.5 1t7.5 -7z" />
    <glyph glyph-name="leftright.arrow" unicode="&#x2194;" horiz-adv-x="1577" 
d="M1176 467q-15 -10 -23 -4q-11 7 -6 18l61 154h-839l61 -154q5 -11 -6 -18q-9 -6 -23 4l-360 240l360 239q14 10 23 4q5 -3 7 -7.5t-1 -10.5l-61 -154h839l-61 154q-3 6 -1 10.5t7 7.5q8 6 23 -4l360 -239z" />
    <glyph glyph-name="partialdiff" unicode="&#x2202;" horiz-adv-x="1159" 
d="M375 1321v135q72 -5 141.5 -23.5t135 -53t126 -86t108 -116t84 -151t57 -191t20.5 -225.5q0 -165 -32.5 -284.5t-93.5 -197t-148.5 -114.5t-197.5 -37q-93 0 -176.5 33t-147 96.5t-101 157.5t-37.5 217q0 124 36 218.5t96 158t137.5 96.5t160.5 33q116 0 206.5 -41
t157.5 -141q-31 136 -81 226.5t-117.5 151.5t-153 95t-180.5 43zM893 485q0 97 -24.5 166.5t-68 114.5t-103.5 66.5t-132 21.5q-68 0 -123 -24t-93.5 -71t-59.5 -116t-21 -158q0 -95 24 -165.5t66 -117t99 -69t123 -22.5t123 22.5t99.5 69t66.5 117t24 165.5z" />
    <glyph glyph-name="Delta" unicode="&#x2206;" horiz-adv-x="1405" 
d="M96 0l522 1434h173l518 -1434h-1213zM703 1250l-388 -1105h772z" />
    <glyph glyph-name="product" unicode="&#x220f;" horiz-adv-x="1384" 
d="M1036 -300v1588h-688v-1588h-160v1734h1008v-1734h-160z" />
    <glyph glyph-name="summation" unicode="&#x2211;" horiz-adv-x="1264" 
d="M336 1294l479 -670l-520 -785h854v-139h-1024v139l510 774l-485 681v140h983v-140h-797z" />
    <glyph glyph-name="minus" unicode="&#x2212;" horiz-adv-x="1182" 
d="M1069 774v-139h-956v139h956z" />
    <glyph glyph-name="radical" unicode="&#x221a;" horiz-adv-x="1188" 
d="M555 0h-143l-318 696h164l224 -519l460 1257h154z" />
    <glyph glyph-name="infinity" unicode="&#x221e;" horiz-adv-x="1939" 
d="M641 1184q108 0 194.5 -44t138.5 -134q50 93 135.5 135.5t195.5 42.5q84 0 155.5 -30.5t124.5 -87t83 -136.5t30 -180q0 -107 -30 -190.5t-83.5 -141t-127 -87.5t-159.5 -30q-108 0 -195 46t-138 138q-51 -94 -136 -139t-194 -45q-84 0 -155.5 31.5t-124.5 89t-83 138.5
t-30 181t31.5 182t85.5 140t126.5 89.5t155.5 31.5zM905 745q0 78 -18.5 137.5t-52 99t-80.5 59.5t-105 20t-105.5 -21.5t-81.5 -62t-52.5 -99t-18.5 -133.5t19 -134.5t54 -101t84 -63.5t109 -22q48 0 90 14.5t75 43t56 71.5t33 101q-6 43 -6 91zM1034 750q0 -86 18.5 -148
t52.5 -101.5t81.5 -58t105.5 -18.5q61 0 109 22.5t81 64t50.5 101t17.5 133.5q0 75 -19.5 134t-54.5 99.5t-84.5 61.5t-109.5 21q-44 0 -85.5 -13t-76.5 -42.5t-57.5 -71.5t-33.5 -100q2 -20 3.5 -41t1.5 -43z" />
    <glyph glyph-name="integral" unicode="&#x222b;" horiz-adv-x="805" 
d="M418 -131q0 -72 -21 -122t-57 -81.5t-85 -46t-105 -14.5q-94 0 -150 18v146q26 -13 64 -19t75 -6q57 0 91 26t34 93v1329q0 72 21 122t57 81.5t85 46t105 14.5q94 0 150 -18v-146q-26 13 -64 19t-75 6q-57 0 -91 -26t-34 -93v-1329z" />
    <glyph glyph-name="approxequal" unicode="&#x2248;" 
d="M821 785q-55 0 -103.5 17t-100.5 52.5t-85 49.5t-65 14q-47 0 -81 -32.5t-40 -94.5h-139q0 68 23.5 118t59 83t78 49t80.5 16q54 0 102.5 -16.5t92.5 -46.5t82.5 -50t77.5 -20q47 0 81 34t40 93h139q0 -68 -23.5 -118t-59 -83t-78 -49t-81.5 -16zM821 342
q-55 0 -103.5 17t-100.5 52.5t-85 49.5t-65 14q-47 0 -81 -32.5t-40 -94.5h-139q0 68 23.5 118t59 83t78 49t80.5 16q54 0 102.5 -16.5t92.5 -46.5t82.5 -50t77.5 -20q47 0 81 34t40 93h139q0 -68 -23.5 -118t-59 -83t-78 -49t-81.5 -16z" />
    <glyph glyph-name="notequal" unicode="&#x2260;" 
d="M814 999h248v-143h-295l-102 -303h397v-143h-447l-90 -269h-151l90 269h-256v143h305l102 303h-407v143h454l89 258h151z" />
    <glyph glyph-name="lessequal" unicode="&#x2264;" 
d="M372 696v140l530 446v-190l-409 -324l409 -324v-194zM368 59v140h534v-140h-534z" />
    <glyph glyph-name="greaterequal" unicode="&#x2265;" 
d="M367 250v194l410 324l-410 324v190l531 -446v-140zM367 59v140h535v-140h-535z" />
    <glyph glyph-name="lozenge" unicode="&#x25ca;" horiz-adv-x="1126" 
d="M563 1157l-327 -514l327 -514l328 514zM1067 641l-403 -641h-199l-406 641l404 641h199z" />
    <glyph glyph-name="apple" unicode="&#xf8ff;" horiz-adv-x="1638" 
d="M1253 446q-31 -19 -63 0q-34 27 -19 70l41 92h-288v-254l98 39q44 16 68 -22q15 -27 -7 -58l-264 -344l-270 344q-19 30 -4 58q23 38 71 22l95 -39v254h-285l41 -94q17 -43 -15 -66q-34 -22 -65 -2l-346 271l346 264q34 22 63 1q31 -22 17 -62l-41 -99h285v258l-95 -39
q-44 -17 -71 23q-16 29 4 57l270 344l264 -344q20 -30 7 -57q-23 -39 -68 -23l-98 39v-258h288l-41 99q-14 47 25 67q25 13 57 -6l344 -264z" />
    <glyph glyph-name="DEL" horiz-adv-x="0" 
 />
    <glyph glyph-name="four.superior" horiz-adv-x="885" 
d="M556 736h-459v112l459 594h137v-573h119v-133h-119v-203h-137v203zM556 869v358l-279 -358h279z" />
    <glyph glyph-name="quotedbl.lfprop" horiz-adv-x="942" 
d="M735 764h-121l-34 670h190zM328 764h-121l-35 670h190z" />
    <glyph glyph-name="numbersign.lfprop" horiz-adv-x="1376" 
d="M1024 360v-360h-154v360h-364v-360h-154v360h-246v144h246v426h-246v143h246v361h154v-361h364v361h154v-361h246v-143h-246v-426h246v-144h-246zM870 930h-364v-426h364v426z" />
    <glyph glyph-name="dollar.lfprop" horiz-adv-x="1192" 
d="M1059 387q0 -154 -103.5 -258.5t-293.5 -126.5v-207h-154v207q-124 14 -227.5 66.5t-178.5 128.5l107 118q81 -78 175 -125t206 -47q145 0 227 62t82 174q0 50 -16.5 88.5t-56 72.5t-105.5 65.5t-164 66.5q-116 41 -195 81t-128 86.5t-70 104t-21 135.5q0 77 26 138
t73.5 106t115 72.5t150.5 36.5v206h154v-204q95 -8 178 -40t188 -112l-102 -125q-39 32 -78 57t-80 42t-86.5 25.5t-99.5 8.5q-74 0 -127 -15.5t-86.5 -42.5t-49.5 -63.5t-16 -78.5q0 -45 13 -79.5t49.5 -66t103 -63.5t174.5 -70q119 -43 199 -85t128 -90.5t68.5 -108.5
t20.5 -140z" />
    <glyph glyph-name="percent.lfprop" horiz-adv-x="1972" 
d="M788 1012q0 -98 -24 -180.5t-68.5 -141.5t-106 -92t-136.5 -33t-136 32t-104 90.5t-66.5 140t-23.5 180.5q0 100 23.5 182.5t67 141.5t105 91.5t138.5 32.5q78 0 139.5 -32.5t104 -91t65 -140.5t22.5 -180zM614 0h-149l891 1434h149zM1849 424q0 -98 -24 -180.5
t-68.5 -141.5t-106.5 -92t-137 -33t-136 32.5t-103.5 91t-66 140t-23.5 179.5q0 100 23.5 182.5t67 141.5t105 91.5t138.5 32.5q78 0 139.5 -32.5t104 -91t65 -140.5t22.5 -180zM647 1008q0 70 -13.5 130t-38.5 103t-60.5 67.5t-79.5 24.5q-87 0 -139 -88t-52 -233
q0 -71 13.5 -130.5t38.5 -102.5t60.5 -67t80.5 -24q44 0 79.5 26t60 69.5t37.5 101.5t13 123zM1708 420q0 70 -13.5 130t-38.5 103t-60.5 67.5t-79.5 24.5q-85 0 -138 -87.5t-53 -233.5q0 -71 13.5 -130t38.5 -102.5t60.5 -67.5t80.5 -24q44 0 79.5 26t60 69.5t37.5 101.5
t13 123z" />
    <glyph glyph-name="quotesingle.lfprop" horiz-adv-x="526" 
d="M326 764h-125l-35 670h194z" />
    <glyph glyph-name="plus.lfprop" horiz-adv-x="1182" 
d="M666 635v-416h-150v416h-403v139h403v416h150v-416h403v-139h-403z" />
    <glyph glyph-name="zero.lfprop" horiz-adv-x="1315" 
d="M1194 717q0 -178 -39 -316t-109.5 -232t-169.5 -143t-219 -49t-218.5 49t-169 143t-109.5 232t-39 316t39 316t109.5 232t169 142.5t218.5 48.5t219 -48.5t169.5 -142.5t109.5 -232t39 -316zM1036 717q0 139 -24.5 249.5t-72 187.5t-118.5 118t-164 41t-163.5 -41
t-118 -118t-72 -187.5t-24.5 -249.5t24.5 -249.5t72 -187.5t118 -118t163.5 -41t164 41t118.5 118t72 187.5t24.5 249.5z" />
    <glyph glyph-name="one.lfprop" horiz-adv-x="639" 
d="M291 0v1147h-260v100q59 4 109 14.5t89 32.5t64.5 56t34.5 84h121v-1434h-158z" />
    <glyph glyph-name="two.lfprop" horiz-adv-x="1165" 
d="M80 0q7 136 41.5 236t93.5 180t141.5 147t184.5 137q95 64 155.5 112t94.5 89.5t46.5 82t12.5 89.5q0 112 -75.5 176t-217.5 64q-62 0 -111 -10t-90 -27.5t-77 -42t-70 -53.5l-92 116q44 36 90.5 65.5t99 50.5t115.5 32.5t141 11.5q95 0 176.5 -22.5t141 -69t93.5 -117
t34 -166.5q0 -80 -19.5 -139.5t-62.5 -112t-111.5 -105.5t-165.5 -120q-109 -74 -179.5 -132.5t-113 -110.5t-63.5 -102t-31 -107h760v-152h-942z" />
    <glyph glyph-name="three.lfprop" horiz-adv-x="1153" 
d="M1020 412q0 -102 -35.5 -183t-101.5 -137t-160.5 -85.5t-212.5 -29.5q-68 0 -133 16.5t-122.5 44t-106 63.5t-82.5 75l106 107q68 -73 154.5 -117.5t191.5 -44.5q175 0 259.5 74t84.5 213q0 67 -24.5 117.5t-69.5 84.5t-107.5 51t-138.5 17h-94v137h98q70 0 122 18.5
t86.5 52t51.5 80t17 103.5q0 51 -15.5 95.5t-50 77.5t-91 52t-138.5 19q-91 0 -163 -37t-126 -94l-100 102q73 76 175.5 124t217.5 48q94 0 176 -22.5t143 -68.5t95.5 -114.5t34.5 -160.5q0 -66 -14.5 -117.5t-41 -92.5t-64 -71.5t-83.5 -54.5q52 -12 99.5 -37t83.5 -66.5
t57.5 -100.5t21.5 -138z" />
    <glyph glyph-name="four.lfprop" horiz-adv-x="1280" 
d="M1190 340h-197v-340h-147v340h-766v133l741 961h172v-957h197v-137zM846 477v760l-586 -760h586z" />
    <glyph glyph-name="five.lfprop" horiz-adv-x="1239" 
d="M1110 477q0 -130 -40 -224t-111 -155.5t-170.5 -91t-217.5 -29.5q-133 0 -246 36t-206 96l78 127q80 -51 179 -83t208 -32q178 0 273 93.5t95 252.5q0 70 -21.5 125.5t-64.5 94.5t-107 60t-149 21q-90 0 -163 -23.5t-136 -68.5l-157 61l49 697h821v-152h-684l-35 -461
q54 37 135 63.5t181 26.5q123 0 214.5 -31.5t152.5 -88.5t91.5 -137t30.5 -177z" />
    <glyph glyph-name="six.lfprop" horiz-adv-x="1257" 
d="M1167 442q0 -115 -40.5 -202t-111.5 -145.5t-167.5 -88t-208.5 -29.5q-107 0 -200.5 31t-163.5 98.5t-110 175t-40 261.5q0 93 18 194t57.5 199.5t103.5 188.5t156 160.5t214.5 116t279.5 54.5v-141q-282 -25 -451 -178t-224 -424q34 37 74.5 67.5t90.5 53t111 35
t137 12.5q98 0 184.5 -27t151 -81.5t102 -137t37.5 -193.5zM1010 434q0 144 -93.5 223.5t-265.5 79.5q-85 0 -153 -22t-116 -61.5t-73.5 -95.5t-25.5 -124q0 -67 26 -124t73.5 -99t114.5 -66t148 -24q89 0 157.5 23t114.5 64.5t69.5 99t23.5 126.5z" />
    <glyph glyph-name="seven.lfprop" horiz-adv-x="1139" 
d="M975 1284q-95 -117 -179.5 -253t-149.5 -295t-104.5 -342.5t-43.5 -393.5h-162q5 193 41.5 369t98 335.5t144.5 303.5t181 274h-768v152h942v-150z" />
    <glyph glyph-name="eight.lfprop" horiz-adv-x="1303" 
d="M1184 401q0 -104 -38 -183.5t-107.5 -133t-168.5 -80.5t-221 -27t-220 26.5t-167 79t-106 131.5t-37 183q0 143 74 234.5t210 136.5q-49 19 -90 46.5t-70.5 65t-46 85t-16.5 106.5q0 84 31 154.5t91 121.5t148.5 80t202.5 29t202 -28t147 -78.5t89.5 -120.5t30.5 -154
q0 -57 -16 -103.5t-45 -84t-70 -66t-92 -49.5q135 -44 210 -136.5t75 -234.5zM965 1071q0 45 -17 88.5t-54.5 77.5t-98 55t-146.5 21t-145.5 -20t-96 -53.5t-53 -76.5t-16.5 -88q0 -52 21.5 -96.5t62.5 -77.5t99 -51.5t132 -18.5q72 0 129.5 19t98 51.5t62.5 76t22 93.5z
M1026 397q0 63 -25 116.5t-73.5 92t-118.5 60.5t-160 22q-173 0 -273 -78t-100 -209q0 -63 23.5 -114.5t70.5 -88.5t117.5 -57t165.5 -20q94 0 164.5 19.5t116.5 55.5t69 87t23 114z" />
    <glyph glyph-name="nine.lfprop" horiz-adv-x="1257" 
d="M1133 891q0 -93 -18 -194.5t-57.5 -200t-103.5 -188.5t-156 -160.5t-215 -116t-280 -54.5v142q284 25 452 176.5t224 425.5q-35 -37 -75 -67.5t-90 -53t-111.5 -35t-137.5 -12.5q-98 0 -184.5 26.5t-151 81t-102 137t-37.5 193.5q0 115 40.5 202t111.5 145.5t167.5 88
t208.5 29.5q107 0 201 -31t163.5 -98.5t110 -175t40.5 -260.5zM975 999q0 67 -26 124.5t-74 99.5t-115 66t-148 24q-89 0 -157 -23t-114 -64.5t-69.5 -99.5t-23.5 -127q0 -142 93.5 -222.5t264.5 -80.5q85 0 153.5 21.5t116.5 61.5t73.5 96t25.5 124z" />
    <glyph glyph-name="less.lfprop" horiz-adv-x="788" 
d="M117 635v139l530 508v-190l-409 -385l409 -385v-195z" />
    <glyph glyph-name="equal.lfprop" horiz-adv-x="1182" 
d="M164 856v143h854v-143h-854zM164 410v143h854v-143h-854z" />
    <glyph glyph-name="greater.lfprop" horiz-adv-x="788" 
d="M141 127v190l410 385l-410 385v195l531 -508v-139z" />
    <glyph glyph-name="degree.lfprop" horiz-adv-x="975" 
d="M870 1065q0 -84 -28.5 -156.5t-79 -125.5t-121 -83t-154.5 -30q-83 0 -153 30t-121 83t-80 125.5t-29 156.5q0 82 29 153.5t80 124t121 83t153 30.5q84 0 154.5 -30.5t121 -83t79 -124t28.5 -153.5zM735 1065q0 57 -17.5 105.5t-50 83.5t-78.5 55t-102 20
q-55 0 -100.5 -20t-78 -55t-50.5 -83.5t-18 -105.5q0 -60 18 -109.5t50.5 -84.5t78 -54.5t100.5 -19.5q56 0 102 19.5t78.5 54.5t50 84.5t17.5 109.5z" />
    <glyph glyph-name="cent.lfprop" horiz-adv-x="1014" 
d="M911 319q-55 -57 -119.5 -93.5t-148.5 -49.5v-199h-158v199q-76 14 -143.5 55t-118.5 109t-80.5 164t-29.5 221q0 129 31 226.5t82.5 165.5t118.5 109t140 56v193h158v-189q85 -11 152.5 -43.5t119.5 -79.5l-88 -110q-71 59 -127 81.5t-135 22.5q-63 0 -117.5 -28
t-94 -81.5t-62.5 -131.5t-23 -179q0 -99 20.5 -179t59.5 -137t95.5 -87.5t127.5 -30.5q79 0 137 29.5t113 83.5z" />
    </font>
</defs>
</svg>
