<?xml version="1.0" standalone="no"?>
<!DOCTYPE svg PUBLIC "-//W3C//DTD SVG 1.1//EN" "http://www.w3.org/Graphics/SVG/1.1/DTD/svg11.dtd" >
<svg xmlns="http://www.w3.org/2000/svg" xmlns:xlink="http://www.w3.org/1999/xlink" version="1.1">
<metadata>
Created by FontForge 20160405 at Mon Mar 12 13:50:17 2018
 By www-data
Copyright (c) 2007 by The Font Bureau, Inc.. All rights reserved.
</metadata>
<defs>
<font id="InterstateMazda-Regular" horiz-adv-x="1270" >
  <font-face 
    font-family="Interstate Mazda Regular"
    font-weight="400"
    font-stretch="normal"
    units-per-em="2048"
    panose-1="2 0 5 3 2 0 0 2 0 4"
    ascent="1638"
    descent="-410"
    x-height="1075"
    cap-height="1434"
    bbox="-450 -490 2730 2181"
    underline-thickness="41"
    underline-position="-312"
    unicode-range="U+0020-FB02"
  />
<missing-glyph horiz-adv-x="1024" 
 />
    <glyph glyph-name="fi" unicode="fi" 
d="M1135 1350q0 -28 -11 -52.5t-29.5 -43t-43 -29.5t-52.5 -11t-53 11t-43.5 29.5t-29.5 43t-11 52.5t11 53t29.5 43.5t43.5 29.5t53 11t52.5 -11t43 -29.5t29.5 -43.5t11 -53zM659 1282q-37 11 -66 16t-56 5q-53 0 -76 -23t-23 -82v-123h199v-196h-199v-879h-211v879h-139
v196h139v142q0 73 21.5 124.5t58 84t86.5 47t107 14.5q42 0 83.5 -5.5t75.5 -15.5v-184zM893 0v1075h211v-1075h-211z" />
    <glyph glyph-name="fl" unicode="fl" 
d="M893 0v1382l211 111v-1493h-211zM659 1282q-37 11 -66 16t-56 5q-53 0 -76 -23t-23 -82v-123h199v-196h-199v-879h-211v879h-139v196h139v142q0 73 21.5 124.5t58 84t86.5 47t107 14.5q42 0 83.5 -5.5t75.5 -15.5v-184z" />
    <glyph glyph-name=".notdef" horiz-adv-x="1024" 
 />
    <glyph glyph-name=".null" horiz-adv-x="0" 
 />
    <glyph glyph-name="nonmarkingreturn" horiz-adv-x="553" 
 />
    <glyph glyph-name="space" unicode=" " horiz-adv-x="553" 
 />
    <glyph glyph-name="space" unicode="&#xa0;" horiz-adv-x="553" 
 />
    <glyph glyph-name="exclam" unicode="!" horiz-adv-x="610" 
d="M373 414h-135l-41 383v637h217v-637zM459 131q0 -32 -12.5 -60t-33.5 -49t-49 -33t-59 -12q-32 0 -59.5 12t-48.5 33t-33 49t-12 60q0 31 12 59.5t33 50t48.5 34t59.5 12.5q31 0 59 -12.5t49 -34t33.5 -50t12.5 -59.5z" />
    <glyph glyph-name="quotedbl" unicode="&#x22;" horiz-adv-x="1004" 
d="M805 764h-154l-51 670h256zM352 764h-153l-52 670h256z" />
    <glyph glyph-name="numbersign" unicode="#" 
d="M971 340v-340h-189v340h-295v-340h-188v340h-205v168h205v418h-205v168h205v340h188v-340h295v340h189v-340h205v-168h-205v-418h205v-168h-205zM786 928h-303v-422h303v422z" />
    <glyph glyph-name="dollar" unicode="$" 
d="M1139 406q0 -83 -28 -151t-80.5 -119.5t-128 -84.5t-169.5 -45v-209h-211v209q-62 7 -120 23.5t-111 39.5t-100.5 52t-86.5 61l125 166q44 -35 92 -64t99 -50.5t104 -33.5t107 -12q137 0 213 52.5t76 152.5q0 42 -15.5 75t-53 61t-101 53.5t-158.5 54.5
q-123 38 -208.5 76.5t-139 86t-77.5 109t-24 146.5q0 79 27 143t76.5 111.5t119.5 77t156 40.5v209h213v-206q57 -5 107 -17t95 -30.5t87 -43t84 -53.5l-123 -170q-45 31 -87.5 55.5t-86.5 40.5t-91.5 24.5t-101.5 8.5q-69 0 -117 -13.5t-78.5 -37.5t-44 -56t-13.5 -69
q0 -38 12 -68t47.5 -56.5t98.5 -53t165 -57.5q127 -39 213 -79t139 -89t76 -112t23 -148z" />
    <glyph glyph-name="percent" unicode="%" 
d="M524 1059q0 -182 -61 -287.5t-166 -105.5q-103 0 -163 99t-60 294q0 197 63.5 297t159.5 100q112 0 169.5 -105t57.5 -292zM381 1059q0 130 -21 197t-63 67q-43 0 -62.5 -65t-19.5 -195t21.5 -197t64.5 -67q41 0 60.5 66.5t19.5 193.5zM360 0h-141l690 1434h142z
M1196 375q0 -189 -61 -293t-164 -105q-108 1 -167 105t-59 289q0 192 63.5 294.5t162.5 102.5q107 0 166 -100.5t59 -292.5zM1055 371q0 135 -22 199.5t-63 64.5q-43 0 -62 -65t-19 -195t21 -197t64 -67t62 66.5t19 193.5z" />
    <glyph glyph-name="ampersand" unicode="&#x26;" horiz-adv-x="1393" 
d="M795 1130q0 74 -44.5 110t-113.5 36q-42 0 -72.5 -12t-51 -32t-30.5 -46.5t-10 -55.5q0 -55 19.5 -92.5t54.5 -79.5l57 -71q55 32 92 62.5t59 60t31 59.5t9 61zM727 737l240 -293q31 57 56 117.5t42 120.5l195 -55q-23 -88 -61 -177t-95 -169l225 -281h-246l-110 133
q-81 -71 -181.5 -113.5t-224.5 -42.5q-114 0 -198 28t-139.5 79t-83 123t-27.5 160q0 66 15.5 122.5t50.5 107.5t93 98.5t142 95.5l-29 34q-36 42 -61 79t-41 73t-23.5 72t-7.5 77q0 77 28 138t79.5 103t124.5 64.5t163 22.5q69 0 133 -21.5t113.5 -63t79 -101.5t29.5 -138
q0 -224 -281 -393zM543 645q-105 -57 -157 -122t-52 -146q0 -43 14.5 -80t44.5 -64.5t75.5 -43t106.5 -15.5q82 0 150 30t121 81z" />
    <glyph glyph-name="quotesingle" unicode="'" horiz-adv-x="551" 
d="M358 764h-165l-52 670h269z" />
    <glyph glyph-name="parenleft" unicode="(" horiz-adv-x="723" 
d="M602 -225q-69 40 -138 89t-132 108.5t-117 129t-94 149t-63 170t-23 191.5q0 107 23 201t63 176t94 152t117 129.5t132 108.5t138 89l86 -96q-95 -74 -171.5 -151.5t-130.5 -166.5t-83 -194.5t-29 -234.5q0 -134 29 -241t83 -196t130.5 -166t171.5 -151z" />
    <glyph glyph-name="parenright" unicode=")" horiz-adv-x="723" 
d="M688 631q0 -107 -23 -201t-63 -176t-94 -152t-117 -129.5t-132 -108.5t-138 -89l-86 96q95 74 171.5 151.5t130 167t82.5 194.5t29 234q0 134 -29 241t-82.5 196.5t-130 166t-171.5 150.5l86 96q69 -40 138 -89t132 -108.5t117 -129t94 -149t63 -170t23 -191.5z" />
    <glyph glyph-name="asterisk" unicode="*" horiz-adv-x="1024" 
d="M872 952l-81 -139l-228 162l31 -279h-160l27 281l-228 -164l-81 139l256 115l-254 115l82 139l225 -166l-27 279h160l-31 -277l225 164l82 -139l-258 -115z" />
    <glyph glyph-name="plus" unicode="+" 
d="M739 606v-416h-209v416h-397v197h397v416h209v-416h398v-197h-398z" />
    <glyph glyph-name="comma" unicode="," horiz-adv-x="635" 
d="M300 -258h-145l30 543h269z" />
    <glyph glyph-name="hyphen" unicode="-" horiz-adv-x="737" 
d="M113 645v209h512v-209h-512z" />
    <glyph glyph-name="hyphen" unicode="&#xad;" horiz-adv-x="737" 
d="M113 645v209h512v-209h-512z" />
    <glyph glyph-name="period" unicode="." horiz-adv-x="635" 
d="M479 139q0 -34 -12.5 -63.5t-34.5 -51.5t-51.5 -34.5t-63.5 -12.5t-63.5 12.5t-51 34.5t-34 51.5t-12.5 63.5t12.5 63.5t34 52t51 35.5t63.5 13t63.5 -13t51.5 -35.5t34.5 -52t12.5 -63.5z" />
    <glyph glyph-name="slash" unicode="/" horiz-adv-x="913" 
d="M244 -184h-211l637 1802h211z" />
    <glyph glyph-name="zero" unicode="0" 
d="M1167 717q0 -179 -39.5 -317t-110 -232t-168 -142.5t-214.5 -48.5t-215.5 48.5t-169.5 142t-110.5 231.5t-39.5 318q0 179 40 317t111 231.5t169 142t215 48.5t215 -48t168.5 -142t109.5 -231.5t39 -317.5zM952 717q0 133 -22.5 235t-63.5 172t-99.5 106t-131.5 36
q-74 0 -133 -35.5t-100 -105.5t-63 -172.5t-22 -235.5t22.5 -235.5t63.5 -172t100 -105.5t132 -36t132 35.5t100 105t63 172t22 236.5z" />
    <glyph glyph-name="one" unicode="1" 
d="M240 0v182h321v920h-289v143q73 4 129.5 15t97.5 33t66.5 56.5t36.5 84.5h176v-1252h293v-182h-831z" />
    <glyph glyph-name="two" unicode="2" 
d="M106 0q8 145 45 252.5t101 192t152 153t198 135.5q89 57 145 99t87.5 78t43 71.5t11.5 79.5q0 96 -68 150.5t-198 54.5q-60 0 -110 -10.5t-93.5 -29.5t-82.5 -45.5t-77 -58.5l-123 150q48 39 100.5 72.5t112.5 58.5t129 39t150 14q103 0 190 -23.5t149 -71t97 -119
t35 -167.5q0 -79 -18.5 -138.5t-60.5 -111.5t-110.5 -103t-169.5 -114q-109 -69 -179.5 -123.5t-114 -102.5t-65.5 -93t-34 -94h766v-195h-1008z" />
    <glyph glyph-name="three" unicode="3" 
d="M1118 420q0 -107 -37 -189.5t-106 -139t-168.5 -85.5t-224.5 -29q-80 0 -151 15t-133 42t-115 63.5t-97 78.5l135 143q72 -68 163 -110.5t204 -42.5q164 0 240.5 66.5t76.5 183.5q0 60 -22 104.5t-62.5 74.5t-98.5 45t-130 15h-121v181h119q132 0 194 58.5t62 158.5
q0 47 -15 86.5t-48 68t-86 44.5t-130 16q-93 0 -168 -33.5t-135 -87.5l-125 141q35 31 81 61.5t101 54t118 38t134 14.5q104 0 193 -22.5t154 -68.5t102 -117.5t37 -168.5q0 -63 -14.5 -112.5t-41 -88.5t-63.5 -68.5t-82 -51.5q51 -13 98 -39.5t83 -67.5t57.5 -98.5
t21.5 -132.5z" />
    <glyph glyph-name="four" unicode="4" 
d="M1004 322v-322h-195v324h-725v165l700 945h220v-932h178v-180h-178zM809 1164l-490 -662h490v662z" />
    <glyph glyph-name="five" unicode="5" 
d="M1145 481q0 -128 -39 -222.5t-110.5 -157t-172.5 -93.5t-225 -31q-142 0 -259 41.5t-216 112.5l110 160q81 -57 177.5 -91t199.5 -34q82 0 143 22t101 62t60 96.5t20 126.5q0 130 -73.5 201t-219.5 71q-47 0 -85.5 -6t-72 -18t-62.5 -28.5t-56 -37.5l-199 68l47 711h850
v-193h-668l-28 -393q52 34 125.5 58t175.5 24q117 0 206.5 -31t149.5 -89.5t90.5 -141.5t30.5 -187z" />
    <glyph glyph-name="six" unicode="6" 
d="M1180 455q0 -117 -40.5 -206.5t-112.5 -149.5t-171.5 -91t-218.5 -31q-111 0 -206 32t-165.5 101t-110.5 176.5t-40 258.5q0 96 18.5 198t60 200t107.5 187t161 158.5t220.5 114t286.5 53.5l10 -182q-272 -25 -432.5 -158.5t-220.5 -365.5q34 32 72.5 59t85 46t103 29.5
t126.5 10.5q98 0 183.5 -26.5t148.5 -81t99 -137.5t36 -195zM969 440q0 63 -20 113.5t-60 86t-99.5 54.5t-136.5 19t-137 -19t-102 -54.5t-64 -86t-22 -113.5q0 -60 22.5 -111t63.5 -88t100 -58t133 -21q78 0 138 20t101 56t62 87.5t21 114.5z" />
    <glyph glyph-name="seven" unicode="7" 
d="M1155 1249q-115 -124 -207.5 -259t-157.5 -287.5t-101 -326.5t-38 -376h-217q4 189 38 359t94 324t145 292.5t192 263.5h-794v195h1046v-185z" />
    <glyph glyph-name="eight" unicode="8" 
d="M1163 414q0 -106 -37.5 -187.5t-107 -137t-168 -84t-219.5 -28.5t-218 28t-165.5 83t-105 136.5t-36.5 187.5q0 70 18.5 126.5t52 101t80 77t103.5 53.5q-43 19 -79 46t-62.5 63.5t-41.5 82.5t-15 103q0 86 32 158t93 123.5t149 80.5t199 29q113 0 200.5 -28.5t147.5 -80
t91.5 -123t31.5 -157.5q0 -55 -14.5 -99.5t-40.5 -80.5t-62.5 -64t-81.5 -49q57 -21 104 -54t81 -77.5t52.5 -101.5t18.5 -127zM899 1061q0 42 -15 81.5t-47 70t-82.5 49t-121.5 18.5q-72 0 -122 -17.5t-81 -47.5t-45 -69t-14 -81q0 -46 17.5 -85.5t51 -68t82.5 -45
t113 -16.5q62 0 111 16.5t83 45t52 67t18 82.5zM952 412q0 57 -21 105.5t-61.5 83t-100 54t-136.5 19.5q-78 0 -137 -19t-99.5 -53.5t-61 -81.5t-20.5 -104q0 -59 20.5 -106.5t61 -81t100.5 -52t140 -18.5t140 17.5t99.5 53.5t57.5 81.5t18 101.5z" />
    <glyph glyph-name="nine" unicode="9" 
d="M942 993q0 61 -22.5 112t-63.5 88t-100.5 58t-132.5 21q-78 0 -138 -20t-101 -56.5t-62 -88t-21 -114.5q0 -131 83 -201.5t232 -70.5q77 0 137.5 19t102.5 54t64 85.5t22 113.5zM1153 889q0 -96 -18.5 -198t-59.5 -200.5t-107 -187.5t-160.5 -158.5t-220 -114
t-286.5 -53.5l-10 183q271 25 432 158.5t221 365.5q-34 -32 -72.5 -59t-85 -46t-103 -29.5t-126.5 -10.5q-99 0 -184.5 26.5t-149 81t-99.5 137.5t-36 195q0 117 40.5 206t113 149t172.5 91t219 31q111 0 206 -32t164.5 -101t109.5 -176.5t40 -257.5z" />
    <glyph glyph-name="colon" unicode=":" horiz-adv-x="635" 
d="M480 934q0 -33 -13 -62.5t-35 -51.5t-51.5 -35t-62.5 -13t-62.5 13t-51.5 35t-35 51.5t-13 62.5t13 62.5t35 52t51.5 36t62.5 13.5t62.5 -13.5t51.5 -36t35 -52t13 -62.5zM480 139q0 -33 -13 -62.5t-35 -51.5t-51.5 -35t-62.5 -13t-62.5 13t-51.5 35t-35 51.5t-13 62.5
t13 62.5t35 52t51.5 36t62.5 13.5t62.5 -13.5t51.5 -36t35 -52t13 -62.5z" />
    <glyph glyph-name="semicolon" unicode=";" horiz-adv-x="635" 
d="M479 934q0 -33 -13 -62.5t-35 -51.5t-51.5 -35t-62.5 -13t-62.5 13t-51.5 35t-35 51.5t-13 62.5t13 62.5t35 52t51.5 36t62.5 13.5t62.5 -13.5t51.5 -36t35 -52t13 -62.5zM301 -258h-146l31 543h268z" />
    <glyph glyph-name="less" unicode="&#x3c;" 
d="M166 610v197l942 573v-231l-735 -438l735 -439v-237z" />
    <glyph glyph-name="equal" unicode="=" 
d="M164 840v200h942v-200h-942zM164 369v200h942v-200h-942z" />
    <glyph glyph-name="greater" unicode="&#x3e;" 
d="M162 35v233l735 437l-735 438v237l942 -573v-197z" />
    <glyph glyph-name="question" unicode="?" horiz-adv-x="1169" 
d="M1059 1075q0 -74 -17 -130t-50.5 -100t-83 -80.5t-113.5 -72.5q-50 -28 -80 -53t-46.5 -55.5t-22 -71t-5.5 -98.5h-223q0 90 10.5 153t39.5 112.5t82 91.5t138 89q39 22 68 42.5t47.5 44t27.5 51.5t9 65q0 87 -72 133.5t-205 46.5q-103 0 -187.5 -39t-168.5 -121
l-137 162q43 44 96.5 82.5t116.5 67t134.5 45t151.5 16.5q109 0 199.5 -24.5t155 -72.5t100 -119t35.5 -165zM682 131q0 -32 -12.5 -60t-33.5 -49t-49 -33t-59 -12q-32 0 -59.5 12t-48.5 33t-33 49t-12 60q0 31 12 59.5t33 50t48.5 34t59.5 12.5q31 0 59 -12.5t49 -34
t33.5 -50t12.5 -59.5z" />
    <glyph glyph-name="at" unicode="@" horiz-adv-x="1712" 
d="M1595 737q0 -116 -23.5 -196.5t-64.5 -130.5t-98.5 -72.5t-124.5 -22.5q-39 0 -73 9t-61 26t-48 39.5t-37 52.5q-36 -48 -111.5 -87.5t-150.5 -39.5q-59 0 -115 17t-99.5 52t-70 88t-26.5 124q0 66 26.5 115t72 81t105 48t125.5 16q62 0 115.5 -16.5t87.5 -36.5v104
q0 65 -49 93t-141 28q-57 0 -105.5 -10.5t-93.5 -38.5l-57 100q57 34 125 52t139 18q72 0 131 -15t100.5 -45.5t64.5 -77t23 -108.5v-344q0 -56 31.5 -89.5t103.5 -33.5q54 0 89 23t54 63.5t28.5 90t9.5 126.5q0 122 -47 231t-130 191t-197 130t-247 48q-134 0 -248 -47
t-196.5 -129.5t-129 -196.5t-46.5 -247q0 -135 46.5 -249t129 -197t196.5 -130t248 -47q69 0 133 13t133 47l49 -109q-44 -20 -82 -33.5t-75 -21.5t-75.5 -11.5t-82.5 -3.5q-107 0 -203.5 25t-178.5 71.5t-148 113t-112.5 148.5t-71.5 178.5t-25 203.5t25 203.5t71.5 178.5
t112.5 148t148 112.5t178.5 71.5t203.5 25q109 0 206 -26t179 -73.5t148 -114t111.5 -146.5t70 -171t24.5 -188zM1024 678q-31 23 -86.5 42t-124.5 19q-41 0 -76 -8t-61.5 -27t-38.5 -45.5t-12 -58.5q0 -74 50.5 -118t147.5 -44q28 0 58 8.5t57 23.5t49.5 36t36.5 47v125z
" />
    <glyph glyph-name="A" unicode="A" horiz-adv-x="1458" 
d="M1362 0h-229l-121 340h-574l-119 -340h-223l516 1434h228zM946 532l-223 639l-219 -639h442z" />
    <glyph glyph-name="B" unicode="B" horiz-adv-x="1382" 
d="M1247 440q0 -218 -128 -329t-363 -111h-570v1434h590q94 0 170 -24.5t130 -71.5t83 -116.5t29 -160.5q0 -55 -14 -99.5t-38 -79.5t-57.5 -62t-72.5 -46q42 -12 85 -37.5t77.5 -66.5t56.5 -98t22 -132zM973 1049q0 40 -11 74t-34.5 59.5t-61.5 40t-92 14.5h-385v-371h385
q53 0 90.5 15t61.5 40.5t35.5 58.5t11.5 69zM1032 434q0 53 -14 93.5t-44.5 74t-77.5 51.5t-118 19h-389v-475h383q72 0 121.5 17t80 48.5t44.5 75t14 96.5z" />
    <glyph glyph-name="C" unicode="C" horiz-adv-x="1341" 
d="M1022 1069q-28 44 -57 76.5t-64 53.5t-78 31.5t-98 10.5q-94 0 -166 -36.5t-120.5 -105t-73.5 -165.5t-25 -217q0 -121 25 -218t73.5 -165t120.5 -104.5t166 -36.5q112 0 186 45t129 133l179 -119q-50 -80 -94.5 -122.5t-100 -76t-130 -55t-169.5 -21.5q-102 0 -183.5 27
t-147.5 74t-119.5 117.5t-85.5 146.5t-51 170t-19 205q0 163 42.5 298.5t121.5 233.5t191 152.5t251 54.5q175 0 294 -69t193 -199z" />
    <glyph glyph-name="D" unicode="D" horiz-adv-x="1391" 
d="M1276 717q0 -127 -25.5 -229t-72 -181.5t-111 -137.5t-142 -95.5t-166 -55.5t-181.5 -18h-392v1434h392q144 0 271.5 -41t222 -128t149.5 -222.5t55 -325.5zM1057 717q0 113 -27 206.5t-85 160.5t-149 104t-218 37h-177v-1016h177q127 0 218 37t149 104t85 160.5
t27 206.5z" />
    <glyph glyph-name="E" unicode="E" horiz-adv-x="1260" 
d="M1141 0h-955v1434h924v-209h-709v-355h576v-208h-576v-453h740v-209z" />
    <glyph glyph-name="F" unicode="F" horiz-adv-x="1192" 
d="M401 1223v-375h412v-211h-412v-637h-215v1434h924v-211h-709z" />
    <glyph glyph-name="G" unicode="G" horiz-adv-x="1389" 
d="M1270 561q0 -138 -40.5 -246.5t-112.5 -183.5t-172 -114.5t-220 -39.5q-139 0 -251 54.5t-191 152.5t-121.5 234t-42.5 299t42.5 298.5t121.5 233.5t191 152.5t251 54.5q175 0 294 -69t193 -199l-188 -117q-28 44 -57.5 76t-64.5 53t-78.5 31t-98.5 10q-94 0 -166 -36.5
t-121 -105t-74.5 -165.5t-25.5 -217q0 -121 25.5 -218t74.5 -165t121 -104.5t166 -36.5q154 0 240 86.5t86 234.5v6h-234v207h453v-166z" />
    <glyph glyph-name="H" unicode="H" horiz-adv-x="1462" 
d="M1061 0v639h-660v-639h-215v1434h215v-580h660v580h215v-1434h-215z" />
    <glyph glyph-name="I" unicode="I" horiz-adv-x="608" 
d="M197 0v1434h215v-1434h-215z" />
    <glyph glyph-name="J" unicode="J" horiz-adv-x="1235" 
d="M1059 565q0 -289 -125.5 -438.5t-384.5 -149.5q-101 0 -181.5 26t-142 75t-105.5 119.5t-71 160.5l209 62q20 -53 45 -93t58.5 -70t81.5 -47t112 -17q78 0 132.5 22.5t89.5 69.5t51 121t16 176v852h215v-869z" />
    <glyph glyph-name="K" unicode="K" horiz-adv-x="1403" 
d="M1317 0h-244l-411 735l-267 -321v-414h-209v1434h209v-732l586 732h244l-420 -521z" />
    <glyph glyph-name="L" unicode="L" horiz-adv-x="1219" 
d="M186 0v1434h215v-1223h715v-211h-930z" />
    <glyph glyph-name="M" unicode="M" horiz-adv-x="1655" 
d="M1468 0h-211v990l-436 -1013l-432 1013v-990h-203v1434h222l420 -998l411 998h229v-1434z" />
    <glyph glyph-name="N" unicode="N" horiz-adv-x="1462" 
d="M1276 0h-205l-676 1062v-1062h-209v1434h220l661 -1062v1062h209v-1434z" />
    <glyph glyph-name="O" unicode="O" horiz-adv-x="1456" 
d="M1339 719q0 -168 -44.5 -304.5t-125.5 -234t-194 -150.5t-250 -53q-136 0 -248 52.5t-192 149t-124 232.5t-44 304q0 167 44.5 304t125.5 234t193.5 150t248.5 53q137 0 249.5 -52.5t192.5 -149t124 -232.5t44 -303zM1120 715q0 122 -30 219.5t-83 166t-125.5 105.5
t-158.5 37q-85 0 -156 -36t-122.5 -104t-80 -165t-28.5 -219t29.5 -220t82 -166.5t125 -105.5t158.5 -37q85 0 156.5 36t123 104t80.5 165.5t29 219.5z" />
    <glyph glyph-name="P" unicode="P" horiz-adv-x="1337" 
d="M1247 985q0 -111 -35 -195t-98 -140.5t-150 -85.5t-192 -29h-375v-535h-211v1434h600q99 0 183.5 -28.5t146 -84.5t96.5 -140.5t35 -195.5zM1028 985q0 59 -17.5 105t-49.5 77.5t-77.5 47.5t-101.5 16h-385v-494h385q124 0 185 66t61 182z" />
    <glyph glyph-name="Q" unicode="Q" horiz-adv-x="1452" 
d="M1333 717q0 -104 -18 -199t-57.5 -179.5t-73.5 -128.5t-72 -81l96 -149l-176 -111l-96 147q-48 -18 -101 -28.5t-110 -10.5q-139 0 -251 54.5t-191 152.5t-121.5 234t-42.5 299t42.5 298.5t121.5 233.5t191 152.5t251 54.5q140 0 252.5 -54.5t191.5 -152.5t121.5 -233.5
t42.5 -298.5zM1114 717q0 120 -25.5 217t-74.5 165.5t-122 105t-167 36.5t-166 -36.5t-121 -105t-74.5 -165.5t-25.5 -217q0 -121 25.5 -218.5t74.5 -166.5t121 -106.5t166 -37.5q53 0 96 11l-104 161l176 111l104 -164q62 68 89.5 172t27.5 238z" />
    <glyph glyph-name="R" unicode="R" horiz-adv-x="1421" 
d="M1006 0l-285 567h-324v-567h-211v1434h629q94 0 177.5 -25.5t146.5 -78t100 -133.5t37 -191q0 -86 -22 -155.5t-63 -122t-99 -88.5t-131 -54l292 -586h-247zM1059 999q0 56 -17.5 99.5t-49.5 73t-77 44.5t-100 15h-418v-461h418q54 0 98.5 14t77 42.5t50.5 71.5t18 101z
" />
    <glyph glyph-name="S" unicode="S" horiz-adv-x="1282" 
d="M1147 412q0 -97 -31.5 -177t-96.5 -137.5t-165 -89t-238 -31.5q-78 0 -150.5 16.5t-137 46.5t-121 73t-101.5 96l154 149q36 -39 80 -70.5t92 -53.5t99 -34t102 -12q152 0 224.5 52t72.5 157q0 42 -17 74t-55 59.5t-100 52.5t-152 52q-114 34 -198 68t-139.5 80.5
t-83 112t-27.5 161.5q0 93 37 167t100.5 125.5t150 79t185.5 27.5q82 -1 144.5 -14t121 -40t105.5 -59.5t98 -80.5l-152 -154q-41 41 -74 63t-68.5 38t-83 26t-108.5 10q-63 0 -108 -14.5t-74.5 -38.5t-43 -56.5t-13.5 -68.5q0 -38 14 -67t49.5 -54.5t96 -49.5t153.5 -52
q106 -32 191 -67.5t144.5 -84.5t91.5 -116.5t32 -163.5z" />
    <glyph glyph-name="T" unicode="T" horiz-adv-x="1243" 
d="M729 1223v-1223h-215v1223h-418v211h1051v-211h-418z" />
    <glyph glyph-name="U" unicode="U" horiz-adv-x="1442" 
d="M1266 598q0 -150 -36 -266t-106 -195t-173 -119.5t-236 -40.5t-234 42t-168.5 122.5t-102 196.5t-34.5 264v832h215v-826q0 -204 83 -309.5t245 -105.5q169 0 250.5 102t81.5 299v840h215v-836z" />
    <glyph glyph-name="V" unicode="V" horiz-adv-x="1409" 
d="M1313 1434l-492 -1434h-227l-498 1434h234l379 -1158l374 1158h230z" />
    <glyph glyph-name="W" unicode="W" horiz-adv-x="1767" 
d="M1665 1434l-293 -1434h-217l-264 1091l-275 -1091h-213l-292 1434h217l203 -1068l270 1068h184l269 -1068l203 1068h208z" />
    <glyph glyph-name="X" unicode="X" horiz-adv-x="1350" 
d="M1258 0h-257l-319 554l-317 -554h-252l444 740l-416 694h256l289 -509l291 509h252l-416 -692z" />
    <glyph glyph-name="Y" unicode="Y" horiz-adv-x="1411" 
d="M1327 1434l-514 -867v-567h-215v567l-514 867h252l371 -657l373 657h247z" />
    <glyph glyph-name="Z" unicode="Z" horiz-adv-x="1360" 
d="M1212 0h-1089v209l850 1026h-809v199h1048v-209l-840 -1026h840v-199z" />
    <glyph glyph-name="bracketleft" unicode="[" horiz-adv-x="778" 
d="M194 -225v1659h455v-174h-252v-1311h252v-174h-455z" />
    <glyph glyph-name="backslash" unicode="\" horiz-adv-x="913" 
d="M670 -184l-637 1802h211l637 -1802h-211z" />
    <glyph glyph-name="bracketright" unicode="]" horiz-adv-x="778" 
d="M129 -225v174h252v1311h-252v174h455v-1659h-455z" />
    <glyph glyph-name="asciicircum" unicode="^" horiz-adv-x="1184" 
d="M852 782l-262 428l-262 -428h-232l414 652h164l413 -652h-235z" />
    <glyph glyph-name="underscore" unicode="_" horiz-adv-x="1024" 
d="M0 -362v194h1024v-194h-1024z" />
    <glyph glyph-name="grave" unicode="`" horiz-adv-x="1024" 
d="M543 1219l-338 327h287l219 -327h-168z" />
    <glyph glyph-name="a" unicode="a" horiz-adv-x="1126" 
d="M772 0v106q-41 -38 -68 -55.5t-56 -33t-73.5 -28t-97.5 -12.5q-65 0 -131.5 19.5t-120 63t-87.5 112.5t-34 168q0 90 32.5 155.5t90 108.5t136 63.5t169.5 20.5q85 0 143 -11.5t97 -29.5v80q0 88 -52 135t-151 47q-83 0 -150 -16t-130 -51l-82 159q77 48 165.5 72.5
t202.5 24.5q90 0 164.5 -22t127.5 -67t82.5 -113t29.5 -159v-737h-207zM772 459q-30 14 -54 21.5t-50 13t-62.5 9t-79.5 3.5q-102 0 -161.5 -43t-59.5 -117q0 -48 17 -81.5t43 -54.5t61.5 -31.5t85.5 -10.5q42 0 81 12t73 31.5t61 44t45 49.5v154z" />
    <glyph glyph-name="b" unicode="b" horiz-adv-x="1167" 
d="M1059 520q0 -138 -35 -240t-93.5 -169.5t-135 -100.5t-160.5 -33q-78 0 -151 36t-119 87v-100h-209v1384l209 109v-520q33 30 60 49t57 36t70 28.5t93 11.5q87 0 162.5 -32.5t131.5 -102.5t88 -179.5t32 -263.5zM848 514q0 202 -62.5 295.5t-179.5 93.5
q-38 0 -72.5 -11.5t-66 -30.5t-58 -44t-47.5 -51v-453q18 -24 44.5 -49t59.5 -45.5t70.5 -33.5t77.5 -13q115 0 174.5 85.5t59.5 256.5z" />
    <glyph glyph-name="c" unicode="c" horiz-adv-x="1069" 
d="M954 178q-32 -40 -68.5 -76.5t-82.5 -64t-103.5 -44t-130.5 -16.5q-98 0 -183 40t-147.5 113t-98.5 176t-36 229q0 133 36.5 238t100.5 177t150 110t184 38q119 0 212.5 -46.5t168.5 -136.5l-125 -149q-38 38 -65 59.5t-59.5 38.5t-66 25t-71.5 8q-57 0 -103.5 -25
t-79.5 -71t-51 -112t-18 -148q0 -79 17 -145.5t49.5 -115t80.5 -75.5t111 -27q38 0 69 8.5t59.5 25t56 41.5t59.5 58z" />
    <glyph glyph-name="d" unicode="d" horiz-adv-x="1167" 
d="M803 0v102q-30 -27 -62 -50t-69 -41t-74 -26t-76 -8q-87 0 -162 32.5t-131 102.5t-88 179.5t-32 263.5q0 138 34.5 240.5t93 169.5t135 100t160.5 33q41 0 80 -10t74 -27t64.5 -39.5t52.5 -46.5v409l209 109v-1493h-209zM805 762q-18 24 -44.5 49t-59.5 45.5t-70.5 33.5
t-77.5 13q-115 0 -174.5 -85.5t-59.5 -256.5q0 -101 16 -174.5t47 -121t76 -70.5t103 -23q38 0 73 11.5t66 31t57.5 44t47.5 50.5v453z" />
    <glyph glyph-name="e" unicode="e" horiz-adv-x="1135" 
d="M1028 559q0 -29 -2 -54t-4 -42h-711q9 -78 34 -133.5t61 -91.5t81.5 -53t94.5 -17q35 0 66 6t59.5 18t50.5 24.5t57 37.5l125 -135q-40 -38 -76.5 -61.5t-79 -42t-96.5 -28.5t-119 -10q-70 0 -131 19.5t-108 51t-84.5 72t-71.5 104t-52 142t-18 171.5q0 136 34.5 241
t96.5 176t149 107.5t191 36.5q115 0 200 -43.5t141 -117t84 -171.5t28 -207zM815 637q-4 55 -19.5 104t-46 86t-77 58.5t-111.5 21.5q-56 0 -98 -18.5t-72 -52.5t-49.5 -83.5t-26.5 -115.5h500z" />
    <glyph glyph-name="f" unicode="f" horiz-adv-x="741" 
d="M659 1282q-37 11 -66 16t-56 5q-22 0 -40.5 -4.5t-31.5 -15t-20 -31.5t-7 -54v-123h199v-196h-199v-879h-211v879h-139v196h139v142q0 73 21.5 124.5t58 84t86.5 47t107 14.5q42 0 83.5 -5.5t75.5 -15.5v-184z" />
    <glyph glyph-name="g" unicode="g" horiz-adv-x="1167" 
d="M1012 102q0 -111 -22.5 -195.5t-73.5 -146.5q-63 -75 -172 -114t-277 -43l-61 172q123 4 213.5 27t126.5 65q33 35 44 88.5t11 128.5v18q-29 -27 -60.5 -49.5t-66 -39.5t-72.5 -26.5t-80 -9.5q-86 0 -161 32.5t-131 102.5t-88.5 179.5t-32.5 263.5q0 138 35 240.5
t93.5 169.5t135 100t159.5 33q41 0 80 -10t73.5 -27t64 -39.5t51.5 -46.5v100h211v-973zM561 172q68 0 129.5 37t114.5 100v453q-18 24 -44.5 49t-59.5 45.5t-70.5 33.5t-77.5 13q-115 0 -174.5 -85.5t-59.5 -256.5q0 -189 59.5 -289t182.5 -100z" />
    <glyph glyph-name="h" unicode="h" horiz-adv-x="1167" 
d="M809 0v608q0 149 -53 222t-168 73q-49 0 -90.5 -16t-71 -53t-44.5 -87t-15 -118v-629h-211v1382l211 111v-520q20 29 49 52.5t64 39.5t75 24.5t82 8.5q97 0 168 -31t119.5 -91.5t72 -154t23.5 -205.5v-616h-211z" />
    <glyph glyph-name="i" unicode="i" horiz-adv-x="543" 
d="M408 1350q0 -28 -11 -52.5t-29.5 -43t-43 -29.5t-52.5 -11t-53 11t-43.5 29.5t-29.5 43t-11 52.5t11 53t29.5 43.5t43.5 29.5t53 11t52.5 -11t43 -29.5t29.5 -43.5t11 -53zM166 0v1075h211v-1075h-211z" />
    <glyph glyph-name="j" unicode="j" horiz-adv-x="543" 
d="M408 1350q0 -28 -11 -52.5t-29.5 -43t-43 -29.5t-52.5 -11t-53 11t-43.5 29.5t-29.5 43t-11 52.5t11 53t29.5 43.5t43.5 29.5t53 11t52.5 -11t43 -29.5t29.5 -43.5t11 -53zM377 49q0 -101 -15.5 -174.5t-56 -126t-111.5 -86.5t-182 -57l-71 159q73 21 117.5 41.5t68.5 51
t31.5 75t7.5 113.5v1030h211v-1026z" />
    <glyph glyph-name="k" unicode="k" horiz-adv-x="1083" 
d="M768 0l-238 535l-163 -218v-317h-211v1382l211 111v-894l340 476h239l-272 -360l323 -715h-229z" />
    <glyph glyph-name="l" unicode="l" horiz-adv-x="543" 
d="M166 0v1382l211 111v-1493h-211z" />
    <glyph glyph-name="m" unicode="m" horiz-adv-x="1763" 
d="M1405 0v608q0 81 -13 137.5t-38.5 91.5t-64.5 50.5t-91 15.5q-56 0 -95 -19t-64 -56t-36.5 -89t-11.5 -110v-629h-211v608q0 81 -12.5 137.5t-38.5 91.5t-65 50.5t-91 15.5t-92.5 -18.5t-65 -55.5t-36.5 -85.5t-12 -114.5v-629h-211v1075h211v-102q40 59 106 92t150 33
q109 0 180 -40.5t115 -117.5q29 36 60.5 65t70 50t87 32t111.5 11q87 0 154 -26.5t116.5 -86t74 -154t24.5 -215.5v-616h-211z" />
    <glyph glyph-name="n" unicode="n" horiz-adv-x="1167" 
d="M809 0v608q0 146 -52 220.5t-169 74.5q-51 0 -94 -18t-72 -56t-42 -89.5t-13 -110.5v-629h-211v1075h211v-102q20 29 49 52.5t64 39.5t75 24.5t82 8.5q97 0 168.5 -31.5t119 -90.5t71.5 -149t24 -211v-616h-211z" />
    <glyph glyph-name="o" unicode="o" horiz-adv-x="1167" 
d="M1063 543q0 -134 -37 -239t-102 -178t-154 -111t-192 -38q-102 0 -188.5 40t-150 113.5t-99.5 177t-36 229.5q0 132 37 236t101.5 176.5t152 110.5t189.5 38q103 0 190.5 -39.5t151.5 -112t100.5 -175t36.5 -228.5zM850 537q0 82 -19 148.5t-54.5 113.5t-86.5 72.5
t-115 25.5q-60 0 -107.5 -25.5t-81 -72t-51.5 -111.5t-18 -145q0 -89 19.5 -157t55 -114t85 -70t109.5 -24t108.5 28.5t83 77t53.5 114t19 139.5z" />
    <glyph glyph-name="p" unicode="p" horiz-adv-x="1167" 
d="M1059 520q0 -138 -35 -240t-93.5 -169.5t-135 -100.5t-160.5 -33q-71 0 -141.5 31t-128.5 92v-387l-209 -108v1470h209v-102q58 54 126.5 89.5t153.5 35.5q87 0 162.5 -32.5t131.5 -102.5t88 -179.5t32 -263.5zM848 514q0 202 -62.5 295.5t-179.5 93.5q-65 0 -129 -36.5
t-115 -100.5v-453q18 -24 44.5 -49t59.5 -45.5t70.5 -33.5t77.5 -13q115 0 174.5 85.5t59.5 256.5z" />
    <glyph glyph-name="q" unicode="q" horiz-adv-x="1167" 
d="M803 -395v497q-59 -54 -127.5 -89.5t-153.5 -35.5q-87 0 -162 32.5t-131 102.5t-88 179.5t-32 263.5q0 138 34.5 240.5t93 169.5t135 100t160.5 33q41 0 80 -10t74 -27t64.5 -39.5t52.5 -46.5v100h209v-1362zM805 762q-18 24 -44.5 49t-59.5 45.5t-70.5 33.5t-77.5 13
q-115 0 -174.5 -85.5t-59.5 -256.5q0 -191 60 -290t182 -99q72 0 134 39t110 98v453z" />
    <glyph glyph-name="r" unicode="r" horiz-adv-x="856" 
d="M739 852q-34 19 -71.5 29t-89.5 10q-101 0 -156 -69.5t-55 -207.5v-614h-211v1075h211v-102q18 27 44 49.5t57.5 39.5t67.5 26.5t76 9.5q65 0 108 -12t75 -33z" />
    <glyph glyph-name="s" unicode="s" horiz-adv-x="1022" 
d="M864 979l-92 -162q-66 47 -133.5 69.5t-144.5 22.5q-78 0 -113 -27.5t-35 -70.5q0 -20 8.5 -38t30.5 -36t60.5 -38t99.5 -44q90 -35 157.5 -67t113 -71.5t68.5 -92.5t23 -129q0 -89 -33.5 -150t-89 -98.5t-128.5 -53.5t-152 -16q-102 0 -214.5 37.5t-197.5 100.5l96 159
q76 -52 157 -79t157 -27q100 0 148 31t48 88q0 31 -17 54.5t-49.5 44t-78.5 40t-104 41.5q-87 34 -147.5 67t-98 72t-54 87t-16.5 112q0 72 27 127t76 91.5t116 55.5t148 19q102 0 197 -33t167 -86z" />
    <glyph glyph-name="t" unicode="t" horiz-adv-x="825" 
d="M670 27q-39 -22 -91.5 -36t-115.5 -14q-55 0 -96.5 15.5t-75.5 49t-52 88t-18 132.5v621h-153v192h153v307l207 111v-418h266v-192h-266v-584q0 -38 6.5 -62.5t20 -39.5t34.5 -21t50 -6q41 0 83.5 13t71.5 30z" />
    <glyph glyph-name="u" unicode="u" horiz-adv-x="1167" 
d="M801 0v102q-40 -55 -112 -90t-159 -35q-188 0 -285.5 121t-97.5 361v616h211v-608q0 -148 52.5 -221.5t169.5 -73.5q106 0 163.5 71.5t57.5 202.5v629h211v-1075h-211z" />
    <glyph glyph-name="v" unicode="v" horiz-adv-x="1110" 
d="M664 0h-211l-385 1075h221l272 -823l258 823h223z" />
    <glyph glyph-name="w" unicode="w" horiz-adv-x="1518" 
d="M1137 0h-181l-200 752l-199 -752h-180l-295 1075h209l180 -738l203 738h170l204 -738l179 738h209z" />
    <glyph glyph-name="x" unicode="x" horiz-adv-x="1087" 
d="M756 0l-215 389l-222 -389h-237l338 557l-316 518h244l197 -356l196 356h242l-317 -518l340 -557h-250z" />
    <glyph glyph-name="y" unicode="y" horiz-adv-x="1139" 
d="M530 -379h-223l156 399l-395 1055h231l270 -810l279 810h223z" />
    <glyph glyph-name="z" unicode="z" horiz-adv-x="1079" 
d="M119 0v172l588 719h-547v184h788v-170l-577 -721h577v-184h-829z" />
    <glyph glyph-name="braceleft" unicode="{" horiz-adv-x="870" 
d="M762 -225q-239 0 -356 103.5t-117 328.5v131q0 53 -5.5 87.5t-18.5 54.5t-36 28t-57 8h-47v182h47q34 0 57 8t36 28t18.5 55t5.5 88v133q0 223 117 328.5t356 105.5v-156q-75 -8 -125 -27t-80 -52t-42.5 -79.5t-12.5 -107.5v-96q0 -72 -8 -125t-26 -91t-48 -63t-74 -41
q44 -15 74 -39.5t48 -62t26 -90.5t8 -125v-96q0 -61 12.5 -106.5t42.5 -77t80 -50.5t125 -27v-157z" />
    <glyph glyph-name="bar" unicode="|" horiz-adv-x="604" 
d="M205 -379v2017h194v-2017h-194z" />
    <glyph glyph-name="braceright" unicode="}" horiz-adv-x="870" 
d="M698 520q-34 0 -56.5 -8t-35.5 -28t-18.5 -55t-5.5 -87v-133q0 -223 -117 -328.5t-356 -105.5v155q76 9 125.5 28.5t79.5 52.5t42.5 79t12.5 107v96q0 72 8 125t26 91t48 62.5t73 40.5q-45 16 -74.5 40.5t-47 62t-25.5 90.5t-8 125v95q0 61 -12.5 106.5t-42.5 77
t-80 50.5t-125 27v158q239 0 356 -105t117 -327v-131q0 -54 5.5 -88.5t18.5 -54.5t35.5 -28t56.5 -8h47v-182h-47z" />
    <glyph glyph-name="asciitilde" unicode="~" horiz-adv-x="1151" 
d="M1065 868q-28 -71 -59 -124.5t-68.5 -90t-83 -55t-102.5 -18.5q-32 0 -57 4t-47.5 12.5t-45 21.5t-47.5 31q-33 24 -83 53t-87 29q-25 0 -43.5 -7.5t-35.5 -25.5t-34 -48t-39 -75l-147 76q28 71 59 125t68.5 90.5t83 55t102.5 18.5q31 0 56.5 -4t48 -13t44.5 -22t48 -31
q59 -40 100.5 -61t67.5 -21q24 0 43 7.5t36.5 25.5t35 48t39.5 75z" />
    <glyph glyph-name="exclamdown" unicode="&#xa1;" horiz-adv-x="610" 
d="M459 1303q0 -32 -12.5 -60t-33.5 -49.5t-49 -34t-59 -12.5q-32 0 -59.5 12.5t-48.5 34t-33 49.5t-12 60q0 31 12 59t33 49t48.5 33t59.5 12q31 0 59 -12t49 -33t33.5 -49t12.5 -59zM197 0v637l41 383h135l41 -383v-637h-217z" />
    <glyph glyph-name="cent" unicode="&#xa2;" 
d="M999 977q-33 34 -65.5 59.5t-68 41.5t-76.5 24t-91 8q-76 0 -140 -25.5t-110.5 -73.5t-73 -116.5t-26.5 -153.5q0 -90 25 -162.5t72 -123.5t114 -78t150 -27q97 0 170.5 35t130.5 98l133 -127q-62 -66 -143.5 -113t-196.5 -63v-203h-225v203q-104 17 -186.5 63
t-140 116.5t-88 163.5t-30.5 204q0 114 34 207.5t93.5 164t141 116t176.5 63.5v192h225v-186q119 -15 203 -60t143 -110z" />
    <glyph glyph-name="sterling" unicode="&#xa3;" 
d="M170 0v170q43 47 77.5 91.5t59.5 93.5t39 104t16 123h-190v174h166q-11 29 -26.5 57t-32.5 59q-17 27 -30 52.5t-21.5 52t-12.5 55.5t-4 64q0 85 34.5 152t96.5 113t148.5 70.5t191.5 24.5q139 0 251.5 -47.5t209.5 -138.5l-123 -150q-77 76 -161 112t-181 36
q-64 0 -111 -14.5t-78.5 -39.5t-47 -58.5t-15.5 -72.5q0 -43 13.5 -83t41.5 -87q20 -32 39 -72t31 -85h303v-174h-289q-3 -67 -16.5 -123.5t-34 -105t-46.5 -90t-54 -77.5h733v-186h-977z" />
    <glyph glyph-name="currency" unicode="&#xa4;" horiz-adv-x="1257" 
d="M684 -23q-134 0 -240 51.5t-179.5 147.5t-112.5 233t-39 308q0 176 41 313.5t116.5 232t182 144t237.5 49.5q88 0 156.5 -18.5t122.5 -55.5t98 -92.5t84 -130.5l-174 -104q-30 48 -59 84t-62.5 60t-74.5 36t-95 12q-125 0 -210 -70.5t-122 -209.5h484v-168h-510
q-2 -20 -2 -40v-40v-38.5t2 -37.5h510v-168h-486q39 -144 124.5 -216.5t211.5 -72.5q54 0 96.5 12.5t79.5 36.5t69.5 60t65.5 84l162 -117q-40 -60 -85.5 -112t-102.5 -90.5t-128 -60.5t-161 -22z" />
    <glyph glyph-name="yen" unicode="&#xa5;" 
d="M741 557v-127h332v-180h-332v-250h-213v250h-329v180h329v123l-477 881h250l336 -676l336 676h246z" />
    <glyph glyph-name="brokenbar" unicode="&#xa6;" horiz-adv-x="633" 
d="M217 1638h197v-874h-197v874zM217 496h197v-875h-197v875z" />
    <glyph glyph-name="section" unicode="&#xa7;" horiz-adv-x="1352" 
d="M1239 514q0 -59 -19.5 -107.5t-51.5 -89t-72 -72t-80 -55.5q32 -37 50.5 -83.5t18.5 -108.5q0 -71 -27.5 -132t-79 -106t-127 -70.5t-171.5 -25.5q-120 0 -221 37t-195 111l129 165q75 -58 150.5 -83t156.5 -25q85 0 123.5 35t38.5 88q0 41 -30.5 70t-80 52.5t-114 43.5
t-131.5 43q-73 24 -143.5 56t-126 78.5t-89.5 112.5t-34 158q0 58 19.5 107t51 89.5t71.5 72t81 55.5q-32 37 -51 83.5t-19 108.5q0 71 27.5 132t79.5 106t127.5 70.5t171.5 25.5q120 0 220.5 -36.5t194.5 -110.5l-129 -166q-74 59 -149.5 83.5t-157.5 24.5
q-42 0 -72.5 -9.5t-50.5 -26t-29.5 -39t-9.5 -48.5q0 -41 30.5 -70t80.5 -52t114 -43t132 -43q73 -25 143.5 -57t126 -78.5t89.5 -112.5t34 -158zM1018 494q0 48 -21 84t-56.5 63.5t-83 48.5t-101.5 39q-65 22 -131.5 43t-128.5 49q-80 -40 -121 -87.5t-41 -106.5
q0 -48 21 -84t56.5 -64t83 -49t101.5 -39q65 -22 131.5 -43t128.5 -49q76 39 119 86.5t43 108.5z" />
    <glyph glyph-name="dieresis" unicode="&#xa8;" horiz-adv-x="1024" 
d="M850 1356q0 -28 -11 -53t-30 -43.5t-44 -29.5t-52 -11q-29 0 -54 11t-44.5 29.5t-30.5 43.5t-11 53t11 53.5t30.5 44.5t44.5 30t54 11q27 0 52 -11t44 -30t30 -44.5t11 -53.5zM451 1356q0 -28 -11 -53t-30 -43.5t-44 -29.5t-53 -11t-53.5 11t-44.5 29.5t-30 43.5t-11 53
t11 53.5t30 44.5t44.5 30t53.5 11t53 -11t44 -30t30 -44.5t11 -53.5z" />
    <glyph glyph-name="copyright" unicode="&#xa9;" horiz-adv-x="1712" 
d="M1595 717q0 -158 -56.5 -293t-155.5 -234.5t-234 -156t-293 -56.5t-293 56.5t-234 156t-155.5 234.5t-56.5 293t56.5 293t155.5 234.5t235.5 155.5t291.5 56q156 0 292 -56t235 -155.5t155.5 -234.5t56.5 -293zM1477 717q0 132 -47.5 245.5t-131 196.5t-197 130.5
t-245.5 47.5t-245.5 -47.5t-196.5 -130.5t-130.5 -196.5t-47.5 -245.5t47.5 -245.5t130.5 -197t196.5 -131t245.5 -47.5t245.5 47.5t197 131t131 197t47.5 245.5zM1022 901q-32 51 -67 74.5t-93 23.5q-50 0 -87.5 -19.5t-62.5 -55.5t-37.5 -87.5t-12.5 -115.5t12.5 -116
t37.5 -88.5t62.5 -56.5t87.5 -20q59 0 97.5 26.5t72.5 80.5l115 -78q-48 -82 -120 -124t-165 -42q-78 0 -141 30.5t-107.5 86t-69 132.5t-24.5 169t24.5 168.5t69 131.5t107.5 85.5t141 30.5q100 0 168 -40t113 -120z" />
    <glyph glyph-name="ordfeminine" unicode="&#xaa;" horiz-adv-x="942" 
d="M627 571v76q-45 -43 -103.5 -69.5t-124.5 -26.5q-53 0 -107 16t-98 51t-72 91t-28 137q0 70 27 123t74 88.5t111 53t138 17.5q54 0 101 -8.5t82 -23.5v55q0 69 -40 106t-118 37q-63 0 -117 -11.5t-106 -39.5l-68 129q62 38 134.5 61t162.5 23q72 0 132 -18.5t103 -56
t67 -93t24 -129.5v-588h-174zM627 936q-35 17 -80 28t-111 11q-80 0 -126 -33t-46 -92q0 -65 39 -101t123 -36q55 0 110.5 29.5t90.5 78.5v115z" />
    <glyph glyph-name="guillemotleft" unicode="&#xab;" horiz-adv-x="1204" 
d="M895 0l-379 537l379 538h227l-368 -536l368 -539h-227zM440 0l-379 537l379 538h228l-369 -536l369 -539h-228z" />
    <glyph glyph-name="logicalnot" unicode="&#xac;" 
d="M1129 203h-211v399h-778v205h989v-604z" />
    <glyph glyph-name="registered" unicode="&#xae;" horiz-adv-x="1712" 
d="M1595 717q0 -158 -56.5 -293t-155.5 -234.5t-234 -156t-293 -56.5t-293 56.5t-234 156t-155.5 234.5t-56.5 293t56.5 293t155.5 234.5t235.5 155.5t291.5 56q156 0 292 -56t235 -155.5t155.5 -234.5t56.5 -293zM1477 717q0 132 -47.5 245.5t-131 196.5t-197 130.5
t-245.5 47.5t-245.5 -47.5t-196.5 -130.5t-130.5 -196.5t-47.5 -245.5t47.5 -245.5t130.5 -197t196.5 -131t245.5 -47.5t245.5 47.5t197 131t131 197t47.5 245.5zM1194 891q0 -96 -47 -155.5t-125 -82.5l166 -325h-162l-158 311h-155v-311h-138v807h355q54 0 102 -14.5
t84 -44.5t57 -76t21 -109zM1055 887q0 57 -37 85.5t-92 28.5h-213v-229h213q55 0 92 27.5t37 87.5z" />
    <glyph glyph-name="macron" unicode="&#xaf;" horiz-adv-x="1024" 
d="M225 1249v185h574v-185h-574z" />
    <glyph glyph-name="macron" unicode="&#x2c9;" horiz-adv-x="1024" 
d="M225 1249v185h574v-185h-574z" />
    <glyph glyph-name="degree" unicode="&#xb0;" horiz-adv-x="995" 
d="M903 1053q0 -87 -31 -161.5t-85.5 -129.5t-128.5 -86t-160 -31t-160 31t-128.5 86t-86 129.5t-31.5 161.5q0 84 31.5 157.5t86 128t128.5 86t160 31.5t160 -31.5t128.5 -86t85.5 -128t31 -157.5zM719 1053q0 45 -17 85.5t-46.5 70.5t-70 47.5t-87.5 17.5
q-46 0 -86.5 -17.5t-70.5 -47.5t-47.5 -70.5t-17.5 -85.5q0 -48 17.5 -89t47.5 -71.5t70.5 -48t86.5 -17.5q47 0 87.5 17.5t70 48t46.5 71.5t17 89z" />
    <glyph glyph-name="plusminus" unicode="&#xb1;" 
d="M740 705v-379h-211v379h-389v204h389v379h211v-379h389v-204h-389zM140 59v189h989v-189h-989z" />
    <glyph glyph-name="twosuperior" unicode="&#xb2;" horiz-adv-x="868" 
d="M106 532q5 102 28 175t63 128.5t95 99.5t124 87q47 29 77 50.5t47.5 40.5t24 38t6.5 43q0 48 -34 75t-99 27q-33 0 -61.5 -5.5t-54.5 -17t-52.5 -29t-54.5 -40.5l-96 133q37 28 73 50.5t74.5 37.5t81.5 23t94 8q69 0 125 -16t96.5 -48t62.5 -79.5t22 -110.5
q0 -50 -11.5 -88.5t-37.5 -72.5t-69 -67.5t-106 -72.5q-54 -34 -91 -61t-62 -51t-39.5 -46.5t-22.5 -46.5h447v-164h-650z" />
    <glyph glyph-name="threesuperior" unicode="&#xb3;" horiz-adv-x="817" 
d="M377 520q-96 0 -177.5 40.5t-144.5 105.5l113 116q51 -51 102.5 -77.5t110.5 -26.5q84 0 126 32.5t42 98.5q0 60 -44 89.5t-118 29.5h-94v153h94q65 0 96 29t31 82q0 46 -33 76t-108 30q-50 0 -92 -22t-88 -64l-107 117q57 54 128.5 90.5t162.5 36.5q67 0 124 -15.5
t98.5 -46.5t65 -78t23.5 -110q0 -68 -24.5 -112.5t-67.5 -75.5q28 -12 51 -30.5t40 -44t26.5 -58t9.5 -74.5q0 -70 -24 -124t-68.5 -91t-108.5 -56.5t-145 -19.5z" />
    <glyph glyph-name="acute" unicode="&#xb4;" horiz-adv-x="1024" 
d="M481 1219h-168l219 327h287z" />
    <glyph glyph-name="mu" unicode="&#xb5;" horiz-adv-x="1176" 
d="M809 0v102q-46 -64 -119.5 -94.5t-150.5 -30.5q-60 0 -105.5 11t-68.5 23v-298l-209 -108v1470h211v-608q0 -81 15 -137.5t43.5 -91.5t69.5 -50.5t93 -15.5t89 15.5t69 50.5t47.5 89t15.5 119v629h211v-1075h-211z" />
    <glyph glyph-name="paragraph" unicode="&#xb6;" horiz-adv-x="1483" 
d="M1098 -379v1616h-162v-1616h-203v914h-172q-95 0 -179 29.5t-148 87t-101 141.5t-37 192t37.5 191.5t101 140.5t148 87t178.5 30h739v-1813h-202z" />
    <glyph glyph-name="periodcentered" unicode="&#xb7;" horiz-adv-x="520" 
d="M422 752q0 -33 -13 -62.5t-35 -51.5t-51.5 -35t-62.5 -13t-62.5 13t-51.5 35t-35 51.5t-13 62.5t13 62.5t35 52t51.5 35.5t62.5 13t62.5 -13t51.5 -35.5t35 -52t13 -62.5z" />
    <glyph glyph-name="periodcentered" unicode="&#x2219;" horiz-adv-x="520" 
d="M422 752q0 -33 -13 -62.5t-35 -51.5t-51.5 -35t-62.5 -13t-62.5 13t-51.5 35t-35 51.5t-13 62.5t13 62.5t35 52t51.5 35.5t62.5 13t62.5 -13t51.5 -35.5t35 -52t13 -62.5z" />
    <glyph glyph-name="cedilla" unicode="&#xb8;" horiz-adv-x="1024" 
d="M438 25h105l-22 -117q20 8 42.5 13t56.5 5q26 0 52.5 -8t47.5 -25.5t34.5 -44.5t13.5 -65q0 -48 -20 -82t-54 -55.5t-79.5 -31t-96.5 -9.5q-74 0 -135 19t-117 54l45 68q89 -49 180 -49q68 0 99.5 22.5t31.5 57.5q0 31 -18 48t-47 17q-50 0 -82 -30l-74 28z" />
    <glyph glyph-name="onesuperior" unicode="&#xb9;" horiz-adv-x="670" 
d="M285 1188h-154v129q41 3 72 9t53.5 18.5t36.5 33.5t22 54h146v-910h-176v666z" />
    <glyph glyph-name="ordmasculine" unicode="&#xba;" horiz-adv-x="991" 
d="M883 1010q0 -108 -30 -193t-83 -143.5t-125 -89.5t-156 -31q-81 0 -150.5 32.5t-120.5 91.5t-80 142t-29 185q0 106 29.5 190t81.5 142.5t122.5 89t153.5 30.5t154 -31.5t122.5 -90t81 -141t29.5 -183.5zM705 1004q0 65 -15 117.5t-43 89.5t-68 57t-90 20
q-48 0 -85.5 -20t-63.5 -56t-39.5 -87.5t-13.5 -114.5q0 -70 15 -124t43 -90.5t66.5 -55.5t86.5 -19q47 0 85 22.5t65 60.5t42 89.5t15 110.5z" />
    <glyph glyph-name="guillemotright" unicode="&#xbb;" horiz-adv-x="1204" 
d="M764 0h-227l368 537l-368 538h227l379 -536zM309 0h-227l369 537l-369 538h227l379 -536z" />
    <glyph glyph-name="onequarter" unicode="&#xbc;" horiz-adv-x="1905" 
d="M325 1188h-154v129q41 3 72 9t53.5 18.5t36.5 33.5t22 54h146v-910h-176v666zM539 0h-238l961 1434h237zM1449 199h-465v129l463 583h168v-559h117v-155h-117v-195h-166v197zM1449 352v323l-254 -323h254z" />
    <glyph glyph-name="onehalf" unicode="&#xbd;" horiz-adv-x="1905" 
d="M311 1188h-154v129q41 3 72 9t53.5 18.5t36.5 33.5t22 54h146v-910h-176v666zM486 0h-238l961 1434h237zM1098 -1q5 102 28 175t63 128.5t95 99.5t124 87q47 29 77 50.5t47.5 40.5t24 38t6.5 43q0 48 -34 75t-99 27q-33 0 -61.5 -5.5t-54.5 -17t-52.5 -29t-54.5 -40.5
l-96 133q37 28 73 50.5t74.5 37.5t81.5 23t94 8q69 0 125 -16t96.5 -48t62.5 -79.5t22 -110.5q0 -50 -11.5 -88.5t-37.5 -72.5t-69 -67.5t-106 -72.5q-54 -34 -91 -61t-62 -51t-39.5 -46.5t-22.5 -46.5h447v-164h-650z" />
    <glyph glyph-name="threequarters" unicode="&#xbe;" horiz-adv-x="1905" 
d="M435 520q-96 0 -177.5 40.5t-144.5 105.5l113 116q51 -51 102.5 -77.5t110.5 -26.5q84 0 126 32.5t42 98.5q0 60 -44 89.5t-118 29.5h-94v153h94q65 0 96 29t31 82q0 46 -33 76t-108 30q-50 0 -92 -22t-88 -64l-107 117q57 54 128.5 90.5t162.5 36.5q67 0 124 -15.5
t98.5 -46.5t65 -78t23.5 -110q0 -68 -24.5 -112.5t-67.5 -75.5q28 -12 51 -30.5t40 -44t26.5 -58t9.5 -74.5q0 -70 -24 -124t-68.5 -91t-108.5 -56.5t-145 -19.5zM667 0h-238l961 1434h237zM1509 198h-465v129l463 583h168v-559h117v-155h-117v-195h-166v197zM1509 351v323
l-254 -323h254z" />
    <glyph glyph-name="questiondown" unicode="&#xbf;" horiz-adv-x="1169" 
d="M795 1303q0 -32 -12.5 -60t-33.5 -49.5t-49 -34t-59 -12.5q-32 0 -60 12.5t-49 34t-33 49.5t-12 60q0 31 12 59t33 49t49 33t60 12q31 0 59 -12t49 -33t33.5 -49t12.5 -59zM1100 188q-44 -44 -97.5 -82t-116.5 -67t-134.5 -45.5t-151.5 -16.5q-109 0 -199 24.5
t-154.5 72.5t-100 119.5t-35.5 164.5q0 75 17 130.5t50.5 99.5t82.5 80.5t114 72.5q50 28 80 53t46.5 55.5t21.5 71t5 99.5h224q0 -90 -8 -139t-18 -77.5t-30 -60t-45.5 -54.5t-55.5 -45.5t-114 -70.5q-39 -21 -67.5 -41.5t-47 -44t-27.5 -51.5t-9 -65q0 -87 71.5 -134
t204.5 -47q57 0 105.5 11t91.5 32t82 50.5t78 66.5z" />
    <glyph glyph-name="Agrave" unicode="&#xc0;" horiz-adv-x="1458" 
d="M1362 0h-229l-121 340h-574l-119 -340h-223l516 1434h228zM946 532l-223 639l-219 -639h442zM682 1526l-338 327h287l219 -327h-168z" />
    <glyph glyph-name="Aacute" unicode="&#xc1;" horiz-adv-x="1458" 
d="M1362 0h-229l-121 340h-574l-119 -340h-223l516 1434h228zM946 532l-223 639l-219 -639h442zM764 1526h-168l219 327h287z" />
    <glyph glyph-name="Acircumflex" unicode="&#xc2;" horiz-adv-x="1458" 
d="M1362 0h-229l-121 340h-574l-119 -340h-223l516 1434h228zM946 532l-223 639l-219 -639h442zM918 1504l-195 180l-195 -180h-165l239 327h246l239 -327h-169z" />
    <glyph glyph-name="Atilde" unicode="&#xc3;" horiz-adv-x="1458" 
d="M1362 0h-229l-121 340h-574l-119 -340h-223l516 1434h228zM946 532l-223 639l-219 -639h442zM1094 1798q0 -68 -16.5 -120.5t-45 -87.5t-68 -53t-85.5 -18q-29 0 -55.5 5t-54.5 16t-60 28t-72 42q-21 12 -42 20t-38 8q-34 0 -52.5 -24.5t-26.5 -87.5h-146q0 68 16.5 120
t45 87t68 53t85.5 18q29 0 55.5 -5t54.5 -15.5t60 -27.5t72 -42q22 -12 42.5 -20.5t37.5 -8.5q34 0 53 25t27 88h145z" />
    <glyph glyph-name="Adieresis" unicode="&#xc4;" horiz-adv-x="1458" 
d="M1362 0h-229l-121 340h-574l-119 -340h-223l516 1434h228zM946 532l-223 639l-219 -639h442zM1059 1663q0 -28 -11 -53t-30 -43.5t-44 -29.5t-52 -11q-29 0 -54 11t-44.5 29.5t-30.5 43.5t-11 53t11 53.5t30.5 44.5t44.5 30t54 11q27 0 52 -11t44 -30t30 -44.5t11 -53.5z
M660 1663q0 -28 -11 -53t-30 -43.5t-44 -29.5t-53 -11t-53.5 11t-44.5 29.5t-30 43.5t-11 53t11 53.5t30 44.5t44.5 30t53.5 11t53 -11t44 -30t30 -44.5t11 -53.5z" />
    <glyph glyph-name="Aring" unicode="&#xc5;" horiz-adv-x="1458" 
d="M1133 0l-121 340h-574l-119 -340h-223l479 1331q-49 34 -78.5 89.5t-29.5 123.5q0 55 19.5 102.5t54 82t82 54t102.5 19.5t102.5 -19.5t82 -54t54 -82t19.5 -102.5q0 -68 -28.5 -122.5t-77.5 -88.5l485 -1333h-229zM850 1544q0 27 -9.5 50t-26 39.5t-39.5 26t-50 9.5
t-50 -9.5t-39.5 -26t-26 -39.5t-9.5 -50t9.5 -49.5t26 -39.5t39.5 -26.5t50 -9.5t50 9.5t39.5 26.5t26 39.5t9.5 49.5zM946 532l-223 639l-219 -639h442z" />
    <glyph glyph-name="AE" unicode="&#xc6;" horiz-adv-x="2085" 
d="M1935 1434v-209h-708v-355h573v-208h-573v-453h739v-209h-946v336h-531l-221 -336h-239l962 1434h944zM621 535h399v603z" />
    <glyph glyph-name="Ccedilla" unicode="&#xc7;" horiz-adv-x="1341" 
d="M1022 1069q-28 44 -57 76.5t-64 53.5t-78 31.5t-98 10.5q-94 0 -166 -36.5t-120.5 -105t-73.5 -165.5t-25 -217q0 -121 25 -218t73.5 -165t120.5 -104.5t166 -36.5q112 0 186 45t129 133l179 -119q-50 -80 -94.5 -122.5t-100 -76t-130 -55t-169.5 -21.5q-102 0 -183.5 27
t-147.5 74t-119.5 117.5t-85.5 146.5t-51 170t-19 205q0 163 42.5 298.5t121.5 233.5t191 152.5t251 54.5q175 0 294 -69t193 -199zM644 25h105l-22 -117q20 8 42.5 13t56.5 5q26 0 52.5 -8t47.5 -25.5t34.5 -44.5t13.5 -65q0 -48 -20 -82t-54 -55.5t-79.5 -31t-96.5 -9.5
q-74 0 -135 19t-117 54l45 68q89 -49 180 -49q68 0 99.5 22.5t31.5 57.5q0 31 -18 48t-47 17q-50 0 -82 -30l-74 28z" />
    <glyph glyph-name="Egrave" unicode="&#xc8;" horiz-adv-x="1260" 
d="M1141 0h-955v1434h924v-209h-709v-355h576v-208h-576v-453h740v-209zM598 1526l-338 327h287l219 -327h-168z" />
    <glyph glyph-name="Eacute" unicode="&#xc9;" horiz-adv-x="1260" 
d="M1141 0h-955v1434h924v-209h-709v-355h576v-208h-576v-453h740v-209zM680 1526h-168l219 327h287z" />
    <glyph glyph-name="Ecircumflex" unicode="&#xca;" horiz-adv-x="1260" 
d="M1141 0h-955v1434h924v-209h-709v-355h576v-208h-576v-453h740v-209zM830 1526l-195 180l-195 -180h-165l239 327h246l239 -327h-169z" />
    <glyph glyph-name="Edieresis" unicode="&#xcb;" horiz-adv-x="1260" 
d="M1141 0h-955v1434h924v-209h-709v-355h576v-208h-576v-453h740v-209zM975 1663q0 -28 -11 -53t-30 -43.5t-44 -29.5t-52 -11q-29 0 -54 11t-44.5 29.5t-30.5 43.5t-11 53t11 53.5t30.5 44.5t44.5 30t54 11q27 0 52 -11t44 -30t30 -44.5t11 -53.5zM576 1663q0 -28 -11 -53
t-30 -43.5t-44 -29.5t-53 -11t-53.5 11t-44.5 29.5t-30 43.5t-11 53t11 53.5t30 44.5t44.5 30t53.5 11t53 -11t44 -30t30 -44.5t11 -53.5z" />
    <glyph glyph-name="Igrave" unicode="&#xcc;" horiz-adv-x="608" 
d="M197 0v1434h215v-1434h-215zM248 1526l-338 327h287l219 -327h-168z" />
    <glyph glyph-name="Iacute" unicode="&#xcd;" horiz-adv-x="608" 
d="M197 0v1434h215v-1434h-215zM370 1526h-168l219 327h287z" />
    <glyph glyph-name="Icircumflex" unicode="&#xce;" horiz-adv-x="608" 
d="M197 0v1434h215v-1434h-215zM500 1512l-195 180l-195 -180h-165l239 327h246l239 -327h-169z" />
    <glyph glyph-name="Idieresis" unicode="&#xcf;" horiz-adv-x="608" 
d="M197 0v1434h215v-1434h-215zM645 1663q0 -28 -11 -53t-30 -43.5t-44 -29.5t-52 -11q-29 0 -54 11t-44.5 29.5t-30.5 43.5t-11 53t11 53.5t30.5 44.5t44.5 30t54 11q27 0 52 -11t44 -30t30 -44.5t11 -53.5zM246 1663q0 -28 -11 -53t-30 -43.5t-44 -29.5t-53 -11t-53.5 11
t-44.5 29.5t-30 43.5t-11 53t11 53.5t30 44.5t44.5 30t53.5 11t53 -11t44 -30t30 -44.5t11 -53.5z" />
    <glyph glyph-name="Eth" unicode="&#xd0;" horiz-adv-x="1421" 
d="M1307 717q0 -190 -56.5 -325.5t-152.5 -222.5t-222.5 -128t-267.5 -41h-391v647h-135v205h135v582h391q144 0 271.5 -41t222.5 -128t150 -222.5t55 -325.5zM1087 717q0 113 -27 206t-85 160t-149 103.5t-218 36.5h-182v-371h260v-205h-260v-436h182q127 0 218 36.5
t149 103.5t85 160t27 206z" />
    <glyph glyph-name="Ntilde" unicode="&#xd1;" horiz-adv-x="1462" 
d="M1276 0h-205l-676 1062v-1062h-209v1434h220l661 -1062v1062h209v-1434zM1126 1802q0 -68 -16.5 -120.5t-45 -87.5t-68 -53t-85.5 -18q-29 0 -55.5 5t-54.5 16t-60 28t-72 42q-21 12 -42 20t-38 8q-34 0 -52.5 -24.5t-26.5 -87.5h-146q0 68 16.5 120t45 87t68 53t85.5 18
q29 0 55.5 -5t54.5 -15.5t60 -27.5t72 -42q22 -12 42.5 -20.5t37.5 -8.5q34 0 53 25t27 88h145z" />
    <glyph glyph-name="Ograve" unicode="&#xd2;" horiz-adv-x="1456" 
d="M1339 719q0 -168 -44.5 -304.5t-125.5 -234t-194 -150.5t-250 -53q-136 0 -248 52.5t-192 149t-124 232.5t-44 304q0 167 44.5 304t125.5 234t193.5 150t248.5 53q137 0 249.5 -52.5t192.5 -149t124 -232.5t44 -303zM1120 715q0 122 -30 219.5t-83 166t-125.5 105.5
t-158.5 37q-85 0 -156 -36t-122.5 -104t-80 -165t-28.5 -219t29.5 -220t82 -166.5t125 -105.5t158.5 -37q85 0 156.5 36t123 104t80.5 165.5t29 219.5zM691 1526l-338 327h287l219 -327h-168z" />
    <glyph glyph-name="Oacute" unicode="&#xd3;" horiz-adv-x="1456" 
d="M1339 719q0 -168 -44.5 -304.5t-125.5 -234t-194 -150.5t-250 -53q-136 0 -248 52.5t-192 149t-124 232.5t-44 304q0 167 44.5 304t125.5 234t193.5 150t248.5 53q137 0 249.5 -52.5t192.5 -149t124 -232.5t44 -303zM1120 715q0 122 -30 219.5t-83 166t-125.5 105.5
t-158.5 37q-85 0 -156 -36t-122.5 -104t-80 -165t-28.5 -219t29.5 -220t82 -166.5t125 -105.5t158.5 -37q85 0 156.5 36t123 104t80.5 165.5t29 219.5zM760 1526h-168l219 327h287z" />
    <glyph glyph-name="Ocircumflex" unicode="&#xd4;" horiz-adv-x="1456" 
d="M1339 719q0 -168 -44.5 -304.5t-125.5 -234t-194 -150.5t-250 -53q-136 0 -248 52.5t-192 149t-124 232.5t-44 304q0 167 44.5 304t125.5 234t193.5 150t248.5 53q137 0 249.5 -52.5t192.5 -149t124 -232.5t44 -303zM1120 715q0 122 -30 219.5t-83 166t-125.5 105.5
t-158.5 37q-85 0 -156 -36t-122.5 -104t-80 -165t-28.5 -219t29.5 -220t82 -166.5t125 -105.5t158.5 -37q85 0 156.5 36t123 104t80.5 165.5t29 219.5zM910 1516l-195 180l-195 -180h-165l239 327h246l239 -327h-169z" />
    <glyph glyph-name="Otilde" unicode="&#xd5;" horiz-adv-x="1456" 
d="M1339 719q0 -168 -44.5 -304.5t-125.5 -234t-194 -150.5t-250 -53q-136 0 -248 52.5t-192 149t-124 232.5t-44 304q0 167 44.5 304t125.5 234t193.5 150t248.5 53q137 0 249.5 -52.5t192.5 -149t124 -232.5t44 -303zM1120 715q0 122 -30 219.5t-83 166t-125.5 105.5
t-158.5 37q-85 0 -156 -36t-122.5 -104t-80 -165t-28.5 -219t29.5 -220t82 -166.5t125 -105.5t158.5 -37q85 0 156.5 36t123 104t80.5 165.5t29 219.5zM1087 1798q0 -68 -16.5 -120.5t-45 -87.5t-68 -53t-85.5 -18q-29 0 -55.5 5t-54.5 16t-60 28t-72 42q-21 12 -42 20
t-38 8q-34 0 -52.5 -24.5t-26.5 -87.5h-146q0 68 16.5 120t45 87t68 53t85.5 18q29 0 55.5 -5t54.5 -15.5t60 -27.5t72 -42q22 -12 42.5 -20.5t37.5 -8.5q34 0 53 25t27 88h145z" />
    <glyph glyph-name="Odieresis" unicode="&#xd6;" horiz-adv-x="1456" 
d="M1339 719q0 -168 -44.5 -304.5t-125.5 -234t-194 -150.5t-250 -53q-136 0 -248 52.5t-192 149t-124 232.5t-44 304q0 167 44.5 304t125.5 234t193.5 150t248.5 53q137 0 249.5 -52.5t192.5 -149t124 -232.5t44 -303zM1120 715q0 122 -30 219.5t-83 166t-125.5 105.5
t-158.5 37q-85 0 -156 -36t-122.5 -104t-80 -165t-28.5 -219t29.5 -220t82 -166.5t125 -105.5t158.5 -37q85 0 156.5 36t123 104t80.5 165.5t29 219.5zM1055 1663q0 -28 -11 -53t-30 -43.5t-44 -29.5t-52 -11q-29 0 -54 11t-44.5 29.5t-30.5 43.5t-11 53t11 53.5t30.5 44.5
t44.5 30t54 11q27 0 52 -11t44 -30t30 -44.5t11 -53.5zM656 1663q0 -28 -11 -53t-30 -43.5t-44 -29.5t-53 -11t-53.5 11t-44.5 29.5t-30 43.5t-11 53t11 53.5t30 44.5t44.5 30t53.5 11t53 -11t44 -30t30 -44.5t11 -53.5z" />
    <glyph glyph-name="multiply" unicode="&#xd7;" 
d="M999 207l-364 371l-365 -371l-133 133l371 365l-371 364l133 133l365 -371l364 371l134 -133l-371 -364l371 -365z" />
    <glyph glyph-name="Oslash" unicode="&#xd8;" horiz-adv-x="1456" 
d="M1333 717q0 -163 -42.5 -299t-121.5 -234t-191.5 -152.5t-252.5 -54.5q-121 0 -227 43l-56 -122h-200l100 221q-106 99 -164.5 252t-58.5 346q0 163 42.5 298.5t121.5 233.5t191 152.5t251 54.5q114 0 209 -37l53 117h201l-96 -209q57 -48 102 -112.5t76 -142t47 -167
t16 -188.5zM850 1233q-54 16 -125 16q-94 0 -166 -38t-121 -107.5t-74.5 -168t-25.5 -218.5q0 -133 23.5 -228t74.5 -163zM1114 717q0 136 -27 238t-86 171l-419 -919q54 -23 143 -23q94 0 167 38t122 107.5t74.5 168t25.5 219.5z" />
    <glyph glyph-name="Ugrave" unicode="&#xd9;" horiz-adv-x="1442" 
d="M1266 598q0 -150 -36 -266t-106 -195t-173 -119.5t-236 -40.5t-234 42t-168.5 122.5t-102 196.5t-34.5 264v832h215v-826q0 -204 83 -309.5t245 -105.5q169 0 250.5 102t81.5 299v840h215v-836zM682 1495l-338 327h287l219 -327h-168z" />
    <glyph glyph-name="Uacute" unicode="&#xda;" horiz-adv-x="1442" 
d="M1266 598q0 -150 -36 -266t-106 -195t-173 -119.5t-236 -40.5t-234 42t-168.5 122.5t-102 196.5t-34.5 264v832h215v-826q0 -204 83 -309.5t245 -105.5q169 0 250.5 102t81.5 299v840h215v-836zM764 1495h-168l219 327h287z" />
    <glyph glyph-name="Ucircumflex" unicode="&#xdb;" horiz-adv-x="1442" 
d="M1266 598q0 -150 -36 -266t-106 -195t-173 -119.5t-236 -40.5t-234 42t-168.5 122.5t-102 196.5t-34.5 264v832h215v-826q0 -204 83 -309.5t245 -105.5q169 0 250.5 102t81.5 299v840h215v-836zM914 1526l-195 180l-195 -180h-165l239 327h246l239 -327h-169z" />
    <glyph glyph-name="Udieresis" unicode="&#xdc;" horiz-adv-x="1442" 
d="M1266 598q0 -150 -36 -266t-106 -195t-173 -119.5t-236 -40.5t-234 42t-168.5 122.5t-102 196.5t-34.5 264v832h215v-826q0 -204 83 -309.5t245 -105.5q169 0 250.5 102t81.5 299v840h215v-836zM1059 1663q0 -28 -11 -53t-30 -43.5t-44 -29.5t-52 -11q-29 0 -54 11
t-44.5 29.5t-30.5 43.5t-11 53t11 53.5t30.5 44.5t44.5 30t54 11q27 0 52 -11t44 -30t30 -44.5t11 -53.5zM660 1663q0 -28 -11 -53t-30 -43.5t-44 -29.5t-53 -11t-53.5 11t-44.5 29.5t-30 43.5t-11 53t11 53.5t30 44.5t44.5 30t53.5 11t53 -11t44 -30t30 -44.5t11 -53.5z
" />
    <glyph glyph-name="Yacute" unicode="&#xdd;" horiz-adv-x="1411" 
d="M1327 1434l-514 -867v-567h-215v567l-514 867h252l371 -657l373 657h247zM749 1495h-168l219 327h287z" />
    <glyph glyph-name="Thorn" unicode="&#xde;" horiz-adv-x="1337" 
d="M1247 745q0 -110 -35 -194t-98 -141t-150 -86t-192 -29h-371v-295h-215v1434h215v-240h385q99 0 183.5 -28.5t146 -84.5t96.5 -140.5t35 -195.5zM1028 745q0 116 -65.5 179t-182.5 63h-379v-485h379q124 0 186 64t62 179z" />
    <glyph glyph-name="germandbls" unicode="&#xdf;" horiz-adv-x="1190" 
d="M1085 463q0 -123 -36 -210.5t-104 -144t-166 -82.5t-222 -26h-25v193h37q69 0 125 14.5t95.5 46t61 80t21.5 117.5q0 67 -25 117t-68 82.5t-101 48.5t-123 16h-23v190h31q91 0 145 52t54 145q0 88 -53.5 139t-147.5 51t-144 -57.5t-50 -159.5v-1358l-211 -112v1462
q0 109 29.5 188.5t83.5 131t129.5 76t166.5 24.5q87 0 162 -26t130 -75t86.5 -119.5t31.5 -158.5q0 -113 -49.5 -184.5t-132.5 -100.5q51 -11 103 -35.5t94 -67.5t68.5 -106t26.5 -151z" />
    <glyph glyph-name="agrave" unicode="&#xe0;" horiz-adv-x="1126" 
d="M772 0v106q-41 -38 -68 -55.5t-56 -33t-73.5 -28t-97.5 -12.5q-65 0 -131.5 19.5t-120 63t-87.5 112.5t-34 168q0 90 32.5 155.5t90 108.5t136 63.5t169.5 20.5q85 0 143 -11.5t97 -29.5v80q0 88 -52 135t-151 47q-83 0 -150 -16t-130 -51l-82 159q77 48 165.5 72.5
t202.5 24.5q90 0 164.5 -22t127.5 -67t82.5 -113t29.5 -159v-737h-207zM772 459q-30 14 -54 21.5t-50 13t-62.5 9t-79.5 3.5q-102 0 -161.5 -43t-59.5 -117q0 -48 17 -81.5t43 -54.5t61.5 -31.5t85.5 -10.5q42 0 81 12t73 31.5t61 44t45 49.5v154zM533 1219l-338 327h287
l219 -327h-168z" />
    <glyph glyph-name="aacute" unicode="&#xe1;" horiz-adv-x="1126" 
d="M772 0v106q-41 -38 -68 -55.5t-56 -33t-73.5 -28t-97.5 -12.5q-65 0 -131.5 19.5t-120 63t-87.5 112.5t-34 168q0 90 32.5 155.5t90 108.5t136 63.5t169.5 20.5q85 0 143 -11.5t97 -29.5v80q0 88 -52 135t-151 47q-83 0 -150 -16t-130 -51l-82 159q77 48 165.5 72.5
t202.5 24.5q90 0 164.5 -22t127.5 -67t82.5 -113t29.5 -159v-737h-207zM772 459q-30 14 -54 21.5t-50 13t-62.5 9t-79.5 3.5q-102 0 -161.5 -43t-59.5 -117q0 -48 17 -81.5t43 -54.5t61.5 -31.5t85.5 -10.5q42 0 81 12t73 31.5t61 44t45 49.5v154zM612 1219h-168l219 327
h287z" />
    <glyph glyph-name="acircumflex" unicode="&#xe2;" horiz-adv-x="1126" 
d="M772 0v106q-41 -38 -68 -55.5t-56 -33t-73.5 -28t-97.5 -12.5q-65 0 -131.5 19.5t-120 63t-87.5 112.5t-34 168q0 90 32.5 155.5t90 108.5t136 63.5t169.5 20.5q85 0 143 -11.5t97 -29.5v80q0 88 -52 135t-151 47q-83 0 -150 -16t-130 -51l-82 159q77 48 165.5 72.5
t202.5 24.5q90 0 164.5 -22t127.5 -67t82.5 -113t29.5 -159v-737h-207zM772 459q-30 14 -54 21.5t-50 13t-62.5 9t-79.5 3.5q-102 0 -161.5 -43t-59.5 -117q0 -48 17 -81.5t43 -54.5t61.5 -31.5t85.5 -10.5q42 0 81 12t73 31.5t61 44t45 49.5v154zM762 1211l-195 180
l-195 -180h-165l239 327h246l239 -327h-169z" />
    <glyph glyph-name="atilde" unicode="&#xe3;" horiz-adv-x="1126" 
d="M772 0v106q-41 -38 -68 -55.5t-56 -33t-73.5 -28t-97.5 -12.5q-65 0 -131.5 19.5t-120 63t-87.5 112.5t-34 168q0 90 32.5 155.5t90 108.5t136 63.5t169.5 20.5q85 0 143 -11.5t97 -29.5v80q0 88 -52 135t-151 47q-83 0 -150 -16t-130 -51l-82 159q77 48 165.5 72.5
t202.5 24.5q90 0 164.5 -22t127.5 -67t82.5 -113t29.5 -159v-737h-207zM772 459q-30 14 -54 21.5t-50 13t-62.5 9t-79.5 3.5q-102 0 -161.5 -43t-59.5 -117q0 -48 17 -81.5t43 -54.5t61.5 -31.5t85.5 -10.5q42 0 81 12t73 31.5t61 44t45 49.5v154zM940 1491
q0 -68 -16.5 -120.5t-45 -87.5t-68 -53t-85.5 -18q-29 0 -55.5 5t-54.5 16t-60 28t-72 42q-21 12 -42 20t-38 8q-34 0 -52.5 -24.5t-26.5 -87.5h-146q0 68 16.5 120t45 87t68 53t85.5 18q29 0 55.5 -5t54.5 -15.5t60 -27.5t72 -42q22 -12 42.5 -20.5t37.5 -8.5q34 0 53 25
t27 88h145z" />
    <glyph glyph-name="adieresis" unicode="&#xe4;" horiz-adv-x="1126" 
d="M772 0v106q-41 -38 -68 -55.5t-56 -33t-73.5 -28t-97.5 -12.5q-65 0 -131.5 19.5t-120 63t-87.5 112.5t-34 168q0 90 32.5 155.5t90 108.5t136 63.5t169.5 20.5q85 0 143 -11.5t97 -29.5v80q0 88 -52 135t-151 47q-83 0 -150 -16t-130 -51l-82 159q77 48 165.5 72.5
t202.5 24.5q90 0 164.5 -22t127.5 -67t82.5 -113t29.5 -159v-737h-207zM772 459q-30 14 -54 21.5t-50 13t-62.5 9t-79.5 3.5q-102 0 -161.5 -43t-59.5 -117q0 -48 17 -81.5t43 -54.5t61.5 -31.5t85.5 -10.5q42 0 81 12t73 31.5t61 44t45 49.5v154zM907 1348q0 -28 -11 -53
t-30 -43.5t-44 -29.5t-52 -11q-29 0 -54 11t-44.5 29.5t-30.5 43.5t-11 53t11 53.5t30.5 44.5t44.5 30t54 11q27 0 52 -11t44 -30t30 -44.5t11 -53.5zM508 1348q0 -28 -11 -53t-30 -43.5t-44 -29.5t-53 -11t-53.5 11t-44.5 29.5t-30 43.5t-11 53t11 53.5t30 44.5t44.5 30
t53.5 11t53 -11t44 -30t30 -44.5t11 -53.5z" />
    <glyph glyph-name="aring" unicode="&#xe5;" horiz-adv-x="1126" 
d="M772 0v106q-41 -38 -68 -55.5t-56 -33t-73.5 -28t-97.5 -12.5q-65 0 -131.5 19.5t-120 63t-87.5 112.5t-34 168q0 90 32.5 155.5t90 108.5t136 63.5t169.5 20.5q85 0 143 -11.5t97 -29.5v80q0 88 -52 135t-151 47q-83 0 -150 -16t-130 -51l-82 159q77 48 165.5 72.5
t202.5 24.5q90 0 164.5 -22t127.5 -67t82.5 -113t29.5 -159v-737h-207zM772 459q-30 14 -54 21.5t-50 13t-62.5 9t-79.5 3.5q-102 0 -161.5 -43t-59.5 -117q0 -48 17 -81.5t43 -54.5t61.5 -31.5t85.5 -10.5q42 0 81 12t73 31.5t61 44t45 49.5v154zM827 1475
q0 -56 -19.5 -102.5t-54 -81t-82 -53.5t-102.5 -19t-102.5 19t-82 53.5t-54 81t-19.5 102.5q0 55 19.5 102.5t54 82t82 54t102.5 19.5t102.5 -19.5t82 -54t54 -82t19.5 -102.5zM694 1475q0 27 -9.5 50.5t-26 40.5t-39.5 26.5t-50 9.5t-50 -9.5t-39.5 -26.5t-26 -40.5
t-9.5 -50.5q0 -28 9.5 -51t26 -40t39.5 -26.5t50 -9.5t50 9.5t39.5 26.5t26 40t9.5 51z" />
    <glyph glyph-name="ae" unicode="&#xe6;" horiz-adv-x="1741" 
d="M1626 557q0 -29 -2 -54t-4 -42h-657q4 -72 24 -126t52 -90t74.5 -53.5t90.5 -17.5q34 0 61.5 5.5t51 16.5t46 27t48.5 37l129 -139q-35 -35 -70.5 -61.5t-76.5 -45t-90 -28t-111 -9.5q-105 0 -194.5 46t-149.5 137q-60 -84 -154 -133.5t-213 -49.5q-65 0 -131.5 19.5
t-121.5 63t-89.5 112.5t-34.5 168q0 89 33.5 155t91.5 109.5t137 64.5t171 21q72 0 123.5 -11.5t95.5 -31.5v76q0 85 -45 131.5t-142 46.5q-80 0 -146 -16t-128 -51l-84 163q78 48 165.5 74.5t198.5 26.5q119 0 194.5 -36.5t119.5 -113.5q57 73 132.5 111.5t176.5 38.5
q108 0 188.5 -44t134 -118.5t79.5 -172.5t26 -206zM1417 641q-3 54 -16 101.5t-39.5 83t-69 56.5t-104.5 21q-52 0 -91.5 -18.5t-67 -53t-43.5 -83t-21 -107.5h452zM756 457q-21 10 -43.5 19t-49.5 15t-60 9.5t-75 3.5q-100 0 -157.5 -43t-57.5 -115q0 -78 49 -125t152 -47
q42 0 78 11.5t67 30.5t55 43t42 48v79.5v70.5z" />
    <glyph glyph-name="ccedilla" unicode="&#xe7;" horiz-adv-x="1069" 
d="M954 178q-32 -40 -68.5 -76.5t-82.5 -64t-103.5 -44t-130.5 -16.5q-98 0 -183 40t-147.5 113t-98.5 176t-36 229q0 133 36.5 238t100.5 177t150 110t184 38q119 0 212.5 -46.5t168.5 -136.5l-125 -149q-38 38 -65 59.5t-59.5 38.5t-66 25t-71.5 8q-57 0 -103.5 -25
t-79.5 -71t-51 -112t-18 -148q0 -79 17 -145.5t49.5 -115t80.5 -75.5t111 -27q38 0 69 8.5t59.5 25t56 41.5t59.5 58zM486 25h105l-22 -117q20 8 42.5 13t56.5 5q26 0 52.5 -8t47.5 -25.5t34.5 -44.5t13.5 -65q0 -48 -20 -82t-54 -55.5t-79.5 -31t-96.5 -9.5q-74 0 -135 19
t-117 54l45 68q89 -49 180 -49q68 0 99.5 22.5t31.5 57.5q0 31 -18 48t-47 17q-50 0 -82 -30l-74 28z" />
    <glyph glyph-name="egrave" unicode="&#xe8;" horiz-adv-x="1135" 
d="M1028 559q0 -29 -2 -54t-4 -42h-711q9 -78 34 -133.5t61 -91.5t81.5 -53t94.5 -17q35 0 66 6t59.5 18t50.5 24.5t57 37.5l125 -135q-40 -38 -76.5 -61.5t-79 -42t-96.5 -28.5t-119 -10q-70 0 -131 19.5t-108 51t-84.5 72t-71.5 104t-52 142t-18 171.5q0 136 34.5 241
t96.5 176t149 107.5t191 36.5q115 0 200 -43.5t141 -117t84 -171.5t28 -207zM815 637q-4 55 -19.5 104t-46 86t-77 58.5t-111.5 21.5q-56 0 -98 -18.5t-72 -52.5t-49.5 -83.5t-26.5 -115.5h500zM529 1219l-338 327h287l219 -327h-168z" />
    <glyph glyph-name="eacute" unicode="&#xe9;" horiz-adv-x="1135" 
d="M1028 559q0 -29 -2 -54t-4 -42h-711q9 -78 34 -133.5t61 -91.5t81.5 -53t94.5 -17q35 0 66 6t59.5 18t50.5 24.5t57 37.5l125 -135q-40 -38 -76.5 -61.5t-79 -42t-96.5 -28.5t-119 -10q-70 0 -131 19.5t-108 51t-84.5 72t-71.5 104t-52 142t-18 171.5q0 136 34.5 241
t96.5 176t149 107.5t191 36.5q115 0 200 -43.5t141 -117t84 -171.5t28 -207zM815 637q-4 55 -19.5 104t-46 86t-77 58.5t-111.5 21.5q-56 0 -98 -18.5t-72 -52.5t-49.5 -83.5t-26.5 -115.5h500zM608 1219h-168l219 327h287z" />
    <glyph glyph-name="ecircumflex" unicode="&#xea;" horiz-adv-x="1135" 
d="M1028 559q0 -29 -2 -54t-4 -42h-711q9 -78 34 -133.5t61 -91.5t81.5 -53t94.5 -17q35 0 66 6t59.5 18t50.5 24.5t57 37.5l125 -135q-40 -38 -76.5 -61.5t-79 -42t-96.5 -28.5t-119 -10q-70 0 -131 19.5t-108 51t-84.5 72t-71.5 104t-52 142t-18 171.5q0 136 34.5 241
t96.5 176t149 107.5t191 36.5q115 0 200 -43.5t141 -117t84 -171.5t28 -207zM815 637q-4 55 -19.5 104t-46 86t-77 58.5t-111.5 21.5q-56 0 -98 -18.5t-72 -52.5t-49.5 -83.5t-26.5 -115.5h500zM758 1201l-195 180l-195 -180h-165l239 327h246l239 -327h-169z" />
    <glyph glyph-name="edieresis" unicode="&#xeb;" horiz-adv-x="1135" 
d="M1028 559q0 -29 -2 -54t-4 -42h-711q9 -78 34 -133.5t61 -91.5t81.5 -53t94.5 -17q35 0 66 6t59.5 18t50.5 24.5t57 37.5l125 -135q-40 -38 -76.5 -61.5t-79 -42t-96.5 -28.5t-119 -10q-70 0 -131 19.5t-108 51t-84.5 72t-71.5 104t-52 142t-18 171.5q0 136 34.5 241
t96.5 176t149 107.5t191 36.5q115 0 200 -43.5t141 -117t84 -171.5t28 -207zM815 637q-4 55 -19.5 104t-46 86t-77 58.5t-111.5 21.5q-56 0 -98 -18.5t-72 -52.5t-49.5 -83.5t-26.5 -115.5h500zM903 1348q0 -28 -11 -53t-30 -43.5t-44 -29.5t-52 -11q-29 0 -54 11
t-44.5 29.5t-30.5 43.5t-11 53t11 53.5t30.5 44.5t44.5 30t54 11q27 0 52 -11t44 -30t30 -44.5t11 -53.5zM504 1348q0 -28 -11 -53t-30 -43.5t-44 -29.5t-53 -11t-53.5 11t-44.5 29.5t-30 43.5t-11 53t11 53.5t30 44.5t44.5 30t53.5 11t53 -11t44 -30t30 -44.5t11 -53.5z
" />
    <glyph glyph-name="igrave" unicode="&#xec;" horiz-adv-x="543" 
d="M164 0v1075h211v-1075h-211zM215 1219l-338 327h287l219 -327h-168z" />
    <glyph glyph-name="iacute" unicode="&#xed;" horiz-adv-x="543" 
d="M164 0v1075h211v-1075h-211zM340 1219h-168l219 327h287z" />
    <glyph glyph-name="icircumflex" unicode="&#xee;" horiz-adv-x="543" 
d="M164 0v1075h211v-1075h-211zM465 1190l-195 180l-195 -180h-165l239 327h246l239 -327h-169z" />
    <glyph glyph-name="idieresis" unicode="&#xef;" horiz-adv-x="543" 
d="M164 0v1075h211v-1075h-211zM608 1338q0 -28 -11 -53t-30 -43.5t-44 -29.5t-52 -11q-29 0 -54 11t-44.5 29.5t-30.5 43.5t-11 53t11 53.5t30.5 44.5t44.5 30t54 11q27 0 52 -11t44 -30t30 -44.5t11 -53.5zM209 1338q0 -28 -11 -53t-30 -43.5t-44 -29.5t-53 -11t-53.5 11
t-44.5 29.5t-30 43.5t-11 53t11 53.5t30 44.5t44.5 30t53.5 11t53 -11t44 -30t30 -44.5t11 -53.5z" />
    <glyph glyph-name="eth" unicode="&#xf0;" horiz-adv-x="1167" 
d="M1063 596q0 -166 -37 -283.5t-102 -192t-154 -109t-192 -34.5q-102 0 -188.5 35.5t-150 101.5t-99.5 160.5t-36 212.5q0 124 35.5 216t96 153.5t139.5 92t166 30.5q93 0 176 -33t139 -102q-22 93 -66.5 173t-115.5 140l-103 -106l-120 106l79 84q-75 35 -174 41v174
q88 -5 164 -25.5t139 -54.5l76 80l121 -106l-61 -66q71 -64 122 -144.5t83.5 -170.5t47.5 -185t15 -188zM850 487q0 78 -21 136.5t-57.5 97.5t-87 58.5t-109.5 19.5q-54 0 -101.5 -19.5t-82 -58t-54.5 -95.5t-20 -132q0 -73 19.5 -131.5t55 -99.5t85 -63t109.5 -22
t108.5 23.5t83 65t53.5 98t19 122.5z" />
    <glyph glyph-name="ntilde" unicode="&#xf1;" horiz-adv-x="1167" 
d="M809 0v608q0 146 -52 220.5t-169 74.5q-51 0 -94 -18t-72 -56t-42 -89.5t-13 -110.5v-629h-211v1075h211v-102q20 29 49 52.5t64 39.5t75 24.5t82 8.5q97 0 168.5 -31.5t119 -90.5t71.5 -149t24 -211v-616h-211zM952 1491q0 -68 -16.5 -120.5t-45 -87.5t-68 -53
t-85.5 -18q-29 0 -55.5 5t-54.5 16t-60 28t-72 42q-21 12 -42 20t-38 8q-34 0 -52.5 -24.5t-26.5 -87.5h-146q0 68 16.5 120t45 87t68 53t85.5 18q29 0 55.5 -5t54.5 -15.5t60 -27.5t72 -42q22 -12 42.5 -20.5t37.5 -8.5q34 0 53 25t27 88h145z" />
    <glyph glyph-name="ograve" unicode="&#xf2;" horiz-adv-x="1167" 
d="M1063 543q0 -134 -37 -239t-102 -178t-154 -111t-192 -38q-102 0 -188.5 40t-150 113.5t-99.5 177t-36 229.5q0 132 37 236t101.5 176.5t152 110.5t189.5 38q103 0 190.5 -39.5t151.5 -112t100.5 -175t36.5 -228.5zM850 537q0 82 -19 148.5t-54.5 113.5t-86.5 72.5
t-115 25.5q-60 0 -107.5 -25.5t-81 -72t-51.5 -111.5t-18 -145q0 -89 19.5 -157t55 -114t85 -70t109.5 -24t108.5 28.5t83 77t53.5 114t19 139.5zM541 1219l-338 327h287l219 -327h-168z" />
    <glyph glyph-name="oacute" unicode="&#xf3;" horiz-adv-x="1167" 
d="M1063 543q0 -134 -37 -239t-102 -178t-154 -111t-192 -38q-102 0 -188.5 40t-150 113.5t-99.5 177t-36 229.5q0 132 37 236t101.5 176.5t152 110.5t189.5 38q103 0 190.5 -39.5t151.5 -112t100.5 -175t36.5 -228.5zM850 537q0 82 -19 148.5t-54.5 113.5t-86.5 72.5
t-115 25.5q-60 0 -107.5 -25.5t-81 -72t-51.5 -111.5t-18 -145q0 -89 19.5 -157t55 -114t85 -70t109.5 -24t108.5 28.5t83 77t53.5 114t19 139.5zM620 1219h-168l219 327h287z" />
    <glyph glyph-name="ocircumflex" unicode="&#xf4;" horiz-adv-x="1167" 
d="M1063 543q0 -134 -37 -239t-102 -178t-154 -111t-192 -38q-102 0 -188.5 40t-150 113.5t-99.5 177t-36 229.5q0 132 37 236t101.5 176.5t152 110.5t189.5 38q103 0 190.5 -39.5t151.5 -112t100.5 -175t36.5 -228.5zM850 537q0 82 -19 148.5t-54.5 113.5t-86.5 72.5
t-115 25.5q-60 0 -107.5 -25.5t-81 -72t-51.5 -111.5t-18 -145q0 -89 19.5 -157t55 -114t85 -70t109.5 -24t108.5 28.5t83 77t53.5 114t19 139.5zM771 1201l-195 180l-195 -180h-165l239 327h246l239 -327h-169z" />
    <glyph glyph-name="otilde" unicode="&#xf5;" horiz-adv-x="1167" 
d="M1063 543q0 -134 -37 -239t-102 -178t-154 -111t-192 -38q-102 0 -188.5 40t-150 113.5t-99.5 177t-36 229.5q0 132 37 236t101.5 176.5t152 110.5t189.5 38q103 0 190.5 -39.5t151.5 -112t100.5 -175t36.5 -228.5zM850 537q0 82 -19 148.5t-54.5 113.5t-86.5 72.5
t-115 25.5q-60 0 -107.5 -25.5t-81 -72t-51.5 -111.5t-18 -145q0 -89 19.5 -157t55 -114t85 -70t109.5 -24t108.5 28.5t83 77t53.5 114t19 139.5zM948 1491q0 -68 -16.5 -120.5t-45 -87.5t-68 -53t-85.5 -18q-29 0 -55.5 5t-54.5 16t-60 28t-72 42q-21 12 -42 20t-38 8
q-34 0 -52.5 -24.5t-26.5 -87.5h-146q0 68 16.5 120t45 87t68 53t85.5 18q29 0 55.5 -5t54.5 -15.5t60 -27.5t72 -42q22 -12 42.5 -20.5t37.5 -8.5q34 0 53 25t27 88h145z" />
    <glyph glyph-name="odieresis" unicode="&#xf6;" horiz-adv-x="1167" 
d="M1063 543q0 -134 -37 -239t-102 -178t-154 -111t-192 -38q-102 0 -188.5 40t-150 113.5t-99.5 177t-36 229.5q0 132 37 236t101.5 176.5t152 110.5t189.5 38q103 0 190.5 -39.5t151.5 -112t100.5 -175t36.5 -228.5zM850 537q0 82 -19 148.5t-54.5 113.5t-86.5 72.5
t-115 25.5q-60 0 -107.5 -25.5t-81 -72t-51.5 -111.5t-18 -145q0 -89 19.5 -157t55 -114t85 -70t109.5 -24t108.5 28.5t83 77t53.5 114t19 139.5zM916 1338q0 -28 -11 -53t-30 -43.5t-44 -29.5t-52 -11q-29 0 -54 11t-44.5 29.5t-30.5 43.5t-11 53t11 53.5t30.5 44.5
t44.5 30t54 11q27 0 52 -11t44 -30t30 -44.5t11 -53.5zM517 1338q0 -28 -11 -53t-30 -43.5t-44 -29.5t-53 -11t-53.5 11t-44.5 29.5t-30 43.5t-11 53t11 53.5t30 44.5t44.5 30t53.5 11t53 -11t44 -30t30 -44.5t11 -53.5z" />
    <glyph glyph-name="divide" unicode="&#xf7;" 
d="M784 1133q0 -32 -12 -59t-32.5 -47.5t-47.5 -32t-57 -11.5q-32 0 -59 11.5t-47.5 32t-32 47.5t-11.5 59q0 31 12 59t32.5 49t47.5 33t58 12q30 0 57 -12t47.5 -33t32.5 -49t12 -59zM141 610v189h989v-189h-989zM784 272q0 -32 -12 -59t-32.5 -47t-47.5 -31.5t-57 -11.5
q-32 0 -59 11.5t-47.5 31.5t-32 47t-11.5 59q0 31 12 59t32.5 49t47.5 33.5t58 12.5q30 0 57 -12.5t47.5 -33.5t32.5 -49t12 -59z" />
    <glyph glyph-name="oslash" unicode="&#xf8;" horiz-adv-x="1167" 
d="M1063 543q0 -134 -37 -239t-102 -178t-154 -111t-192 -38q-77 0 -170 33l-58 -112h-188l102 206q-74 75 -117 184t-43 249q0 132 37 236t101.5 176.5t152 110.5t189.5 38q43 0 84 -7.5t80 -21.5l53 109h188l-98 -197q80 -72 126 -184t46 -254zM662 897q-41 12 -87 12
q-62 0 -110.5 -26t-81.5 -74t-50.5 -115.5t-17.5 -150.5q0 -81 12 -140t35 -104zM852 537q0 87 -15 148t-40 106l-305 -609q48 -16 94 -16q63 0 112.5 29t83.5 79.5t52 118t18 144.5z" />
    <glyph glyph-name="ugrave" unicode="&#xf9;" horiz-adv-x="1167" 
d="M801 0v102q-40 -55 -112 -90t-159 -35q-188 0 -285.5 121t-97.5 361v616h211v-608q0 -148 52.5 -221.5t169.5 -73.5q106 0 163.5 71.5t57.5 202.5v629h211v-1075h-211zM543 1219l-338 327h287l219 -327h-168z" />
    <glyph glyph-name="uacute" unicode="&#xfa;" horiz-adv-x="1167" 
d="M801 0v102q-40 -55 -112 -90t-159 -35q-188 0 -285.5 121t-97.5 361v616h211v-608q0 -148 52.5 -221.5t169.5 -73.5q106 0 163.5 71.5t57.5 202.5v629h211v-1075h-211zM622 1219h-168l219 327h287z" />
    <glyph glyph-name="ucircumflex" unicode="&#xfb;" horiz-adv-x="1167" 
d="M801 0v102q-40 -55 -112 -90t-159 -35q-188 0 -285.5 121t-97.5 361v616h211v-608q0 -148 52.5 -221.5t169.5 -73.5q106 0 163.5 71.5t57.5 202.5v629h211v-1075h-211zM773 1219l-195 180l-195 -180h-165l239 327h246l239 -327h-169z" />
    <glyph glyph-name="udieresis" unicode="&#xfc;" horiz-adv-x="1167" 
d="M801 0v102q-40 -55 -112 -90t-159 -35q-188 0 -285.5 121t-97.5 361v616h211v-608q0 -148 52.5 -221.5t169.5 -73.5q106 0 163.5 71.5t57.5 202.5v629h211v-1075h-211zM918 1356q0 -28 -11 -53t-30 -43.5t-44 -29.5t-52 -11q-29 0 -54 11t-44.5 29.5t-30.5 43.5t-11 53
t11 53.5t30.5 44.5t44.5 30t54 11q27 0 52 -11t44 -30t30 -44.5t11 -53.5zM519 1356q0 -28 -11 -53t-30 -43.5t-44 -29.5t-53 -11t-53.5 11t-44.5 29.5t-30 43.5t-11 53t11 53.5t30 44.5t44.5 30t53.5 11t53 -11t44 -30t30 -44.5t11 -53.5z" />
    <glyph glyph-name="yacute" unicode="&#xfd;" horiz-adv-x="1139" 
d="M530 -379h-223l156 399l-395 1055h231l270 -810l279 810h223zM610 1201h-168l219 327h287z" />
    <glyph glyph-name="thorn" unicode="&#xfe;" horiz-adv-x="1167" 
d="M1059 520q0 -138 -35 -240t-93.5 -169.5t-135 -100.5t-160.5 -33q-41 0 -80 10t-74 27t-64.5 39.5t-51.5 46.5v-387l-209 -108v1779l209 109v-520q58 54 126.5 89.5t153.5 35.5q87 0 162.5 -32.5t131.5 -102.5t88 -179.5t32 -263.5zM848 514q0 202 -62.5 295.5
t-179.5 93.5q-38 0 -72.5 -11.5t-66 -30.5t-58 -44t-47.5 -51v-453q18 -24 44.5 -49t59.5 -45.5t70.5 -33.5t77.5 -13q115 0 174.5 85.5t59.5 256.5z" />
    <glyph glyph-name="ydieresis" unicode="&#xff;" horiz-adv-x="1139" 
d="M530 -379h-223l156 399l-395 1055h231l270 -810l279 810h223zM905 1338q0 -28 -11 -53t-30 -43.5t-44 -29.5t-52 -11q-29 0 -54 11t-44.5 29.5t-30.5 43.5t-11 53t11 53.5t30.5 44.5t44.5 30t54 11q27 0 52 -11t44 -30t30 -44.5t11 -53.5zM506 1338q0 -28 -11 -53
t-30 -43.5t-44 -29.5t-53 -11t-53.5 11t-44.5 29.5t-30 43.5t-11 53t11 53.5t30 44.5t44.5 30t53.5 11t53 -11t44 -30t30 -44.5t11 -53.5z" />
    <glyph glyph-name="Amacron" unicode="&#x100;" horiz-adv-x="1458" 
d="M1362 0h-229l-121 340h-574l-119 -340h-223l516 1434h228zM946 532l-223 639l-219 -639h442zM442 1556v185h574v-185h-574z" />
    <glyph glyph-name="amacron" unicode="&#x101;" horiz-adv-x="1126" 
d="M772 0v106q-41 -38 -68 -55.5t-56 -33t-73.5 -28t-97.5 -12.5q-65 0 -131.5 19.5t-120 63t-87.5 112.5t-34 168q0 90 32.5 155.5t90 108.5t136 63.5t169.5 20.5q85 0 143 -11.5t97 -29.5v80q0 88 -52 135t-151 47q-83 0 -150 -16t-130 -51l-82 159q77 48 165.5 72.5
t202.5 24.5q90 0 164.5 -22t127.5 -67t82.5 -113t29.5 -159v-737h-207zM772 459q-30 14 -54 21.5t-50 13t-62.5 9t-79.5 3.5q-102 0 -161.5 -43t-59.5 -117q0 -48 17 -81.5t43 -54.5t61.5 -31.5t85.5 -10.5q42 0 81 12t73 31.5t61 44t45 49.5v154zM276 1249v185h574v-185
h-574z" />
    <glyph glyph-name="Abreve" unicode="&#x102;" horiz-adv-x="1458" 
d="M1362 0h-229l-121 340h-574l-119 -340h-223l516 1434h228zM946 532l-223 639l-219 -639h442zM1091 1853q-6 -78 -33.5 -139t-74 -103t-110.5 -63.5t-146 -21.5q-78 0 -141 21.5t-109.5 63.5t-74.5 103t-35 139h151q12 -72 64 -112.5t149 -40.5q91 0 146 39.5t67 113.5
h147z" />
    <glyph glyph-name="abreve" unicode="&#x103;" horiz-adv-x="1126" 
d="M772 0v106q-41 -38 -68 -55.5t-56 -33t-73.5 -28t-97.5 -12.5q-65 0 -131.5 19.5t-120 63t-87.5 112.5t-34 168q0 90 32.5 155.5t90 108.5t136 63.5t169.5 20.5q85 0 143 -11.5t97 -29.5v80q0 88 -52 135t-151 47q-83 0 -150 -16t-130 -51l-82 159q77 48 165.5 72.5
t202.5 24.5q90 0 164.5 -22t127.5 -67t82.5 -113t29.5 -159v-737h-207zM772 459q-30 14 -54 21.5t-50 13t-62.5 9t-79.5 3.5q-102 0 -161.5 -43t-59.5 -117q0 -48 17 -81.5t43 -54.5t61.5 -31.5t85.5 -10.5q42 0 81 12t73 31.5t61 44t45 49.5v154zM925 1546
q-6 -78 -33.5 -139t-74 -103t-110.5 -63.5t-146 -21.5q-78 0 -141 21.5t-109.5 63.5t-74.5 103t-35 139h151q12 -72 64 -112.5t149 -40.5q91 0 146 39.5t67 113.5h147z" />
    <glyph glyph-name="Aogonek" unicode="&#x104;" horiz-adv-x="1458" 
d="M1362 0h-229l-121 340h-574l-119 -340h-223l516 1434h228zM946 532l-223 639l-219 -639h442zM1340 0q-50 -26 -91.5 -54t-67.5 -54.5t-36 -50t-10 -40.5q0 -28 15.5 -45.5t47.5 -17.5q21 0 40.5 7.5t33.5 21.5l67 -105q-42 -35 -91 -53.5t-105 -18.5q-51 0 -88.5 14
t-62 36.5t-36.5 51.5t-12 60q0 39 14 74.5t39 67t59.5 58.5t76.5 48h207z" />
    <glyph glyph-name="aogonek" unicode="&#x105;" horiz-adv-x="1126" 
d="M772 0v106q-41 -38 -68 -55.5t-56 -33t-73.5 -28t-97.5 -12.5q-65 0 -131.5 19.5t-120 63t-87.5 112.5t-34 168q0 90 32.5 155.5t90 108.5t136 63.5t169.5 20.5q85 0 143 -11.5t97 -29.5v80q0 88 -52 135t-151 47q-83 0 -150 -16t-130 -51l-82 159q77 48 165.5 72.5
t202.5 24.5q90 0 164.5 -22t127.5 -67t82.5 -113t29.5 -159v-737h-207zM772 459q-30 14 -54 21.5t-50 13t-62.5 9t-79.5 3.5q-102 0 -161.5 -43t-59.5 -117q0 -48 17 -81.5t43 -54.5t61.5 -31.5t85.5 -10.5q42 0 81 12t73 31.5t61 44t45 49.5v154zM979 0q-50 -26 -91.5 -54
t-67.5 -54.5t-36 -50t-10 -40.5q0 -28 15.5 -45.5t47.5 -17.5q21 0 40.5 7.5t33.5 21.5l67 -105q-42 -35 -91 -53.5t-105 -18.5q-51 0 -88.5 14t-62 36.5t-36.5 51.5t-12 60q0 39 14 74.5t39 67t59.5 58.5t76.5 48h207z" />
    <glyph glyph-name="Cacute" unicode="&#x106;" horiz-adv-x="1341" 
d="M1022 1069q-28 44 -57 76.5t-64 53.5t-78 31.5t-98 10.5q-94 0 -166 -36.5t-120.5 -105t-73.5 -165.5t-25 -217q0 -121 25 -218t73.5 -165t120.5 -104.5t166 -36.5q112 0 186 45t129 133l179 -119q-50 -80 -94.5 -122.5t-100 -76t-130 -55t-169.5 -21.5q-102 0 -183.5 27
t-147.5 74t-119.5 117.5t-85.5 146.5t-51 170t-19 205q0 163 42.5 298.5t121.5 233.5t191 152.5t251 54.5q175 0 294 -69t193 -199zM721 1526h-168l219 327h287z" />
    <glyph glyph-name="cacute" unicode="&#x107;" horiz-adv-x="1069" 
d="M954 178q-32 -40 -68.5 -76.5t-82.5 -64t-103.5 -44t-130.5 -16.5q-98 0 -183 40t-147.5 113t-98.5 176t-36 229q0 133 36.5 238t100.5 177t150 110t184 38q119 0 212.5 -46.5t168.5 -136.5l-125 -149q-38 38 -65 59.5t-59.5 38.5t-66 25t-71.5 8q-57 0 -103.5 -25
t-79.5 -71t-51 -112t-18 -148q0 -79 17 -145.5t49.5 -115t80.5 -75.5t111 -27q38 0 69 8.5t59.5 25t56 41.5t59.5 58zM653 1219h-168l219 327h287z" />
    <glyph glyph-name="Ccircumflex" unicode="&#x108;" horiz-adv-x="1341" 
d="M1022 1069q-28 44 -57 76.5t-64 53.5t-78 31.5t-98 10.5q-94 0 -166 -36.5t-120.5 -105t-73.5 -165.5t-25 -217q0 -121 25 -218t73.5 -165t120.5 -104.5t166 -36.5q112 0 186 45t129 133l179 -119q-50 -80 -94.5 -122.5t-100 -76t-130 -55t-169.5 -21.5q-102 0 -183.5 27
t-147.5 74t-119.5 117.5t-85.5 146.5t-51 170t-19 205q0 163 42.5 298.5t121.5 233.5t191 152.5t251 54.5q175 0 294 -69t193 -199zM910 1516l-195 180l-195 -180h-165l239 327h246l239 -327h-169z" />
    <glyph glyph-name="ccircumflex" unicode="&#x109;" horiz-adv-x="1069" 
d="M954 178q-32 -40 -68.5 -76.5t-82.5 -64t-103.5 -44t-130.5 -16.5q-98 0 -183 40t-147.5 113t-98.5 176t-36 229q0 133 36.5 238t100.5 177t150 110t184 38q119 0 212.5 -46.5t168.5 -136.5l-125 -149q-38 38 -65 59.5t-59.5 38.5t-66 25t-71.5 8q-57 0 -103.5 -25
t-79.5 -71t-51 -112t-18 -148q0 -79 17 -145.5t49.5 -115t80.5 -75.5t111 -27q38 0 69 8.5t59.5 25t56 41.5t59.5 58zM748 1219l-195 180l-195 -180h-165l239 327h246l239 -327h-169z" />
    <glyph glyph-name="Cdotaccent" unicode="&#x10a;" horiz-adv-x="1341" 
d="M1022 1069q-28 44 -57 76.5t-64 53.5t-78 31.5t-98 10.5q-94 0 -166 -36.5t-120.5 -105t-73.5 -165.5t-25 -217q0 -121 25 -218t73.5 -165t120.5 -104.5t166 -36.5q112 0 186 45t129 133l179 -119q-50 -80 -94.5 -122.5t-100 -76t-130 -55t-169.5 -21.5q-102 0 -183.5 27
t-147.5 74t-119.5 117.5t-85.5 146.5t-51 170t-19 205q0 163 42.5 298.5t121.5 233.5t191 152.5t251 54.5q175 0 294 -69t193 -199zM858 1663q0 -28 -11 -53t-30 -43.5t-43.5 -29.5t-52.5 -11q-29 0 -54 11t-44 29.5t-30 43.5t-11 53t11 53.5t30 44.5t44 30t54 11
q28 0 52.5 -11t43.5 -30t30 -44.5t11 -53.5z" />
    <glyph glyph-name="cdotaccent" unicode="&#x10b;" horiz-adv-x="1069" 
d="M954 178q-32 -40 -68.5 -76.5t-82.5 -64t-103.5 -44t-130.5 -16.5q-98 0 -183 40t-147.5 113t-98.5 176t-36 229q0 133 36.5 238t100.5 177t150 110t184 38q119 0 212.5 -46.5t168.5 -136.5l-125 -149q-38 38 -65 59.5t-59.5 38.5t-66 25t-71.5 8q-57 0 -103.5 -25
t-79.5 -71t-51 -112t-18 -148q0 -79 17 -145.5t49.5 -115t80.5 -75.5t111 -27q38 0 69 8.5t59.5 25t56 41.5t59.5 58zM708 1356q0 -28 -11 -53t-30 -43.5t-43.5 -29.5t-52.5 -11q-29 0 -54 11t-44 29.5t-30 43.5t-11 53t11 53.5t30 44.5t44 30t54 11q28 0 52.5 -11t43.5 -30
t30 -44.5t11 -53.5z" />
    <glyph glyph-name="Ccaron" unicode="&#x10c;" horiz-adv-x="1341" 
d="M1022 1069q-28 44 -57 76.5t-64 53.5t-78 31.5t-98 10.5q-94 0 -166 -36.5t-120.5 -105t-73.5 -165.5t-25 -217q0 -121 25 -218t73.5 -165t120.5 -104.5t166 -36.5q112 0 186 45t129 133l179 -119q-50 -80 -94.5 -122.5t-100 -76t-130 -55t-169.5 -21.5q-102 0 -183.5 27
t-147.5 74t-119.5 117.5t-85.5 146.5t-51 170t-19 205q0 163 42.5 298.5t121.5 233.5t191 152.5t251 54.5q175 0 294 -69t193 -199zM838 1516h-246l-239 327h169l195 -180l195 180h165z" />
    <glyph glyph-name="ccaron" unicode="&#x10d;" horiz-adv-x="1069" 
d="M954 178q-32 -40 -68.5 -76.5t-82.5 -64t-103.5 -44t-130.5 -16.5q-98 0 -183 40t-147.5 113t-98.5 176t-36 229q0 133 36.5 238t100.5 177t150 110t184 38q119 0 212.5 -46.5t168.5 -136.5l-125 -149q-38 38 -65 59.5t-59.5 38.5t-66 25t-71.5 8q-57 0 -103.5 -25
t-79.5 -71t-51 -112t-18 -148q0 -79 17 -145.5t49.5 -115t80.5 -75.5t111 -27q38 0 69 8.5t59.5 25t56 41.5t59.5 58zM658 1219h-246l-239 327h169l195 -180l195 180h165z" />
    <glyph glyph-name="Dcaron" unicode="&#x10e;" horiz-adv-x="1391" 
d="M1276 717q0 -127 -25.5 -229t-72 -181.5t-111 -137.5t-142 -95.5t-166 -55.5t-181.5 -18h-392v1434h392q144 0 271.5 -41t222 -128t149.5 -222.5t55 -325.5zM1057 717q0 113 -27 206.5t-85 160.5t-149 104t-218 37h-177v-1016h177q127 0 218 37t149 104t85 160.5
t27 206.5zM799 1516h-246l-239 327h169l195 -180l195 180h165z" />
    <glyph glyph-name="dcaron" unicode="&#x10f;" horiz-adv-x="1297" 
d="M803 0v102q-30 -27 -62 -50t-69 -41t-74 -26t-76 -8q-87 0 -162 32.5t-131 102.5t-88 179.5t-32 263.5q0 138 34.5 240.5t93 169.5t135 100t160.5 33q41 0 80 -10t74 -27t64.5 -39.5t52.5 -46.5v409l209 109v-1493h-209zM805 762q-18 24 -44.5 49t-59.5 45.5t-70.5 33.5
t-77.5 13q-115 0 -174.5 -85.5t-59.5 -256.5q0 -101 16 -174.5t47 -121t76 -70.5t103 -23q38 0 73 11.5t66 31t57.5 44t47.5 50.5v453zM1261 920h-141l29 514h268z" />
    <glyph glyph-name="Dcroat" unicode="&#x110;" horiz-adv-x="1421" 
d="M1307 717q0 -190 -56.5 -325.5t-152.5 -222.5t-222.5 -128t-267.5 -41h-391v647h-135v205h135v582h391q144 0 271.5 -41t222.5 -128t150 -222.5t55 -325.5zM1087 717q0 113 -27 206t-85 160t-149 103.5t-218 36.5h-182v-371h260v-205h-260v-436h182q127 0 218 36.5
t149 103.5t85 160t27 206z" />
    <glyph glyph-name="dcroat" unicode="&#x111;" horiz-adv-x="1167" 
d="M1194 1294v-141h-182v-1153h-209v102q-59 -54 -127.5 -89.5t-153.5 -35.5q-87 0 -162 32.5t-131 102.5t-88 179.5t-32 263.5q0 138 34.5 240.5t93 169.5t135 100t160.5 33q41 0 80 -10t74 -27t64.5 -39.5t52.5 -46.5v178h-182v141h182v90l209 109v-199h182zM805 762
q-18 24 -44.5 49t-59.5 45.5t-70.5 33.5t-77.5 13q-115 0 -174.5 -85.5t-59.5 -256.5q0 -101 16 -174.5t47 -121t76 -70.5t103 -23q38 0 73 11.5t66 31t57.5 44t47.5 50.5v453z" />
    <glyph glyph-name="Emacron" unicode="&#x112;" horiz-adv-x="1260" 
d="M1141 0h-955v1434h924v-209h-709v-355h576v-208h-576v-453h740v-209zM362 1556v185h574v-185h-574z" />
    <glyph glyph-name="emacron" unicode="&#x113;" horiz-adv-x="1135" 
d="M1028 559q0 -29 -2 -54t-4 -42h-711q9 -78 34 -133.5t61 -91.5t81.5 -53t94.5 -17q35 0 66 6t59.5 18t50.5 24.5t57 37.5l125 -135q-40 -38 -76.5 -61.5t-79 -42t-96.5 -28.5t-119 -10q-70 0 -131 19.5t-108 51t-84.5 72t-71.5 104t-52 142t-18 171.5q0 136 34.5 241
t96.5 176t149 107.5t191 36.5q115 0 200 -43.5t141 -117t84 -171.5t28 -207zM815 637q-4 55 -19.5 104t-46 86t-77 58.5t-111.5 21.5q-56 0 -98 -18.5t-72 -52.5t-49.5 -83.5t-26.5 -115.5h500zM280 1249v185h574v-185h-574z" />
    <glyph glyph-name="Ebreve" unicode="&#x114;" horiz-adv-x="1260" 
d="M1141 0h-955v1434h924v-209h-709v-355h576v-208h-576v-453h740v-209zM1001 1843q-6 -78 -33.5 -139t-74 -103t-110.5 -63.5t-146 -21.5q-78 0 -141 21.5t-109.5 63.5t-74.5 103t-35 139h151q12 -72 64 -112.5t149 -40.5q91 0 146 39.5t67 113.5h147z" />
    <glyph glyph-name="ebreve" unicode="&#x115;" horiz-adv-x="1135" 
d="M1028 559q0 -29 -2 -54t-4 -42h-711q9 -78 34 -133.5t61 -91.5t81.5 -53t94.5 -17q35 0 66 6t59.5 18t50.5 24.5t57 37.5l125 -135q-40 -38 -76.5 -61.5t-79 -42t-96.5 -28.5t-119 -10q-70 0 -131 19.5t-108 51t-84.5 72t-71.5 104t-52 142t-18 171.5q0 136 34.5 241
t96.5 176t149 107.5t191 36.5q115 0 200 -43.5t141 -117t84 -171.5t28 -207zM815 637q-4 55 -19.5 104t-46 86t-77 58.5t-111.5 21.5q-56 0 -98 -18.5t-72 -52.5t-49.5 -83.5t-26.5 -115.5h500zM919 1546q-6 -78 -33.5 -139t-74 -103t-110.5 -63.5t-146 -21.5
q-78 0 -141 21.5t-109.5 63.5t-74.5 103t-35 139h151q12 -72 64 -112.5t149 -40.5q91 0 146 39.5t67 113.5h147z" />
    <glyph glyph-name="Edotaccent" unicode="&#x116;" horiz-adv-x="1260" 
d="M1141 0h-955v1434h924v-209h-709v-355h576v-208h-576v-453h740v-209zM766 1663q0 -28 -11 -53t-30 -43.5t-43.5 -29.5t-52.5 -11q-29 0 -54 11t-44 29.5t-30 43.5t-11 53t11 53.5t30 44.5t44 30t54 11q28 0 52.5 -11t43.5 -30t30 -44.5t11 -53.5z" />
    <glyph glyph-name="edotaccent" unicode="&#x117;" horiz-adv-x="1135" 
d="M1028 559q0 -29 -2 -54t-4 -42h-711q9 -78 34 -133.5t61 -91.5t81.5 -53t94.5 -17q35 0 66 6t59.5 18t50.5 24.5t57 37.5l125 -135q-40 -38 -76.5 -61.5t-79 -42t-96.5 -28.5t-119 -10q-70 0 -131 19.5t-108 51t-84.5 72t-71.5 104t-52 142t-18 171.5q0 136 34.5 241
t96.5 176t149 107.5t191 36.5q115 0 200 -43.5t141 -117t84 -171.5t28 -207zM815 637q-4 55 -19.5 104t-46 86t-77 58.5t-111.5 21.5q-56 0 -98 -18.5t-72 -52.5t-49.5 -83.5t-26.5 -115.5h500zM704 1356q0 -28 -11 -53t-30 -43.5t-43.5 -29.5t-52.5 -11q-29 0 -54 11
t-44 29.5t-30 43.5t-11 53t11 53.5t30 44.5t44 30t54 11q28 0 52.5 -11t43.5 -30t30 -44.5t11 -53.5z" />
    <glyph glyph-name="Eogonek" unicode="&#x118;" horiz-adv-x="1260" 
d="M1141 0h-955v1434h924v-209h-709v-355h576v-208h-576v-453h740v-209zM1141 0q-50 -26 -91.5 -54t-67.5 -54.5t-36 -50t-10 -40.5q0 -28 15.5 -45.5t47.5 -17.5q21 0 40.5 7.5t33.5 21.5l67 -105q-42 -35 -91 -53.5t-105 -18.5q-51 0 -88.5 14t-62 36.5t-36.5 51.5t-12 60
q0 39 14 74.5t39 67t59.5 58.5t76.5 48h207z" />
    <glyph glyph-name="eogonek" unicode="&#x119;" horiz-adv-x="1135" 
d="M815 254l125 -135q-35 -35 -78.5 -62t-88.5 -50.5t-87.5 -45.5t-75.5 -45.5t-53 -51.5t-20 -63q0 -28 15.5 -45.5t47.5 -17.5q17 0 35.5 6t38.5 23l67 -105q-37 -32 -86 -52t-110 -20q-51 0 -88.5 14t-62 36.5t-36.5 51.5t-12 60q0 71 43.5 129.5t114.5 100.5
q-84 12 -157 54.5t-127 113.5t-85 168t-31 219q0 136 34.5 241t96.5 176t149 107.5t191 36.5q115 0 200 -43.5t141 -117t84 -171.5t28 -207q0 -29 -2 -54t-4 -42h-711q9 -78 34 -133.5t61 -91.5t81.5 -53t94.5 -17q68 0 123.5 23t109.5 63zM815 637q-4 55 -19.5 104t-46 86
t-77 58.5t-111.5 21.5q-52 0 -96 -18.5t-75 -55t-49.5 -85t-25.5 -111.5h500z" />
    <glyph glyph-name="Ecaron" unicode="&#x11a;" horiz-adv-x="1260" 
d="M1141 0h-955v1434h924v-209h-709v-355h576v-208h-576v-453h740v-209zM760 1516h-246l-239 327h169l195 -180l195 180h165z" />
    <glyph glyph-name="ecaron" unicode="&#x11b;" horiz-adv-x="1135" 
d="M1028 559q0 -29 -2 -54t-4 -42h-711q9 -78 34 -133.5t61 -91.5t81.5 -53t94.5 -17q35 0 66 6t59.5 18t50.5 24.5t57 37.5l125 -135q-40 -38 -76.5 -61.5t-79 -42t-96.5 -28.5t-119 -10q-70 0 -131 19.5t-108 51t-84.5 72t-71.5 104t-52 142t-18 171.5q0 136 34.5 241
t96.5 176t149 107.5t191 36.5q115 0 200 -43.5t141 -117t84 -171.5t28 -207zM815 637q-4 55 -19.5 104t-46 86t-77 58.5t-111.5 21.5q-56 0 -98 -18.5t-72 -52.5t-49.5 -83.5t-26.5 -115.5h500zM690 1219h-246l-239 327h169l195 -180l195 180h165z" />
    <glyph glyph-name="Gcircumflex" unicode="&#x11c;" horiz-adv-x="1389" 
d="M1270 561q0 -138 -40.5 -246.5t-112.5 -183.5t-172 -114.5t-220 -39.5q-139 0 -251 54.5t-191 152.5t-121.5 234t-42.5 299t42.5 298.5t121.5 233.5t191 152.5t251 54.5q175 0 294 -69t193 -199l-188 -117q-28 44 -57.5 76t-64.5 53t-78.5 31t-98.5 10q-94 0 -166 -36.5
t-121 -105t-74.5 -165.5t-25.5 -217q0 -121 25.5 -218t74.5 -165t121 -104.5t166 -36.5q154 0 240 86.5t86 234.5v6h-234v207h453v-166zM910 1516l-195 180l-195 -180h-165l239 327h246l239 -327h-169z" />
    <glyph glyph-name="gcircumflex" unicode="&#x11d;" horiz-adv-x="1167" 
d="M1012 102q0 -111 -22.5 -195.5t-73.5 -146.5q-63 -75 -172 -114t-277 -43l-61 172q123 4 213.5 27t126.5 65q33 35 44 88.5t11 128.5v18q-29 -27 -60.5 -49.5t-66 -39.5t-72.5 -26.5t-80 -9.5q-86 0 -161 32.5t-131 102.5t-88.5 179.5t-32.5 263.5q0 138 35 240.5
t93.5 169.5t135 100t159.5 33q41 0 80 -10t73.5 -27t64 -39.5t51.5 -46.5v100h211v-973zM561 172q68 0 129.5 37t114.5 100v453q-18 24 -44.5 49t-59.5 45.5t-70.5 33.5t-77.5 13q-115 0 -174.5 -85.5t-59.5 -256.5q0 -189 59.5 -289t182.5 -100zM756 1219l-195 180
l-195 -180h-165l239 327h246l239 -327h-169z" />
    <glyph glyph-name="Gbreve" unicode="&#x11e;" horiz-adv-x="1389" 
d="M1270 561q0 -138 -40.5 -246.5t-112.5 -183.5t-172 -114.5t-220 -39.5q-139 0 -251 54.5t-191 152.5t-121.5 234t-42.5 299t42.5 298.5t121.5 233.5t191 152.5t251 54.5q175 0 294 -69t193 -199l-188 -117q-28 44 -57.5 76t-64.5 53t-78.5 31t-98.5 10q-94 0 -166 -36.5
t-121 -105t-74.5 -165.5t-25.5 -217q0 -121 25.5 -218t74.5 -165t121 -104.5t166 -36.5q154 0 240 86.5t86 234.5v6h-234v207h453v-166zM1052 1853q-6 -78 -33.5 -139t-74 -103t-110.5 -63.5t-146 -21.5q-78 0 -141 21.5t-109.5 63.5t-74.5 103t-35 139h151
q12 -72 64 -112.5t149 -40.5q91 0 146 39.5t67 113.5h147z" />
    <glyph glyph-name="gbreve" unicode="&#x11f;" horiz-adv-x="1167" 
d="M1012 102q0 -111 -22.5 -195.5t-73.5 -146.5q-63 -75 -172 -114t-277 -43l-61 172q123 4 213.5 27t126.5 65q33 35 44 88.5t11 128.5v18q-29 -27 -60.5 -49.5t-66 -39.5t-72.5 -26.5t-80 -9.5q-86 0 -161 32.5t-131 102.5t-88.5 179.5t-32.5 263.5q0 138 35 240.5
t93.5 169.5t135 100t159.5 33q41 0 80 -10t73.5 -27t64 -39.5t51.5 -46.5v100h211v-973zM561 172q68 0 129.5 37t114.5 100v453q-18 24 -44.5 49t-59.5 45.5t-70.5 33.5t-77.5 13q-115 0 -174.5 -85.5t-59.5 -256.5q0 -189 59.5 -289t182.5 -100zM925 1546
q-6 -78 -33.5 -139t-74 -103t-110.5 -63.5t-146 -21.5q-78 0 -141 21.5t-109.5 63.5t-74.5 103t-35 139h151q12 -72 64 -112.5t149 -40.5q91 0 146 39.5t67 113.5h147z" />
    <glyph glyph-name="Gdotaccent" unicode="&#x120;" horiz-adv-x="1389" 
d="M1270 561q0 -138 -40.5 -246.5t-112.5 -183.5t-172 -114.5t-220 -39.5q-139 0 -251 54.5t-191 152.5t-121.5 234t-42.5 299t42.5 298.5t121.5 233.5t191 152.5t251 54.5q175 0 294 -69t193 -199l-188 -117q-28 44 -57.5 76t-64.5 53t-78.5 31t-98.5 10q-94 0 -166 -36.5
t-121 -105t-74.5 -165.5t-25.5 -217q0 -121 25.5 -218t74.5 -165t121 -104.5t166 -36.5q154 0 240 86.5t86 234.5v6h-234v207h453v-166zM858 1663q0 -28 -11 -53t-30 -43.5t-43.5 -29.5t-52.5 -11q-29 0 -54 11t-44 29.5t-30 43.5t-11 53t11 53.5t30 44.5t44 30t54 11
q28 0 52.5 -11t43.5 -30t30 -44.5t11 -53.5z" />
    <glyph glyph-name="gdotaccent" unicode="&#x121;" horiz-adv-x="1167" 
d="M1012 102q0 -111 -22.5 -195.5t-73.5 -146.5q-63 -75 -172 -114t-277 -43l-61 172q123 4 213.5 27t126.5 65q33 35 44 88.5t11 128.5v18q-29 -27 -60.5 -49.5t-66 -39.5t-72.5 -26.5t-80 -9.5q-86 0 -161 32.5t-131 102.5t-88.5 179.5t-32.5 263.5q0 138 35 240.5
t93.5 169.5t135 100t159.5 33q41 0 80 -10t73.5 -27t64 -39.5t51.5 -46.5v100h211v-973zM561 172q68 0 129.5 37t114.5 100v453q-18 24 -44.5 49t-59.5 45.5t-70.5 33.5t-77.5 13q-115 0 -174.5 -85.5t-59.5 -256.5q0 -189 59.5 -289t182.5 -100zM698 1356q0 -28 -11 -53
t-30 -43.5t-43.5 -29.5t-52.5 -11q-29 0 -54 11t-44 29.5t-30 43.5t-11 53t11 53.5t30 44.5t44 30t54 11q28 0 52.5 -11t43.5 -30t30 -44.5t11 -53.5z" />
    <glyph glyph-name="Gcommaaccent" unicode="&#x122;" horiz-adv-x="1389" 
d="M1270 561q0 -138 -40.5 -246.5t-112.5 -183.5t-172 -114.5t-220 -39.5q-139 0 -251 54.5t-191 152.5t-121.5 234t-42.5 299t42.5 298.5t121.5 233.5t191 152.5t251 54.5q175 0 294 -69t193 -199l-188 -117q-28 44 -57.5 76t-64.5 53t-78.5 31t-98.5 10q-94 0 -166 -36.5
t-121 -105t-74.5 -165.5t-25.5 -217q0 -121 25.5 -218t74.5 -165t121 -104.5t166 -36.5q154 0 240 86.5t86 234.5v6h-234v207h453v-166zM701 -490h-119l17 393h217z" />
    <glyph glyph-name="gcommaaccent" unicode="&#x123;" horiz-adv-x="1167" 
d="M1012 102q0 -111 -22.5 -195.5t-73.5 -146.5q-63 -75 -172 -114t-277 -43l-61 172q123 4 213.5 27t126.5 65q33 35 44 88.5t11 128.5v18q-29 -27 -60.5 -49.5t-66 -39.5t-72.5 -26.5t-80 -9.5q-86 0 -161 32.5t-131 102.5t-88.5 179.5t-32.5 263.5q0 138 35 240.5
t93.5 169.5t135 100t159.5 33q41 0 80 -10t73.5 -27t64 -39.5t51.5 -46.5v100h211v-973zM561 172q68 0 129.5 37t114.5 100v453q-18 24 -44.5 49t-59.5 45.5t-70.5 33.5t-77.5 13q-115 0 -174.5 -85.5t-59.5 -256.5q0 -189 59.5 -289t182.5 -100zM594.051 1619.91h118.978
l-16.9971 -392.928h-216.96z" />
    <glyph glyph-name="Hcircumflex" unicode="&#x124;" horiz-adv-x="1462" 
d="M1061 0v639h-660v-639h-215v1434h215v-580h660v580h215v-1434h-215zM922 1526l-195 180l-195 -180h-165l239 327h246l239 -327h-169z" />
    <glyph glyph-name="hcircumflex" unicode="&#x125;" horiz-adv-x="1167" 
d="M809 0v608q0 149 -53 222t-168 73q-49 0 -90.5 -16t-71 -53t-44.5 -87t-15 -118v-629h-211v1382l211 111v-520q20 29 49 52.5t64 39.5t75 24.5t82 8.5q97 0 168 -31t119.5 -91.5t72 -154t23.5 -205.5v-616h-211zM778 1512l-195 180l-195 -180h-165l239 327h246l239 -327
h-169z" />
    <glyph glyph-name="Hbar" unicode="&#x126;" horiz-adv-x="1462" 
d="M1061 0v639h-660v-639h-215v1044h-102v216h102v174h215v-174h660v174h215v-174h102v-216h-102v-1044h-215zM1061 854v190h-660v-190h660z" />
    <glyph glyph-name="hbar" unicode="&#x127;" horiz-adv-x="1167" 
d="M809 0v608q0 81 -15 137.5t-43.5 91.5t-69.5 50.5t-93 15.5q-107 0 -164 -71.5t-57 -202.5v-629h-211v1153h-183v141h183v88l211 111v-199h180v-141h-180v-180q20 29 49 52.5t64 39.5t75 24.5t82 8.5q189 0 286 -121t97 -361v-616h-211z" />
    <glyph glyph-name="Itilde" unicode="&#x128;" horiz-adv-x="608" 
d="M197 0v1434h215v-1434h-215zM688 1798q0 -68 -16.5 -120.5t-45 -87.5t-68 -53t-85.5 -18q-29 0 -55.5 5t-54.5 16t-60 28t-72 42q-21 12 -42 20t-38 8q-34 0 -52.5 -24.5t-26.5 -87.5h-146q0 68 16.5 120t45 87t68 53t85.5 18q29 0 55.5 -5t54.5 -15.5t60 -27.5t72 -42
q22 -12 42.5 -20.5t37.5 -8.5q34 0 53 25t27 88h145z" />
    <glyph glyph-name="itilde" unicode="&#x129;" horiz-adv-x="543" 
d="M164 0v1075h211v-1075h-211zM655 1491q0 -68 -16.5 -120.5t-45 -87.5t-68 -53t-85.5 -18q-29 0 -55.5 5t-54.5 16t-60 28t-72 42q-21 12 -42 20t-38 8q-34 0 -52.5 -24.5t-26.5 -87.5h-146q0 68 16.5 120t45 87t68 53t85.5 18q29 0 55.5 -5t54.5 -15.5t60 -27.5t72 -42
q22 -12 42.5 -20.5t37.5 -8.5q34 0 53 25t27 88h145z" />
    <glyph glyph-name="Imacron" unicode="&#x12a;" horiz-adv-x="608" 
d="M197 0v1434h215v-1434h-215zM18 1556v185h574v-185h-574z" />
    <glyph glyph-name="imacron" unicode="&#x12b;" horiz-adv-x="543" 
d="M164 0v1075h211v-1075h-211zM-15 1249v185h574v-185h-574z" />
    <glyph glyph-name="Ibreve" unicode="&#x12c;" horiz-adv-x="608" 
d="M197 0v1434h215v-1434h-215zM669 1853q-6 -78 -33.5 -139t-74 -103t-110.5 -63.5t-146 -21.5q-78 0 -141 21.5t-109.5 63.5t-74.5 103t-35 139h151q12 -72 64 -112.5t149 -40.5q91 0 146 39.5t67 113.5h147z" />
    <glyph glyph-name="ibreve" unicode="&#x12d;" horiz-adv-x="543" 
d="M164 0v1075h211v-1075h-211zM636 1546q-6 -78 -33.5 -139t-74 -103t-110.5 -63.5t-146 -21.5q-78 0 -141 21.5t-109.5 63.5t-74.5 103t-35 139h151q12 -72 64 -112.5t149 -40.5q91 0 146 39.5t67 113.5h147z" />
    <glyph glyph-name="Iogonek" unicode="&#x12e;" horiz-adv-x="608" 
d="M197 0v1434h215v-1434h-215zM407 0q-50 -26 -91.5 -54t-67.5 -54.5t-36 -50t-10 -40.5q0 -28 15.5 -45.5t47.5 -17.5q21 0 40.5 7.5t33.5 21.5l67 -105q-42 -35 -91 -53.5t-105 -18.5q-51 0 -88.5 14t-62 36.5t-36.5 51.5t-12 60q0 39 14 74.5t39 67t59.5 58.5t76.5 48
h207z" />
    <glyph glyph-name="iogonek" unicode="&#x12f;" horiz-adv-x="543" 
d="M408 1350q0 -28 -11 -52.5t-29.5 -43t-43 -29.5t-52.5 -11t-53 11t-43.5 29.5t-29.5 43t-11 52.5t11 53t29.5 43.5t43.5 29.5t53 11t52.5 -11t43 -29.5t29.5 -43.5t11 -53zM166 0v1075h211v-1075h-211zM375 0q-50 -26 -91.5 -54t-67.5 -54.5t-36 -50t-10 -40.5
q0 -28 15.5 -45.5t47.5 -17.5q21 0 40.5 7.5t33.5 21.5l67 -105q-42 -35 -91 -53.5t-105 -18.5q-51 0 -88.5 14t-62 36.5t-36.5 51.5t-12 60q0 39 14 74.5t39 67t59.5 58.5t76.5 48h207z" />
    <glyph glyph-name="Idotaccent" unicode="&#x130;" horiz-adv-x="608" 
d="M197 0v1434h215v-1434h-215zM444 1663q0 -28 -11 -53t-30 -43.5t-43.5 -29.5t-52.5 -11q-29 0 -54 11t-44 29.5t-30 43.5t-11 53t11 53.5t30 44.5t44 30t54 11q28 0 52.5 -11t43.5 -30t30 -44.5t11 -53.5z" />
    <glyph glyph-name="dotlessi" unicode="&#x131;" horiz-adv-x="543" 
d="M164 0v1075h211v-1075h-211z" />
    <glyph glyph-name="IJ" unicode="&#x132;" horiz-adv-x="1843" 
d="M197 0v1434h215v-1434h-215zM1667 565q0 -289 -125.5 -438.5t-384.5 -149.5q-101 0 -181.5 26t-142 75t-105.5 119.5t-71 160.5l209 62q20 -53 45 -93t58.5 -70t81.5 -47t112 -17q78 0 132.5 22.5t89.5 69.5t51 121t16 176v852h215v-869z" />
    <glyph glyph-name="ij" unicode="&#x133;" horiz-adv-x="1085" 
d="M408 1350q0 -28 -11 -52.5t-29.5 -43t-43 -29.5t-52.5 -11t-53 11t-43.5 29.5t-29.5 43t-11 52.5t11 53t29.5 43.5t43.5 29.5t53 11t52.5 -11t43 -29.5t29.5 -43.5t11 -53zM166 0v1075h211v-1075h-211zM951 1350q0 -28 -11 -52.5t-29.5 -43t-43 -29.5t-52.5 -11t-53 11
t-43.5 29.5t-29.5 43t-11 52.5t11 53t29.5 43.5t43.5 29.5t53 11t52.5 -11t43 -29.5t29.5 -43.5t11 -53zM920 49q0 -101 -15.5 -174.5t-56 -126t-111.5 -86.5t-182 -57l-71 159q73 21 117.5 41.5t68.5 51t31.5 75t7.5 113.5v1030h211v-1026z" />
    <glyph glyph-name="Jcircumflex" unicode="&#x134;" horiz-adv-x="1235" 
d="M1059 565q0 -289 -125.5 -438.5t-384.5 -149.5q-101 0 -181.5 26t-142 75t-105.5 119.5t-71 160.5l209 62q20 -53 45 -93t58.5 -70t81.5 -47t112 -17q78 0 132.5 22.5t89.5 69.5t51 121t16 176v852h215v-869zM1143 1512l-195 180l-195 -180h-165l239 327h246l239 -327
h-169z" />
    <glyph glyph-name="jcircumflex" unicode="&#x135;" horiz-adv-x="543" 
d="M377 49q0 -101 -15.5 -174.5t-56 -126t-111.5 -86.5t-182 -57l-71 159q73 21 117.5 41.5t68.5 51t31.5 75t7.5 113.5v1030h211v-1026zM467 1219l-195 180l-194 -180h-166l240 327h245l240 -327h-170z" />
    <glyph glyph-name="Kcommaaccent" unicode="&#x136;" horiz-adv-x="1403" 
d="M1317 0h-244l-411 735l-267 -321v-414h-209v1434h209v-732l586 732h244l-420 -521zM705 -490h-119l17 393h217z" />
    <glyph glyph-name="kcommaaccent" unicode="&#x137;" horiz-adv-x="1083" 
d="M768 0l-238 535l-163 -218v-317h-211v1382l211 111v-894l340 476h239l-272 -360l323 -715h-229zM552 -490h-119l17 393h217z" />
    <glyph glyph-name="kgreenlandic" unicode="&#x138;" horiz-adv-x="1083" 
d="M768 0l-238 535l-163 -218v-317h-211v1075h211v-476l340 476h239l-272 -360l323 -715h-229z" />
    <glyph glyph-name="Lacute" unicode="&#x139;" horiz-adv-x="1219" 
d="M186 0v1434h215v-1223h715v-211h-930zM368 1526h-168l219 327h287z" />
    <glyph glyph-name="lacute" unicode="&#x13a;" horiz-adv-x="543" 
d="M166 0v1382l211 111v-1493h-211zM344 1567h-168l219 327h287z" />
    <glyph glyph-name="Lcommaaccent" unicode="&#x13b;" horiz-adv-x="1219" 
d="M186 0v1434h215v-1223h715v-211h-930zM613 -490h-119l17 393h217z" />
    <glyph glyph-name="lcommaaccent" unicode="&#x13c;" horiz-adv-x="543" 
d="M166 0v1382l211 111v-1493h-211zM267 -490h-119l17 393h217z" />
    <glyph glyph-name="Lcaron" unicode="&#x13d;" horiz-adv-x="1219" 
d="M186 0v1434h215v-1223h715v-211h-930zM745 1125h-141l29 514h268z" />
    <glyph glyph-name="lcaron" unicode="&#x13e;" horiz-adv-x="662" 
d="M166 0v1382l211 111v-1493h-211zM626 920h-141l29 514h268z" />
    <glyph glyph-name="Ldot" unicode="&#x13f;" horiz-adv-x="1219" 
d="M186 0v1434h215v-1223h715v-211h-930zM965 752q0 -33 -13 -62.5t-35 -51.5t-51.5 -35t-62.5 -13t-62.5 13t-51.5 35t-35 51.5t-13 62.5t13 62.5t35 52t51.5 35.5t62.5 13t62.5 -13t51.5 -35.5t35 -52t13 -62.5z" />
    <glyph glyph-name="ldot" unicode="&#x140;" horiz-adv-x="981" 
d="M166 0v1382l211 111v-1493h-211zM883 752q0 -33 -13 -62.5t-35 -51.5t-51.5 -35t-62.5 -13t-62.5 13t-51.5 35t-35 51.5t-13 62.5t13 62.5t35 52t51.5 35.5t62.5 13t62.5 -13t51.5 -35.5t35 -52t13 -62.5z" />
    <glyph glyph-name="Lslash" unicode="&#x141;" horiz-adv-x="1249" 
d="M217 0v479l-135 -106v235l135 107v719h211v-572l287 236v-236l-287 -235v-416h719v-211h-930z" />
    <glyph glyph-name="lslash" unicode="&#x142;" horiz-adv-x="584" 
d="M395 639v-639h-207v487l-106 -79v235l106 82v659l207 109v-616l107 90v-236z" />
    <glyph glyph-name="Nacute" unicode="&#x143;" horiz-adv-x="1462" 
d="M1276 0h-205l-676 1062v-1062h-209v1434h220l661 -1062v1062h209v-1434zM782 1526h-168l219 327h287z" />
    <glyph glyph-name="nacute" unicode="&#x144;" horiz-adv-x="1167" 
d="M809 0v608q0 146 -52 220.5t-169 74.5q-51 0 -94 -18t-72 -56t-42 -89.5t-13 -110.5v-629h-211v1075h211v-102q20 29 49 52.5t64 39.5t75 24.5t82 8.5q97 0 168.5 -31.5t119 -90.5t71.5 -149t24 -211v-616h-211zM618 1219h-168l219 327h287z" />
    <glyph glyph-name="Ncommaaccent" unicode="&#x145;" horiz-adv-x="1462" 
d="M1276 0h-205l-676 1062v-1062h-209v1434h220l661 -1062v1062h209v-1434zM733 -490h-119l17 393h217z" />
    <glyph glyph-name="ncommaaccent" unicode="&#x146;" horiz-adv-x="1167" 
d="M809 0v608q0 146 -52 220.5t-169 74.5q-51 0 -94 -18t-72 -56t-42 -89.5t-13 -110.5v-629h-211v1075h211v-102q20 29 49 52.5t64 39.5t75 24.5t82 8.5q97 0 168.5 -31.5t119 -90.5t71.5 -149t24 -211v-616h-211zM588 -490h-119l17 393h217z" />
    <glyph glyph-name="Ncaron" unicode="&#x147;" horiz-adv-x="1462" 
d="M1276 0h-205l-676 1062v-1062h-209v1434h220l661 -1062v1062h209v-1434zM854 1526h-246l-239 327h169l195 -180l195 180h165z" />
    <glyph glyph-name="ncaron" unicode="&#x148;" horiz-adv-x="1167" 
d="M809 0v608q0 146 -52 220.5t-169 74.5q-51 0 -94 -18t-72 -56t-42 -89.5t-13 -110.5v-629h-211v1075h211v-102q20 29 49 52.5t64 39.5t75 24.5t82 8.5q97 0 168.5 -31.5t119 -90.5t71.5 -149t24 -211v-616h-211zM707 1219h-246l-239 327h169l195 -180l195 180h165z" />
    <glyph glyph-name="napostrophe" unicode="&#x149;" horiz-adv-x="1628" 
d="M1270 0v608q0 146 -52 220.5t-169 74.5q-51 0 -94 -18t-72 -56t-42 -89.5t-13 -110.5v-629h-211v1075h211v-102q20 29 49 52.5t64 39.5t75 24.5t82 8.5q97 0 168.5 -31.5t119 -90.5t71.5 -149t24 -211v-616h-211zM274 920h-141l29 514h268z" />
    <glyph glyph-name="Eng" unicode="&#x14a;" horiz-adv-x="1462" 
d="M1276 49q0 -101 -15.5 -174.5t-56 -126t-111.5 -86.5t-182 -57l-71 159q68 19 111 38.5t68 46.5t34.5 65.5t11.5 95.5l-670 1062v-1072h-209v1434h220l661 -1075v1075h209v-1385z" />
    <glyph glyph-name="eng" unicode="&#x14b;" horiz-adv-x="1167" 
d="M367 0h-211v1075h211v-102q44 61 115.5 93t154.5 32q100 0 170 -32t120 -96t71.5 -156t21.5 -198v-616q-5 -89 -23 -153.5t-59 -111t-109.5 -78t-173.5 -52.5l-71 159q73 21 117.5 41.5t68.5 51t31.5 75t7.5 113.5v563q0 81 -15 137.5t-43.5 91.5t-69.5 50.5t-93 15.5
q-46 0 -88 -16t-72.5 -53t-45.5 -86.5t-15 -118.5v-629z" />
    <glyph glyph-name="Omacron" unicode="&#x14c;" horiz-adv-x="1456" 
d="M1339 719q0 -168 -44.5 -304.5t-125.5 -234t-194 -150.5t-250 -53q-136 0 -248 52.5t-192 149t-124 232.5t-44 304q0 167 44.5 304t125.5 234t193.5 150t248.5 53q137 0 249.5 -52.5t192.5 -149t124 -232.5t44 -303zM1120 715q0 122 -30 219.5t-83 166t-125.5 105.5
t-158.5 37q-85 0 -156 -36t-122.5 -104t-80 -165t-28.5 -219t29.5 -220t82 -166.5t125 -105.5t158.5 -37q85 0 156.5 36t123 104t80.5 165.5t29 219.5zM440 1556v185h574v-185h-574z" />
    <glyph glyph-name="omacron" unicode="&#x14d;" horiz-adv-x="1167" 
d="M1063 543q0 -134 -37 -239t-102 -178t-154 -111t-192 -38q-102 0 -188.5 40t-150 113.5t-99.5 177t-36 229.5q0 132 37 236t101.5 176.5t152 110.5t189.5 38q103 0 190.5 -39.5t151.5 -112t100.5 -175t36.5 -228.5zM850 537q0 82 -19 148.5t-54.5 113.5t-86.5 72.5
t-115 25.5q-60 0 -107.5 -25.5t-81 -72t-51.5 -111.5t-18 -145q0 -89 19.5 -157t55 -114t85 -70t109.5 -24t108.5 28.5t83 77t53.5 114t19 139.5zM297 1249v185h574v-185h-574z" />
    <glyph glyph-name="Obreve" unicode="&#x14e;" horiz-adv-x="1456" 
d="M1339 719q0 -168 -44.5 -304.5t-125.5 -234t-194 -150.5t-250 -53q-136 0 -248 52.5t-192 149t-124 232.5t-44 304q0 167 44.5 304t125.5 234t193.5 150t248.5 53q137 0 249.5 -52.5t192.5 -149t124 -232.5t44 -303zM1120 715q0 122 -30 219.5t-83 166t-125.5 105.5
t-158.5 37q-85 0 -156 -36t-122.5 -104t-80 -165t-28.5 -219t29.5 -220t82 -166.5t125 -105.5t158.5 -37q85 0 156.5 36t123 104t80.5 165.5t29 219.5zM1089 1853q-6 -78 -33.5 -139t-74 -103t-110.5 -63.5t-146 -21.5q-78 0 -141 21.5t-109.5 63.5t-74.5 103t-35 139h151
q12 -72 64 -112.5t149 -40.5q91 0 146 39.5t67 113.5h147z" />
    <glyph glyph-name="obreve" unicode="&#x14f;" horiz-adv-x="1167" 
d="M1063 543q0 -134 -37 -239t-102 -178t-154 -111t-192 -38q-102 0 -188.5 40t-150 113.5t-99.5 177t-36 229.5q0 132 37 236t101.5 176.5t152 110.5t189.5 38q103 0 190.5 -39.5t151.5 -112t100.5 -175t36.5 -228.5zM850 537q0 82 -19 148.5t-54.5 113.5t-86.5 72.5
t-115 25.5q-60 0 -107.5 -25.5t-81 -72t-51.5 -111.5t-18 -145q0 -89 19.5 -157t55 -114t85 -70t109.5 -24t108.5 28.5t83 77t53.5 114t19 139.5zM946 1546q-6 -78 -33.5 -139t-74 -103t-110.5 -63.5t-146 -21.5q-78 0 -141 21.5t-109.5 63.5t-74.5 103t-35 139h151
q12 -72 64 -112.5t149 -40.5q91 0 146 39.5t67 113.5h147z" />
    <glyph glyph-name="Ohungarumlaut" unicode="&#x150;" horiz-adv-x="1456" 
d="M1339 719q0 -168 -44.5 -304.5t-125.5 -234t-194 -150.5t-250 -53q-136 0 -248 52.5t-192 149t-124 232.5t-44 304q0 167 44.5 304t125.5 234t193.5 150t248.5 53q137 0 249.5 -52.5t192.5 -149t124 -232.5t44 -303zM1120 715q0 122 -30 219.5t-83 166t-125.5 105.5
t-158.5 37q-85 0 -156 -36t-122.5 -104t-80 -165t-28.5 -219t29.5 -220t82 -166.5t125 -105.5t158.5 -37q85 0 156.5 36t123 104t80.5 165.5t29 219.5zM987 1526h-168l219 327h287zM567 1526h-168l220 327h286z" />
    <glyph glyph-name="ohungarumlaut" unicode="&#x151;" horiz-adv-x="1167" 
d="M1063 543q0 -134 -37 -239t-102 -178t-154 -111t-192 -38q-102 0 -188.5 40t-150 113.5t-99.5 177t-36 229.5q0 132 37 236t101.5 176.5t152 110.5t189.5 38q103 0 190.5 -39.5t151.5 -112t100.5 -175t36.5 -228.5zM850 537q0 82 -19 148.5t-54.5 113.5t-86.5 72.5
t-115 25.5q-60 0 -107.5 -25.5t-81 -72t-51.5 -111.5t-18 -145q0 -89 19.5 -157t55 -114t85 -70t109.5 -24t108.5 28.5t83 77t53.5 114t19 139.5zM858 1219h-168l219 327h287zM438 1219h-168l220 327h286z" />
    <glyph glyph-name="OE" unicode="&#x152;" horiz-adv-x="2169" 
d="M1311 662v-453h739v-209h-930v170q-33 -48 -78 -84.5t-96.5 -60.5t-108 -36t-112.5 -12q-139 0 -251 54.5t-191 152.5t-121.5 234t-42.5 299t42.5 298.5t121.5 233.5t191 152.5t251 54.5q61 0 120.5 -13.5t111 -39t94 -61t69.5 -78.5v170h899v-209h-708v-355h573v-208
h-573zM1114 717q0 120 -25.5 217t-74.5 165.5t-122 105t-167 36.5t-166 -36.5t-121 -105t-74.5 -165.5t-25.5 -217q0 -121 25.5 -218t74.5 -165t121 -104.5t166 -36.5t167 36.5t122 104.5t74.5 165t25.5 218z" />
    <glyph glyph-name="oe" unicode="&#x153;" horiz-adv-x="1876" 
d="M1761 553q0 -29 -2 -52t-4 -40h-706q8 -76 32.5 -130.5t60.5 -89t80.5 -51t92.5 -16.5q69 0 124.5 22t106.5 64l129 -143q-71 -69 -159.5 -104.5t-212.5 -35.5q-53 0 -104.5 14t-98.5 40.5t-86 64.5t-66 86q-30 -48 -70.5 -86t-88 -64.5t-101 -40.5t-110.5 -14
q-102 0 -188.5 40t-150 113.5t-99.5 177t-36 229.5q0 132 37 236t101.5 176.5t152 110.5t189.5 38q56 0 109.5 -14.5t100.5 -41t86 -64t66 -83.5q59 97 153.5 150t209.5 53q114 0 199 -44t141.5 -119t84 -174t27.5 -208zM1542 641q-3 54 -19 101.5t-46 83t-75.5 56.5
t-107.5 21q-105 0 -165.5 -67t-77.5 -195h491zM850 537q0 82 -19 148.5t-54.5 113.5t-86.5 72.5t-115 25.5q-60 0 -107.5 -25.5t-81 -72t-51.5 -111.5t-18 -145q0 -89 19.5 -157t55 -114t85 -70t109.5 -24t108.5 28.5t83 77t53.5 114t19 139.5z" />
    <glyph glyph-name="Racute" unicode="&#x154;" horiz-adv-x="1421" 
d="M1006 0l-285 567h-324v-567h-211v1434h629q94 0 177.5 -25.5t146.5 -78t100 -133.5t37 -191q0 -86 -22 -155.5t-63 -122t-99 -88.5t-131 -54l292 -586h-247zM1059 999q0 56 -17.5 99.5t-49.5 73t-77 44.5t-100 15h-418v-461h418q54 0 98.5 14t77 42.5t50.5 71.5t18 101z
M680 1526h-168l219 327h287z" />
    <glyph glyph-name="racute" unicode="&#x155;" horiz-adv-x="856" 
d="M739 852q-34 19 -71.5 29t-89.5 10q-101 0 -156 -69.5t-55 -207.5v-614h-211v1075h211v-102q18 27 44 49.5t57.5 39.5t67.5 26.5t76 9.5q65 0 108 -12t75 -33zM536 1219h-168l219 327h287z" />
    <glyph glyph-name="Rcommaaccent" unicode="&#x156;" horiz-adv-x="1421" 
d="M1006 0l-285 567h-324v-567h-211v1434h629q94 0 177.5 -25.5t146.5 -78t100 -133.5t37 -191q0 -86 -22 -155.5t-63 -122t-99 -88.5t-131 -54l292 -586h-247zM1059 999q0 56 -17.5 99.5t-49.5 73t-77 44.5t-100 15h-418v-461h418q54 0 98.5 14t77 42.5t50.5 71.5t18 101z
M692 -490h-119l17 393h217z" />
    <glyph glyph-name="rcommaaccent" unicode="&#x157;" horiz-adv-x="856" 
d="M739 852q-34 19 -71.5 29t-89.5 10q-101 0 -156 -69.5t-55 -207.5v-614h-211v1075h211v-102q18 27 44 49.5t57.5 39.5t67.5 26.5t76 9.5q65 0 108 -12t75 -33zM255 -490h-119l17 393h217z" />
    <glyph glyph-name="Rcaron" unicode="&#x158;" horiz-adv-x="1421" 
d="M1006 0l-285 567h-324v-567h-211v1434h629q94 0 177.5 -25.5t146.5 -78t100 -133.5t37 -191q0 -86 -22 -155.5t-63 -122t-99 -88.5t-131 -54l292 -586h-247zM1059 999q0 56 -17.5 99.5t-49.5 73t-77 44.5t-100 15h-418v-461h418q54 0 98.5 14t77 42.5t50.5 71.5t18 101z
M834 1526h-246l-239 327h169l195 -180l195 180h165z" />
    <glyph glyph-name="rcaron" unicode="&#x159;" horiz-adv-x="856" 
d="M739 852q-34 19 -71.5 29t-89.5 10q-101 0 -156 -69.5t-55 -207.5v-614h-211v1075h211v-102q18 27 44 49.5t57.5 39.5t67.5 26.5t76 9.5q65 0 108 -12t75 -33zM553 1219h-246l-239 327h169l195 -180l195 180h165z" />
    <glyph glyph-name="Sacute" unicode="&#x15a;" horiz-adv-x="1282" 
d="M1147 412q0 -97 -31.5 -177t-96.5 -137.5t-165 -89t-238 -31.5q-78 0 -150.5 16.5t-137 46.5t-121 73t-101.5 96l154 149q36 -39 80 -70.5t92 -53.5t99 -34t102 -12q152 0 224.5 52t72.5 157q0 42 -17 74t-55 59.5t-100 52.5t-152 52q-114 34 -198 68t-139.5 80.5
t-83 112t-27.5 161.5q0 93 37 167t100.5 125.5t150 79t185.5 27.5q82 -1 144.5 -14t121 -40t105.5 -59.5t98 -80.5l-152 -154q-41 41 -74 63t-68.5 38t-83 26t-108.5 10q-63 0 -108 -14.5t-74.5 -38.5t-43 -56.5t-13.5 -68.5q0 -38 14 -67t49.5 -54.5t96 -49.5t153.5 -52
q106 -32 191 -67.5t144.5 -84.5t91.5 -116.5t32 -163.5zM692 1526h-168l219 327h287z" />
    <glyph glyph-name="sacute" unicode="&#x15b;" horiz-adv-x="1022" 
d="M864 979l-92 -162q-66 47 -133.5 69.5t-144.5 22.5q-78 0 -113 -27.5t-35 -70.5q0 -20 8.5 -38t30.5 -36t60.5 -38t99.5 -44q90 -35 157.5 -67t113 -71.5t68.5 -92.5t23 -129q0 -89 -33.5 -150t-89 -98.5t-128.5 -53.5t-152 -16q-102 0 -214.5 37.5t-197.5 100.5l96 159
q76 -52 157 -79t157 -27q100 0 148 31t48 88q0 31 -17 54.5t-49.5 44t-78.5 40t-104 41.5q-87 34 -147.5 67t-98 72t-54 87t-16.5 112q0 72 27 127t76 91.5t116 55.5t148 19q102 0 197 -33t167 -86zM561 1219h-168l219 327h287z" />
    <glyph glyph-name="Scircumflex" unicode="&#x15c;" horiz-adv-x="1282" 
d="M1147 412q0 -97 -31.5 -177t-96.5 -137.5t-165 -89t-238 -31.5q-78 0 -150.5 16.5t-137 46.5t-121 73t-101.5 96l154 149q36 -39 80 -70.5t92 -53.5t99 -34t102 -12q152 0 224.5 52t72.5 157q0 42 -17 74t-55 59.5t-100 52.5t-152 52q-114 34 -198 68t-139.5 80.5
t-83 112t-27.5 161.5q0 93 37 167t100.5 125.5t150 79t185.5 27.5q82 -1 144.5 -14t121 -40t105.5 -59.5t98 -80.5l-152 -154q-41 41 -74 63t-68.5 38t-83 26t-108.5 10q-63 0 -108 -14.5t-74.5 -38.5t-43 -56.5t-13.5 -68.5q0 -38 14 -67t49.5 -54.5t96 -49.5t153.5 -52
q106 -32 191 -67.5t144.5 -84.5t91.5 -116.5t32 -163.5zM826 1516l-195 180l-195 -180h-165l239 327h246l239 -327h-169z" />
    <glyph glyph-name="scircumflex" unicode="&#x15d;" horiz-adv-x="1022" 
d="M864 979l-92 -162q-66 47 -133.5 69.5t-144.5 22.5q-78 0 -113 -27.5t-35 -70.5q0 -20 8.5 -38t30.5 -36t60.5 -38t99.5 -44q90 -35 157.5 -67t113 -71.5t68.5 -92.5t23 -129q0 -89 -33.5 -150t-89 -98.5t-128.5 -53.5t-152 -16q-102 0 -214.5 37.5t-197.5 100.5l96 159
q76 -52 157 -79t157 -27q100 0 148 31t48 88q0 31 -17 54.5t-49.5 44t-78.5 40t-104 41.5q-87 34 -147.5 67t-98 72t-54 87t-16.5 112q0 72 27 127t76 91.5t116 55.5t148 19q102 0 197 -33t167 -86zM693 1219l-195 180l-195 -180h-165l239 327h246l239 -327h-169z" />
    <glyph glyph-name="Scedilla" unicode="&#x15e;" horiz-adv-x="1282" 
d="M1147 412q0 -97 -31.5 -177t-96.5 -137.5t-165 -89t-238 -31.5q-78 0 -150.5 16.5t-137 46.5t-121 73t-101.5 96l154 149q36 -39 80 -70.5t92 -53.5t99 -34t102 -12q152 0 224.5 52t72.5 157q0 42 -17 74t-55 59.5t-100 52.5t-152 52q-114 34 -198 68t-139.5 80.5
t-83 112t-27.5 161.5q0 93 37 167t100.5 125.5t150 79t185.5 27.5q82 -1 144.5 -14t121 -40t105.5 -59.5t98 -80.5l-152 -154q-41 41 -74 63t-68.5 38t-83 26t-108.5 10q-63 0 -108 -14.5t-74.5 -38.5t-43 -56.5t-13.5 -68.5q0 -38 14 -67t49.5 -54.5t96 -49.5t153.5 -52
q106 -32 191 -67.5t144.5 -84.5t91.5 -116.5t32 -163.5zM576 25h105l-22 -117q20 8 42.5 13t56.5 5q26 0 52.5 -8t47.5 -25.5t34.5 -44.5t13.5 -65q0 -48 -20 -82t-54 -55.5t-79.5 -31t-96.5 -9.5q-74 0 -135 19t-117 54l45 68q89 -49 180 -49q68 0 99.5 22.5t31.5 57.5
q0 31 -18 48t-47 17q-50 0 -82 -30l-74 28z" />
    <glyph glyph-name="scedilla" unicode="&#x15f;" horiz-adv-x="1022" 
d="M864 979l-92 -162q-66 47 -133.5 69.5t-144.5 22.5q-78 0 -113 -27.5t-35 -70.5q0 -20 8.5 -38t30.5 -36t60.5 -38t99.5 -44q90 -35 157.5 -67t113 -71.5t68.5 -92.5t23 -129q0 -89 -33.5 -150t-89 -98.5t-128.5 -53.5t-152 -16q-102 0 -214.5 37.5t-197.5 100.5l96 159
q76 -52 157 -79t157 -27q100 0 148 31t48 88q0 31 -17 54.5t-49.5 44t-78.5 40t-104 41.5q-87 34 -147.5 67t-98 72t-54 87t-16.5 112q0 72 27 127t76 91.5t116 55.5t148 19q102 0 197 -33t167 -86zM455 25h105l-22 -117q20 8 42.5 13t56.5 5q26 0 52.5 -8t47.5 -25.5
t34.5 -44.5t13.5 -65q0 -48 -20 -82t-54 -55.5t-79.5 -31t-96.5 -9.5q-74 0 -135 19t-117 54l45 68q89 -49 180 -49q68 0 99.5 22.5t31.5 57.5q0 31 -18 48t-47 17q-50 0 -82 -30l-74 28z" />
    <glyph glyph-name="Scaron" unicode="&#x160;" horiz-adv-x="1282" 
d="M1147 412q0 -97 -31.5 -177t-96.5 -137.5t-165 -89t-238 -31.5q-78 0 -150.5 16.5t-137 46.5t-121 73t-101.5 96l154 149q36 -39 80 -70.5t92 -53.5t99 -34t102 -12q152 0 224.5 52t72.5 157q0 42 -17 74t-55 59.5t-100 52.5t-152 52q-114 34 -198 68t-139.5 80.5
t-83 112t-27.5 161.5q0 93 37 167t100.5 125.5t150 79t185.5 27.5q82 -1 144.5 -14t121 -40t105.5 -59.5t98 -80.5l-152 -154q-41 41 -74 63t-68.5 38t-83 26t-108.5 10q-63 0 -108 -14.5t-74.5 -38.5t-43 -56.5t-13.5 -68.5q0 -38 14 -67t49.5 -54.5t96 -49.5t153.5 -52
q106 -32 191 -67.5t144.5 -84.5t91.5 -116.5t32 -163.5zM746 1541h-246l-239 327h169l195 -180l195 180h165z" />
    <glyph glyph-name="scaron" unicode="&#x161;" horiz-adv-x="1022" 
d="M864 979l-92 -162q-66 47 -133.5 69.5t-144.5 22.5q-78 0 -113 -27.5t-35 -70.5q0 -20 8.5 -38t30.5 -36t60.5 -38t99.5 -44q90 -35 157.5 -67t113 -71.5t68.5 -92.5t23 -129q0 -89 -33.5 -150t-89 -98.5t-128.5 -53.5t-152 -16q-102 0 -214.5 37.5t-197.5 100.5l96 159
q76 -52 157 -79t157 -27q100 0 148 31t48 88q0 31 -17 54.5t-49.5 44t-78.5 40t-104 41.5q-87 34 -147.5 67t-98 72t-54 87t-16.5 112q0 72 27 127t76 91.5t116 55.5t148 19q102 0 197 -33t167 -86zM619 1219h-246l-239 327h169l195 -180l195 180h165z" />
    <glyph glyph-name="Tcedilla" unicode="&#x162;" horiz-adv-x="1243" 
d="M729 1223v-1223h-215v1223h-418v211h1051v-211h-418zM569 25h105l-22 -117q20 8 42.5 13t56.5 5q26 0 52.5 -8t47.5 -25.5t34.5 -44.5t13.5 -65q0 -48 -20 -82t-54 -55.5t-79.5 -31t-96.5 -9.5q-74 0 -135 19t-117 54l45 68q89 -49 180 -49q68 0 99.5 22.5t31.5 57.5
q0 31 -18 48t-47 17q-50 0 -82 -30l-74 28z" />
    <glyph glyph-name="tcedilla" unicode="&#x163;" horiz-adv-x="825" 
d="M670 27q-39 -22 -91.5 -36t-115.5 -14q-55 0 -96.5 15.5t-75.5 49t-52 88t-18 132.5v621h-153v192h153v307l207 111v-418h266v-192h-266v-584q0 -38 6.5 -62.5t20 -39.5t34.5 -21t50 -6q41 0 83.5 13t71.5 30zM389 25h105l-22 -117q20 8 42.5 13t56.5 5q26 0 52.5 -8
t47.5 -25.5t34.5 -44.5t13.5 -65q0 -48 -20 -82t-54 -55.5t-79.5 -31t-96.5 -9.5q-74 0 -135 19t-117 54l45 68q89 -49 180 -49q68 0 99.5 22.5t31.5 57.5q0 31 -18 48t-47 17q-50 0 -82 -30l-74 28z" />
    <glyph glyph-name="Tcaron" unicode="&#x164;" horiz-adv-x="1243" 
d="M729 1223v-1223h-215v1223h-418v211h1051v-211h-418zM744 1526h-246l-239 327h169l195 -180l195 180h165z" />
    <glyph glyph-name="tcaron" unicode="&#x165;" horiz-adv-x="809" 
d="M694 1188h-114l22 416h217zM670 27q-39 -22 -91.5 -36t-115.5 -14q-55 0 -96.5 15.5t-75.5 49t-52 88t-18 132.5v621h-153v192h153v307l207 111v-418h266v-192h-266v-584q0 -38 6.5 -62.5t20 -39.5t34.5 -21t50 -6q41 0 83.5 13t71.5 30z" />
    <glyph glyph-name="Tbar" unicode="&#x166;" horiz-adv-x="1243" 
d="M729 598v-598h-215v598h-324v211h324v414h-418v211h1051v-211h-418v-414h322v-211h-322z" />
    <glyph glyph-name="tbar" unicode="&#x167;" horiz-adv-x="825" 
d="M670 27q-39 -22 -91.5 -36t-115.5 -14q-51 0 -94 14.5t-78 50.5t-52.5 91t-17.5 129v248h-153v192h153v181h-153v192h153v307l207 111v-418h266v-192h-266v-181h266v-192h-266v-211q0 -38 6.5 -62.5t20 -39.5t34.5 -21t50 -6q41 0 83.5 13t71.5 30z" />
    <glyph glyph-name="Utilde" unicode="&#x168;" horiz-adv-x="1442" 
d="M1266 598q0 -150 -36 -266t-106 -195t-173 -119.5t-236 -40.5t-234 42t-168.5 122.5t-102 196.5t-34.5 264v832h215v-826q0 -204 83 -309.5t245 -105.5q169 0 250.5 102t81.5 299v840h215v-836zM1102 1802q0 -68 -16.5 -120.5t-45 -87.5t-68 -53t-85.5 -18q-29 0 -55.5 5
t-54.5 16t-60 28t-72 42q-21 12 -42 20t-38 8q-34 0 -52.5 -24.5t-26.5 -87.5h-146q0 68 16.5 120t45 87t68 53t85.5 18q29 0 55.5 -5t54.5 -15.5t60 -27.5t72 -42q22 -12 42.5 -20.5t37.5 -8.5q34 0 53 25t27 88h145z" />
    <glyph glyph-name="utilde" unicode="&#x169;" horiz-adv-x="1167" 
d="M801 0v102q-40 -55 -112 -90t-159 -35q-188 0 -285.5 121t-97.5 361v616h211v-608q0 -148 52.5 -221.5t169.5 -73.5q106 0 163.5 71.5t57.5 202.5v629h211v-1075h-211zM965 1491q0 -68 -16.5 -120.5t-45 -87.5t-68 -53t-85.5 -18q-29 0 -55.5 5t-54.5 16t-60 28t-72 42
q-21 12 -42 20t-38 8q-34 0 -52.5 -24.5t-26.5 -87.5h-146q0 68 16.5 120t45 87t68 53t85.5 18q29 0 55.5 -5t54.5 -15.5t60 -27.5t72 -42q22 -12 42.5 -20.5t37.5 -8.5q34 0 53 25t27 88h145z" />
    <glyph glyph-name="Umacron" unicode="&#x16a;" horiz-adv-x="1442" 
d="M1266 598q0 -150 -36 -266t-106 -195t-173 -119.5t-236 -40.5t-234 42t-168.5 122.5t-102 196.5t-34.5 264v832h215v-826q0 -204 83 -309.5t245 -105.5q169 0 250.5 102t81.5 299v840h215v-836zM434 1556v185h574v-185h-574z" />
    <glyph glyph-name="umacron" unicode="&#x16b;" horiz-adv-x="1167" 
d="M801 0v102q-40 -55 -112 -90t-159 -35q-188 0 -285.5 121t-97.5 361v616h211v-608q0 -148 52.5 -221.5t169.5 -73.5q106 0 163.5 71.5t57.5 202.5v629h211v-1075h-211zM297 1249v185h574v-185h-574z" />
    <glyph glyph-name="Ubreve" unicode="&#x16c;" horiz-adv-x="1442" 
d="M1266 598q0 -150 -36 -266t-106 -195t-173 -119.5t-236 -40.5t-234 42t-168.5 122.5t-102 196.5t-34.5 264v832h215v-826q0 -204 83 -309.5t245 -105.5q169 0 250.5 102t81.5 299v840h215v-836zM1083 1822q-6 -78 -33.5 -139t-74 -103t-110.5 -63.5t-146 -21.5
q-78 0 -141 21.5t-109.5 63.5t-74.5 103t-35 139h151q12 -72 64 -112.5t149 -40.5q91 0 146 39.5t67 113.5h147z" />
    <glyph glyph-name="ubreve" unicode="&#x16d;" horiz-adv-x="1167" 
d="M801 0v102q-40 -55 -112 -90t-159 -35q-188 0 -285.5 121t-97.5 361v616h211v-608q0 -148 52.5 -221.5t169.5 -73.5q106 0 163.5 71.5t57.5 202.5v629h211v-1075h-211zM946 1546q-6 -78 -33.5 -139t-74 -103t-110.5 -63.5t-146 -21.5q-78 0 -141 21.5t-109.5 63.5
t-74.5 103t-35 139h151q12 -72 64 -112.5t149 -40.5q91 0 146 39.5t67 113.5h147z" />
    <glyph glyph-name="Uring" unicode="&#x16e;" horiz-adv-x="1442" 
d="M1266 598q0 -150 -36 -266t-106 -195t-173 -119.5t-236 -40.5t-234 42t-168.5 122.5t-102 196.5t-34.5 264v832h215v-826q0 -204 83 -309.5t245 -105.5q169 0 250.5 102t81.5 299v840h215v-836zM979 1707q0 -56 -19.5 -102.5t-54 -81t-82 -53.5t-102.5 -19t-102.5 19
t-82 53.5t-54 81t-19.5 102.5q0 55 19.5 102.5t54 82t82 54t102.5 19.5t102.5 -19.5t82 -54t54 -82t19.5 -102.5zM846 1707q0 27 -9.5 50.5t-26 40.5t-39.5 26.5t-50 9.5t-50 -9.5t-39.5 -26.5t-26 -40.5t-9.5 -50.5q0 -28 9.5 -51t26 -40t39.5 -26.5t50 -9.5t50 9.5
t39.5 26.5t26 40t9.5 51z" />
    <glyph glyph-name="uring" unicode="&#x16f;" horiz-adv-x="1167" 
d="M801 0v102q-40 -55 -112 -90t-159 -35q-188 0 -285.5 121t-97.5 361v616h211v-608q0 -148 52.5 -221.5t169.5 -73.5q106 0 163.5 71.5t57.5 202.5v629h211v-1075h-211zM842 1475q0 -56 -19.5 -102.5t-54 -81t-82 -53.5t-102.5 -19t-102.5 19t-82 53.5t-54 81t-19.5 102.5
q0 55 19.5 102.5t54 82t82 54t102.5 19.5t102.5 -19.5t82 -54t54 -82t19.5 -102.5zM709 1475q0 27 -9.5 50.5t-26 40.5t-39.5 26.5t-50 9.5t-50 -9.5t-39.5 -26.5t-26 -40.5t-9.5 -50.5q0 -28 9.5 -51t26 -40t39.5 -26.5t50 -9.5t50 9.5t39.5 26.5t26 40t9.5 51z" />
    <glyph glyph-name="Uhungarumlaut" unicode="&#x170;" horiz-adv-x="1442" 
d="M1266 598q0 -150 -36 -266t-106 -195t-173 -119.5t-236 -40.5t-234 42t-168.5 122.5t-102 196.5t-34.5 264v832h215v-826q0 -204 83 -309.5t245 -105.5q169 0 250.5 102t81.5 299v840h215v-836zM1012 1526h-168l219 327h287zM592 1526h-168l220 327h286z" />
    <glyph glyph-name="uhungarumlaut" unicode="&#x171;" horiz-adv-x="1167" 
d="M801 0v102q-40 -55 -112 -90t-159 -35q-188 0 -285.5 121t-97.5 361v616h211v-608q0 -148 52.5 -221.5t169.5 -73.5q106 0 163.5 71.5t57.5 202.5v629h211v-1075h-211zM848 1219h-168l219 327h287zM428 1219h-168l220 327h286z" />
    <glyph glyph-name="Uogonek" unicode="&#x172;" horiz-adv-x="1442" 
d="M1051 594v840h215v-836q0 -103 -21 -208.5t-70.5 -185.5t-118.5 -129.5t-159 -74.5q-79 -40 -142 -93.5t-63 -105.5q0 -28 16 -45.5t48 -17.5q20 0 39.5 7.5t33.5 21.5l68 -105q-42 -35 -92.5 -53.5t-104.5 -18.5q-51 0 -88.5 14t-62 36.5t-36 51.5t-11.5 60q0 69 42 126
t111 102q-118 9 -207.5 55t-150 125.5t-91 190.5t-30.5 251v832h215v-826q0 -90 18.5 -168.5t61 -135t104.5 -84t144 -27.5q86 0 148 26t104 78.5t61 128.5t19 168z" />
    <glyph glyph-name="uogonek" unicode="&#x173;" horiz-adv-x="1167" 
d="M801 0v102q-40 -55 -112 -90t-159 -35q-188 0 -285.5 121t-97.5 361v616h211v-608q0 -148 52.5 -221.5t169.5 -73.5q106 0 163.5 71.5t57.5 202.5v629h211v-1075h-211zM1008 0q-50 -26 -91.5 -54t-67.5 -54.5t-36 -50t-10 -40.5q0 -28 15.5 -45.5t47.5 -17.5
q21 0 40.5 7.5t33.5 21.5l67 -105q-42 -35 -91 -53.5t-105 -18.5q-51 0 -88.5 14t-62 36.5t-36.5 51.5t-12 60q0 39 14 74.5t39 67t59.5 58.5t76.5 48h207z" />
    <glyph glyph-name="Wcircumflex" unicode="&#x174;" horiz-adv-x="1767" 
d="M1665 1434l-293 -1434h-217l-264 1091l-275 -1091h-213l-292 1434h217l203 -1068l270 1068h184l269 -1068l203 1068h208zM1086 1526l-195 180l-195 -180h-165l239 327h246l239 -327h-169z" />
    <glyph glyph-name="wcircumflex" unicode="&#x175;" horiz-adv-x="1518" 
d="M1137 0h-181l-200 752l-199 -752h-180l-295 1075h209l180 -738l203 738h170l204 -738l179 738h209zM951 1219l-195 180l-195 -180h-165l239 327h246l239 -327h-169z" />
    <glyph glyph-name="Ycircumflex" unicode="&#x176;" horiz-adv-x="1411" 
d="M1327 1434l-514 -867v-567h-215v567l-514 867h252l371 -657l373 657h247zM900 1526l-195 180l-195 -180h-165l239 327h246l239 -327h-169z" />
    <glyph glyph-name="ycircumflex" unicode="&#x177;" horiz-adv-x="1139" 
d="M530 -379h-223l156 399l-395 1055h231l270 -810l279 810h223zM762 1219l-195 180l-195 -180h-165l239 327h246l239 -327h-169z" />
    <glyph glyph-name="Ydieresis" unicode="&#x178;" horiz-adv-x="1411" 
d="M1327 1434l-514 -867v-567h-215v567l-514 867h252l371 -657l373 657h247zM1045 1643q0 -28 -11 -53t-30 -43.5t-44 -29.5t-52 -11q-29 0 -54 11t-44.5 29.5t-30.5 43.5t-11 53t11 53.5t30.5 44.5t44.5 30t54 11q27 0 52 -11t44 -30t30 -44.5t11 -53.5zM646 1643
q0 -28 -11 -53t-30 -43.5t-44 -29.5t-53 -11t-53.5 11t-44.5 29.5t-30 43.5t-11 53t11 53.5t30 44.5t44.5 30t53.5 11t53 -11t44 -30t30 -44.5t11 -53.5z" />
    <glyph glyph-name="Zacute" unicode="&#x179;" horiz-adv-x="1360" 
d="M1212 0h-1089v209l850 1026h-809v199h1048v-209l-840 -1026h840v-199zM731 1526h-168l219 327h287z" />
    <glyph glyph-name="zacute" unicode="&#x17a;" horiz-adv-x="1079" 
d="M119 0v172l588 719h-547v184h788v-170l-577 -721h577v-184h-829zM590 1219h-168l219 327h287z" />
    <glyph glyph-name="Zdotaccent" unicode="&#x17b;" horiz-adv-x="1360" 
d="M1212 0h-1089v209l850 1026h-809v199h1048v-209l-840 -1026h840v-199zM817 1663q0 -28 -11 -53t-30 -43.5t-43.5 -29.5t-52.5 -11q-29 0 -54 11t-44 29.5t-30 43.5t-11 53t11 53.5t30 44.5t44 30t54 11q28 0 52.5 -11t43.5 -30t30 -44.5t11 -53.5z" />
    <glyph glyph-name="zdotaccent" unicode="&#x17c;" horiz-adv-x="1079" 
d="M119 0v172l588 719h-547v184h788v-170l-577 -721h577v-184h-829zM676 1356q0 -28 -11 -53t-30 -43.5t-43.5 -29.5t-52.5 -11q-29 0 -54 11t-44 29.5t-30 43.5t-11 53t11 53.5t30 44.5t44 30t54 11q28 0 52.5 -11t43.5 -30t30 -44.5t11 -53.5z" />
    <glyph glyph-name="Zcaron" unicode="&#x17d;" horiz-adv-x="1360" 
d="M1212 0h-1089v209l850 1026h-809v199h1048v-209l-840 -1026h840v-199zM797 1526h-246l-239 327h169l195 -180l195 180h165z" />
    <glyph glyph-name="zcaron" unicode="&#x17e;" horiz-adv-x="1079" 
d="M119 0v172l588 719h-547v184h788v-170l-577 -721h577v-184h-829zM670 1219h-246l-239 327h169l195 -180l195 180h165z" />
    <glyph glyph-name="longs" unicode="&#x17f;" horiz-adv-x="741" 
d="M227 1217q0 73 21.5 124.5t58 84t86.5 47t107 14.5q42 0 83.5 -5.5t75.5 -15.5v-184q-37 11 -66 16t-56 5q-22 0 -40.5 -4.5t-31.5 -15t-20 -31.5t-7 -54v-1198h-211v1217z" />
    <glyph glyph-name="uni018F" unicode="&#x18f;" horiz-adv-x="1456" 
d="M117 850h997q-12 92 -43 167t-79 126t-112.5 78.5t-146.5 27.5q-108 0 -180 -44t-125 -130l-182 115q39 63 84 111.5t109.5 85t139 54t164.5 17.5q142 0 253.5 -54t187.5 -152.5t115.5 -233.5t39.5 -299q0 -168 -45 -304t-126 -233.5t-193.5 -151t-249.5 -53.5
q-135 0 -247.5 52.5t-192.5 148.5t-124 232.5t-44 304.5v135zM365 500q30 -99 82.5 -167.5t125 -105.5t158.5 -37q84 0 155.5 36t124 103.5t81.5 166.5q18 65 24 145h-776q4 -78 25 -141z" />
    <glyph glyph-name="florin" unicode="&#x192;" 
d="M1118 1260q-28 11 -76 17.5t-108 6.5q-81 0 -127.5 -34t-63.5 -109l-16 -82h309l-37 -174h-307l-190 -885h-213l190 885h-239l36 174h238l18 84q17 84 50.5 143.5t83.5 97t116 55t148 17.5q74 0 132 -7.5t93 -18.5z" />
    <glyph glyph-name="Aringacute" unicode="&#x1fa;" horiz-adv-x="1458" 
d="M1133 0l-121 340h-574l-119 -340h-223l479 1331q-49 34 -78.5 89.5t-29.5 123.5q0 55 19.5 102.5t54 82t82 54t102.5 19.5t102.5 -19.5t82 -54t54 -82t19.5 -102.5q0 -68 -28.5 -122.5t-77.5 -88.5l485 -1333h-229zM850 1544q0 27 -9.5 50t-26 39.5t-39.5 26t-50 9.5
t-50 -9.5t-39.5 -26t-26 -39.5t-9.5 -50t9.5 -49.5t26 -39.5t39.5 -26.5t50 -9.5t50 9.5t39.5 26.5t26 39.5t9.5 49.5zM946 532l-223 639l-219 -639h442zM674 1854h-168l219 327h287z" />
    <glyph glyph-name="aringacute" unicode="&#x1fb;" horiz-adv-x="1126" 
d="M772 0v106q-41 -38 -68 -55.5t-56 -33t-73.5 -28t-97.5 -12.5q-65 0 -131.5 19.5t-120 63t-87.5 112.5t-34 168q0 90 32.5 155.5t90 108.5t136 63.5t169.5 20.5q85 0 143 -11.5t97 -29.5v80q0 88 -52 135t-151 47q-83 0 -150 -16t-130 -51l-82 159q77 48 165.5 72.5
t202.5 24.5q90 0 164.5 -22t127.5 -67t82.5 -113t29.5 -159v-737h-207zM772 459q-30 14 -54 21.5t-50 13t-62.5 9t-79.5 3.5q-102 0 -161.5 -43t-59.5 -117q0 -48 17 -81.5t43 -54.5t61.5 -31.5t85.5 -10.5q42 0 81 12t73 31.5t61 44t45 49.5v154zM827 1475
q0 -56 -19.5 -102.5t-54 -81t-82 -53.5t-102.5 -19t-102.5 19t-82 53.5t-54 81t-19.5 102.5q0 55 19.5 102.5t54 82t82 54t102.5 19.5t102.5 -19.5t82 -54t54 -82t19.5 -102.5zM694 1475q0 27 -9.5 50.5t-26 40.5t-39.5 26.5t-50 9.5t-50 -9.5t-39.5 -26.5t-26 -40.5
t-9.5 -50.5q0 -28 9.5 -51t26 -40t39.5 -26.5t50 -9.5t50 9.5t39.5 26.5t26 40t9.5 51zM520 1803h-168l219 327h287z" />
    <glyph glyph-name="AEacute" unicode="&#x1fc;" horiz-adv-x="2085" 
d="M1935 1434v-209h-708v-355h573v-208h-573v-453h739v-209h-946v336h-531l-221 -336h-239l962 1434h944zM621 535h399v603zM1102 1526h-168l219 327h287z" />
    <glyph glyph-name="aeacute" unicode="&#x1fd;" horiz-adv-x="1741" 
d="M1626 557q0 -29 -2 -54t-4 -42h-657q4 -72 24 -126t52 -90t74.5 -53.5t90.5 -17.5q34 0 61.5 5.5t51 16.5t46 27t48.5 37l129 -139q-35 -35 -70.5 -61.5t-76.5 -45t-90 -28t-111 -9.5q-105 0 -194.5 46t-149.5 137q-60 -84 -154 -133.5t-213 -49.5q-65 0 -131.5 19.5
t-121.5 63t-89.5 112.5t-34.5 168q0 89 33.5 155t91.5 109.5t137 64.5t171 21q72 0 123.5 -11.5t95.5 -31.5v76q0 85 -45 131.5t-142 46.5q-80 0 -146 -16t-128 -51l-84 163q78 48 165.5 74.5t198.5 26.5q119 0 194.5 -36.5t119.5 -113.5q57 73 132.5 111.5t176.5 38.5
q108 0 188.5 -44t134 -118.5t79.5 -172.5t26 -206zM1417 641q-3 54 -16 101.5t-39.5 83t-69 56.5t-104.5 21q-52 0 -91.5 -18.5t-67 -53t-43.5 -83t-21 -107.5h452zM756 457q-21 10 -43.5 19t-49.5 15t-60 9.5t-75 3.5q-100 0 -157.5 -43t-57.5 -115q0 -78 49 -125t152 -47
q42 0 78 11.5t67 30.5t55 43t42 48v79.5v70.5zM866 1219h-168l219 327h287z" />
    <glyph glyph-name="Oslashacute" unicode="&#x1fe;" horiz-adv-x="1456" 
d="M1333 717q0 -163 -42.5 -299t-121.5 -234t-191.5 -152.5t-252.5 -54.5q-121 0 -227 43l-56 -122h-200l100 221q-106 99 -164.5 252t-58.5 346q0 163 42.5 298.5t121.5 233.5t191 152.5t251 54.5q114 0 209 -37l53 117h201l-96 -209q57 -48 102 -112.5t76 -142t47 -167
t16 -188.5zM850 1233q-54 16 -125 16q-94 0 -166 -38t-121 -107.5t-74.5 -168t-25.5 -218.5q0 -133 23.5 -228t74.5 -163zM1114 717q0 136 -27 238t-86 171l-419 -919q54 -23 143 -23q94 0 167 38t122 107.5t74.5 168t25.5 219.5zM760 1526h-168l219 327h287z" />
    <glyph glyph-name="oslashacute" unicode="&#x1ff;" horiz-adv-x="1167" 
d="M1063 543q0 -134 -37 -239t-102 -178t-154 -111t-192 -38q-77 0 -170 33l-58 -112h-188l102 206q-74 75 -117 184t-43 249q0 132 37 236t101.5 176.5t152 110.5t189.5 38q43 0 84 -7.5t80 -21.5l53 109h188l-98 -197q80 -72 126 -184t46 -254zM662 897q-41 12 -87 12
q-62 0 -110.5 -26t-81.5 -74t-50.5 -115.5t-17.5 -150.5q0 -81 12 -140t35 -104zM852 537q0 87 -15 148t-40 106l-305 -609q48 -16 94 -16q63 0 112.5 29t83.5 79.5t52 118t18 144.5zM620 1219h-168l219 327h287z" />
    <glyph glyph-name="Scommaaccent" unicode="&#x218;" horiz-adv-x="1282" 
d="M1147 412q0 -97 -31.5 -177t-96.5 -137.5t-165 -89t-238 -31.5q-78 0 -150.5 16.5t-137 46.5t-121 73t-101.5 96l154 149q36 -39 80 -70.5t92 -53.5t99 -34t102 -12q152 0 224.5 52t72.5 157q0 42 -17 74t-55 59.5t-100 52.5t-152 52q-114 34 -198 68t-139.5 80.5
t-83 112t-27.5 161.5q0 93 37 167t100.5 125.5t150 79t185.5 27.5q82 -1 144.5 -14t121 -40t105.5 -59.5t98 -80.5l-152 -154q-41 41 -74 63t-68.5 38t-83 26t-108.5 10q-63 0 -108 -14.5t-74.5 -38.5t-43 -56.5t-13.5 -68.5q0 -38 14 -67t49.5 -54.5t96 -49.5t153.5 -52
q106 -32 191 -67.5t144.5 -84.5t91.5 -116.5t32 -163.5zM631 -490h-119l17 393h217z" />
    <glyph glyph-name="scommaaccent" unicode="&#x219;" horiz-adv-x="1022" 
d="M864 979l-92 -162q-66 47 -133.5 69.5t-144.5 22.5q-78 0 -113 -27.5t-35 -70.5q0 -20 8.5 -38t30.5 -36t60.5 -38t99.5 -44q90 -35 157.5 -67t113 -71.5t68.5 -92.5t23 -129q0 -89 -33.5 -150t-89 -98.5t-128.5 -53.5t-152 -16q-102 0 -214.5 37.5t-197.5 100.5l96 159
q76 -52 157 -79t157 -27q100 0 148 31t48 88q0 31 -17 54.5t-49.5 44t-78.5 40t-104 41.5q-87 34 -147.5 67t-98 72t-54 87t-16.5 112q0 72 27 127t76 91.5t116 55.5t148 19q102 0 197 -33t167 -86zM508 -490h-119l17 393h217z" />
    <glyph glyph-name="Tcommaaccent" unicode="&#x21a;" horiz-adv-x="1243" 
d="M729 1223v-1223h-215v1223h-418v211h1051v-211h-418zM615 -490h-119l17 393h217z" />
    <glyph glyph-name="tcommaaccent" unicode="&#x21b;" horiz-adv-x="825" 
d="M670 27q-39 -22 -91.5 -36t-115.5 -14q-55 0 -96.5 15.5t-75.5 49t-52 88t-18 132.5v621h-153v192h153v307l207 111v-418h266v-192h-266v-584q0 -38 6.5 -62.5t20 -39.5t34.5 -21t50 -6q41 0 83.5 13t71.5 30zM416 -490h-119l17 393h217z" />
    <glyph glyph-name="afii10846" unicode="&#x259;" horiz-adv-x="1135" 
d="M104 516q0 29 2.5 54.5t4.5 41.5h710q-10 78 -34.5 133.5t-60.5 91t-82 53t-93 17.5q-37 0 -67.5 -6t-59.5 -18.5t-50.5 -24.5t-56.5 -37l-124 135q38 37 75 60.5t79 42t96.5 29t119.5 10.5q70 0 131.5 -19.5t108.5 -51.5t84 -72t70.5 -103.5t52 -142t18.5 -170.5
q0 -138 -35 -242t-96 -176t-148 -108t-192 -36q-115 0 -200 43t-141 117t-84 172.5t-28 206.5zM317 438q5 -55 20 -104t46 -86t77 -58.5t111 -21.5q56 0 98 18.5t71.5 52t50 84t26.5 115.5h-500z" />
    <glyph glyph-name="circumflex" unicode="&#x2c6;" horiz-adv-x="1024" 
d="M705 1219l-195 180l-195 -180h-165l239 327h246l239 -327h-169z" />
    <glyph glyph-name="caron" unicode="&#x2c7;" horiz-adv-x="1024" 
d="M635 1219h-246l-239 327h169l195 -180l195 180h165z" />
    <glyph glyph-name="breve" unicode="&#x2d8;" horiz-adv-x="1024" 
d="M874 1546q-6 -78 -33.5 -139t-74 -103t-110.5 -63.5t-146 -21.5q-78 0 -141 21.5t-109.5 63.5t-74.5 103t-35 139h151q12 -72 64 -112.5t149 -40.5q91 0 146 39.5t67 113.5h147z" />
    <glyph glyph-name="dotaccent" unicode="&#x2d9;" horiz-adv-x="1024" 
d="M649 1356q0 -28 -11 -53t-30 -43.5t-43.5 -29.5t-52.5 -11q-29 0 -54 11t-44 29.5t-30 43.5t-11 53t11 53.5t30 44.5t44 30t54 11q28 0 52.5 -11t43.5 -30t30 -44.5t11 -53.5z" />
    <glyph glyph-name="ring" unicode="&#x2da;" horiz-adv-x="1024" 
d="M770 1475q0 -56 -19.5 -102.5t-54 -81t-82 -53.5t-102.5 -19t-102.5 19t-82 53.5t-54 81t-19.5 102.5q0 55 19.5 102.5t54 82t82 54t102.5 19.5t102.5 -19.5t82 -54t54 -82t19.5 -102.5zM637 1475q0 27 -9.5 50.5t-26 40.5t-39.5 26.5t-50 9.5t-50 -9.5t-39.5 -26.5
t-26 -40.5t-9.5 -50.5q0 -28 9.5 -51t26 -40t39.5 -26.5t50 -9.5t50 9.5t39.5 26.5t26 40t9.5 51z" />
    <glyph glyph-name="ogonek" unicode="&#x2db;" horiz-adv-x="1024" 
d="M694 0q-50 -26 -91.5 -54t-67.5 -54.5t-36 -50t-10 -40.5q0 -28 15.5 -45.5t47.5 -17.5q21 0 40.5 7.5t33.5 21.5l67 -105q-42 -35 -91 -53.5t-105 -18.5q-51 0 -88.5 14t-62 36.5t-36.5 51.5t-12 60q0 39 14 74.5t39 67t59.5 58.5t76.5 48h207z" />
    <glyph glyph-name="tilde" unicode="&#x2dc;" horiz-adv-x="1024" 
d="M899 1491q0 -68 -16.5 -120.5t-45 -87.5t-68 -53t-85.5 -18q-29 0 -55.5 5t-54.5 16t-60 28t-72 42q-21 12 -42 20t-38 8q-34 0 -52.5 -24.5t-26.5 -87.5h-146q0 68 16.5 120t45 87t68 53t85.5 18q29 0 55.5 -5t54.5 -15.5t60 -27.5t72 -42q22 -12 42.5 -20.5t37.5 -8.5
q34 0 53 25t27 88h145z" />
    <glyph glyph-name="hungarumlaut" unicode="&#x2dd;" horiz-adv-x="1024" 
d="M690 1219h-168l219 327h287zM270 1219h-168l220 327h286z" />
    <glyph glyph-name="tonos" unicode="&#x384;" horiz-adv-x="1034" 
d="M489 1219h-163l200 327h289z" />
    <glyph glyph-name="dieresistonos" unicode="&#x385;" horiz-adv-x="1192" 
d="M586 1219h-150l150 327h258zM1012 1325q0 -26 -10 -49t-27 -40t-39.5 -27.5t-46.5 -10.5q-25 0 -46.5 10.5t-37.5 27.5t-25.5 40t-9.5 49q0 27 9.5 50.5t25.5 41t37.5 27.5t46.5 10q24 0 46.5 -10t39.5 -27.5t27 -41t10 -50.5zM414 1325q0 -26 -9.5 -49t-25.5 -40
t-38 -27.5t-46 -10.5q-25 0 -47 10.5t-38.5 27.5t-26 40t-9.5 49q0 27 9.5 50.5t26 41t38.5 27.5t47 10q24 0 46 -10t38 -27.5t25.5 -41t9.5 -50.5z" />
    <glyph glyph-name="Alphatonos" unicode="&#x386;" horiz-adv-x="1458" 
d="M1362 0h-229l-121 340h-574l-119 -340h-223l516 1434h228zM946 532l-223 639l-219 -639h442zM103 1109h-163l200 327h289z" />
    <glyph glyph-name="Epsilontonos" unicode="&#x388;" horiz-adv-x="1260" 
d="M1141 0h-955v1434h924v-209h-709v-355h576v-208h-576v-453h740v-209zM-248 1109h-163l200 327h289z" />
    <glyph glyph-name="Etatonos" unicode="&#x389;" horiz-adv-x="1462" 
d="M1061 0v639h-660v-639h-215v1434h215v-580h660v580h215v-1434h-215zM-246 1109h-163l200 327h289z" />
    <glyph glyph-name="Iotatonos" unicode="&#x38a;" horiz-adv-x="608" 
d="M197 0v1434h215v-1434h-215zM-246 1109h-163l200 327h289z" />
    <glyph glyph-name="Omicrontonos" unicode="&#x38c;" horiz-adv-x="1456" 
d="M1339 719q0 -168 -44.5 -304.5t-125.5 -234t-194 -150.5t-250 -53q-136 0 -248 52.5t-192 149t-124 232.5t-44 304q0 167 44.5 304t125.5 234t193.5 150t248.5 53q137 0 249.5 -52.5t192.5 -149t124 -232.5t44 -303zM1120 715q0 122 -30 219.5t-83 166t-125.5 105.5
t-158.5 37q-85 0 -156 -36t-122.5 -104t-80 -165t-28.5 -219t29.5 -220t82 -166.5t125 -105.5t158.5 -37q85 0 156.5 36t123 104t80.5 165.5t29 219.5zM-123 1109h-163l200 327h289z" />
    <glyph glyph-name="Upsilontonos" unicode="&#x38e;" horiz-adv-x="1411" 
d="M1327 1434l-514 -867v-567h-215v567l-514 867h252l371 -657l373 657h247zM-287 1109h-163l200 327h289z" />
    <glyph glyph-name="Omegatonos" unicode="&#x38f;" horiz-adv-x="1499" 
d="M344 774q0 -93 19.5 -169t56.5 -142.5t91.5 -128.5t125.5 -127v-207h-496v209h242q-71 56 -120.5 122t-80 137.5t-44 146t-13.5 147.5q1 143 43 266t121.5 219t196 152.5t264.5 56.5q150 0 266 -56.5t195.5 -152.5t121 -222t41.5 -265q0 -70 -13.5 -144t-44 -146
t-79.5 -138.5t-121 -122.5h244v-209h-500v207q72 65 127 127t92.5 128.5t56.5 142.5t19 169q0 107 -32 193.5t-87.5 148t-130.5 94.5t-162 33q-86 0 -159 -33t-126.5 -94.5t-83.5 -148t-30 -193.5zM-67 1109h-163l200 327h289z" />
    <glyph glyph-name="iotadieresistonos" unicode="&#x390;" horiz-adv-x="543" 
d="M166 0v1075h211v-1075h-211zM330 1219h-150l150 327h258zM756 1325q0 -26 -10 -49t-27 -40t-39.5 -27.5t-46.5 -10.5q-25 0 -46.5 10.5t-37.5 27.5t-25.5 40t-9.5 49q0 27 9.5 50.5t25.5 41t37.5 27.5t46.5 10q24 0 46.5 -10t39.5 -27.5t27 -41t10 -50.5zM158 1325
q0 -26 -9.5 -49t-25.5 -40t-38 -27.5t-46 -10.5q-25 0 -47 10.5t-38.5 27.5t-26 40t-9.5 49q0 27 9.5 50.5t26 41t38.5 27.5t47 10q24 0 46 -10t38 -27.5t25.5 -41t9.5 -50.5z" />
    <glyph glyph-name="Alpha" unicode="&#x391;" horiz-adv-x="1458" 
d="M1362 0h-229l-121 340h-574l-119 -340h-223l516 1434h228zM946 532l-223 639l-219 -639h442z" />
    <glyph glyph-name="Beta" unicode="&#x392;" horiz-adv-x="1382" 
d="M1247 440q0 -218 -128 -329t-363 -111h-570v1434h590q94 0 170 -24.5t130 -71.5t83 -116.5t29 -160.5q0 -55 -14 -99.5t-38 -79.5t-57.5 -62t-72.5 -46q42 -12 85 -37.5t77.5 -66.5t56.5 -98t22 -132zM973 1049q0 40 -11 74t-34.5 59.5t-61.5 40t-92 14.5h-385v-371h385
q53 0 90.5 15t61.5 40.5t35.5 58.5t11.5 69zM1032 434q0 53 -14 93.5t-44.5 74t-77.5 51.5t-118 19h-389v-475h383q72 0 121.5 17t80 48.5t44.5 75t14 96.5z" />
    <glyph glyph-name="Gamma" unicode="&#x393;" horiz-adv-x="1130" 
d="M401 1221v-1221h-215v1434h863v-213h-648z" />
    <glyph glyph-name="uni0394" unicode="&#x394;" horiz-adv-x="1491" 
d="M84 0l545 1434h227l551 -1434h-1323zM385 209h713l-357 967z" />
    <glyph glyph-name="Epsilon" unicode="&#x395;" horiz-adv-x="1260" 
d="M1141 0h-955v1434h924v-209h-709v-355h576v-208h-576v-453h740v-209z" />
    <glyph glyph-name="Zeta" unicode="&#x396;" horiz-adv-x="1360" 
d="M1212 0h-1089v209l850 1026h-809v199h1048v-209l-840 -1026h840v-199z" />
    <glyph glyph-name="Eta" unicode="&#x397;" horiz-adv-x="1462" 
d="M1061 0v639h-660v-639h-215v1434h215v-580h660v580h215v-1434h-215z" />
    <glyph glyph-name="Theta" unicode="&#x398;" horiz-adv-x="1489" 
d="M516 858h457v-209h-457v209zM1157 715q0 120 -30.5 217.5t-86 166.5t-132 106.5t-167.5 37.5q-92 0 -167.5 -36.5t-129 -104.5t-83 -165t-29.5 -218q0 -122 30.5 -219.5t86 -166.5t131.5 -106t168 -37q90 0 165.5 36.5t129.5 104.5t84 165t30 219zM1376 715
q0 -167 -46 -303t-130 -233t-201 -149.5t-258 -52.5q-142 0 -258 52.5t-198 149.5t-127 233t-45 303q0 166 45.5 303t128.5 234t199.5 150.5t258.5 53.5t258.5 -53.5t199 -150.5t128 -234t45.5 -303z" />
    <glyph glyph-name="Iota" unicode="&#x399;" horiz-adv-x="608" 
d="M197 0v1434h215v-1434h-215z" />
    <glyph glyph-name="Kappa" unicode="&#x39a;" horiz-adv-x="1403" 
d="M1317 0h-244l-411 735l-267 -321v-414h-209v1434h209v-732l586 732h244l-420 -521z" />
    <glyph glyph-name="Lambda" unicode="&#x39b;" horiz-adv-x="1425" 
d="M346 0h-240l492 1434h231l490 -1434h-242l-363 1144z" />
    <glyph glyph-name="Mu" unicode="&#x39c;" horiz-adv-x="1655" 
d="M1468 0h-211v990l-436 -1013l-432 1013v-990h-203v1434h222l420 -998l411 998h229v-1434z" />
    <glyph glyph-name="Nu" unicode="&#x39d;" horiz-adv-x="1462" 
d="M1276 0h-205l-676 1062v-1062h-209v1434h220l661 -1062v1062h209v-1434z" />
    <glyph glyph-name="Xi" unicode="&#x39e;" horiz-adv-x="1300" 
d="M139 0v209h404v453h-260v208h260v355h-389v209h993v-209h-389v-355h260v-208h-260v-453h403v-209h-1022z" />
    <glyph glyph-name="Omicron" unicode="&#x39f;" horiz-adv-x="1456" 
d="M1339 719q0 -168 -44.5 -304.5t-125.5 -234t-194 -150.5t-250 -53q-136 0 -248 52.5t-192 149t-124 232.5t-44 304q0 167 44.5 304t125.5 234t193.5 150t248.5 53q137 0 249.5 -52.5t192.5 -149t124 -232.5t44 -303zM1120 715q0 122 -30 219.5t-83 166t-125.5 105.5
t-158.5 37q-85 0 -156 -36t-122.5 -104t-80 -165t-28.5 -219t29.5 -220t82 -166.5t125 -105.5t158.5 -37q85 0 156.5 36t123 104t80.5 165.5t29 219.5z" />
    <glyph glyph-name="Pi" unicode="&#x3a0;" horiz-adv-x="1423" 
d="M1022 0v1221h-621v-1221h-215v1434h1051v-1434h-215z" />
    <glyph glyph-name="Rho" unicode="&#x3a1;" horiz-adv-x="1337" 
d="M1247 985q0 -111 -35 -195t-98 -140.5t-150 -85.5t-192 -29h-375v-535h-211v1434h600q99 0 183.5 -28.5t146 -84.5t96.5 -140.5t35 -195.5zM1028 985q0 59 -17.5 105t-49.5 77.5t-77.5 47.5t-101.5 16h-385v-494h385q124 0 185 66t61 182z" />
    <glyph glyph-name="Sigma" unicode="&#x3a3;" horiz-adv-x="1327" 
d="M415 1235l441 -477l-482 -549h838v-209h-1089v209l469 536l-442 480v209h1048v-199h-783z" />
    <glyph glyph-name="Tau" unicode="&#x3a4;" horiz-adv-x="1243" 
d="M729 1223v-1223h-215v1223h-418v211h1051v-211h-418z" />
    <glyph glyph-name="Upsilon" unicode="&#x3a5;" horiz-adv-x="1411" 
d="M1327 1434l-514 -867v-567h-215v567l-514 867h252l371 -657l373 657h247z" />
    <glyph glyph-name="Phi" unicode="&#x3a6;" horiz-adv-x="1675" 
d="M1565 737q0 -133 -49 -237t-133 -177t-197 -114.5t-240 -48.5v-160h-215v160q-131 7 -244 48t-196.5 113.5t-131.5 175.5t-48 236q0 125 46 228t128.5 178t196.5 119t249 51v125h215v-125q135 -6 248.5 -49.5t196 -118t128.5 -177.5t46 -227zM1346 733q0 88 -32.5 156
t-87 116t-127 75.5t-153.5 33.5v-760q78 6 150.5 33.5t128 75.5t88.5 116t33 154zM731 1116q-81 -2 -153.5 -29.5t-127.5 -77.5t-87.5 -119t-32.5 -153t31.5 -154.5t85.5 -121t127 -78.5t157 -29v762z" />
    <glyph glyph-name="Chi" unicode="&#x3a7;" horiz-adv-x="1350" 
d="M1258 0h-257l-319 554l-317 -554h-252l444 740l-416 694h256l289 -509l291 509h252l-416 -692z" />
    <glyph glyph-name="Psi" unicode="&#x3a8;" horiz-adv-x="1522" 
d="M1403 887q0 -120 -37.5 -215.5t-107 -164t-168.5 -109t-222 -50.5v-348h-215v348q-128 6 -227 45t-167.5 107.5t-104 165.5t-35.5 219v549h215v-547q0 -147 85 -236t234 -104v887h215v-887q151 12 235.5 97.5t84.5 240.5v549h215v-547z" />
    <glyph glyph-name="uni03A9" unicode="&#x3a9;" horiz-adv-x="1499" 
d="M344 774q0 -93 19.5 -169t56.5 -142.5t91.5 -128.5t125.5 -127v-207h-496v209h242q-71 56 -120.5 122t-80 137.5t-44 146t-13.5 147.5q1 143 43 266t121.5 219t196 152.5t264.5 56.5q150 0 266 -56.5t195.5 -152.5t121 -222t41.5 -265q0 -70 -13.5 -144t-44 -146
t-79.5 -138.5t-121 -122.5h244v-209h-500v207q72 65 127 127t92.5 128.5t56.5 142.5t19 169q0 107 -32 193.5t-87.5 148t-130.5 94.5t-162 33q-86 0 -159 -33t-126.5 -94.5t-83.5 -148t-30 -193.5z" />
    <glyph glyph-name="Iotadieresis" unicode="&#x3aa;" horiz-adv-x="608" 
d="M197 0v1434h215v-1434h-215zM645 1663q0 -28 -11 -53t-30 -43.5t-44 -29.5t-52 -11q-29 0 -54 11t-44.5 29.5t-30.5 43.5t-11 53t11 53.5t30.5 44.5t44.5 30t54 11q27 0 52 -11t44 -30t30 -44.5t11 -53.5zM246 1663q0 -28 -11 -53t-30 -43.5t-44 -29.5t-53 -11t-53.5 11
t-44.5 29.5t-30 43.5t-11 53t11 53.5t30 44.5t44.5 30t53.5 11t53 -11t44 -30t30 -44.5t11 -53.5z" />
    <glyph glyph-name="Upsilondieresis" unicode="&#x3ab;" horiz-adv-x="1411" 
d="M1327 1434l-514 -867v-567h-215v567l-514 867h252l371 -657l373 657h247zM1045 1643q0 -28 -11 -53t-30 -43.5t-44 -29.5t-52 -11q-29 0 -54 11t-44.5 29.5t-30.5 43.5t-11 53t11 53.5t30.5 44.5t44.5 30t54 11q27 0 52 -11t44 -30t30 -44.5t11 -53.5zM646 1643
q0 -28 -11 -53t-30 -43.5t-44 -29.5t-53 -11t-53.5 11t-44.5 29.5t-30 43.5t-11 53t11 53.5t30 44.5t44.5 30t53.5 11t53 -11t44 -30t30 -44.5t11 -53.5z" />
    <glyph glyph-name="alphatonos" unicode="&#x3ac;" horiz-adv-x="1165" 
d="M803 0v104q-57 -55 -126 -91t-155 -36q-87 0 -162 33t-131 103t-88 179.5t-32 262.5q0 133 32 234.5t89 170t134.5 103.5t167.5 35q78 0 143 -31t128 -90v98h209v-1075h-209zM805 762q-45 59 -117.5 100t-134.5 41q-65 0 -110 -25.5t-72.5 -71.5t-39.5 -108.5t-12 -136.5
q0 -193 58.5 -291t185.5 -98q59 0 124 36t118 101v453zM675 1219h-163l200 327h289z" />
    <glyph glyph-name="epsilontonos" unicode="&#x3ad;" horiz-adv-x="1090" 
d="M547 479q-56 0 -96.5 -12.5t-67.5 -34t-40 -51t-13 -62.5q0 -74 59 -112.5t186 -38.5q39 0 80.5 7.5t82.5 21.5t80.5 35t74.5 47l125 -136q-39 -34 -87 -64.5t-105 -53.5t-124.5 -36.5t-146.5 -13.5q-100 0 -181.5 18.5t-139.5 56.5t-89.5 96.5t-31.5 138.5q0 53 17 98.5
t48 82t74 64t94 43.5q-44 10 -78.5 31.5t-58.5 51t-36.5 65t-12.5 74.5q0 78 34.5 135.5t93 94.5t134 55t158.5 18q123 0 224.5 -36t178.5 -101l-123 -152q-37 30 -70.5 49t-67.5 30t-71 15t-80 4q-90 0 -145 -34t-55 -99q0 -24 11.5 -45.5t35 -38.5t58.5 -27t83 -10h215
v-174h-227zM679 1219h-163l200 327h289z" />
    <glyph glyph-name="etatonos" unicode="&#x3ae;" horiz-adv-x="1167" 
d="M1020 -287l-211 -108v1003q0 146 -52 220.5t-169 74.5q-51 0 -94 -18t-72 -56t-42 -89.5t-13 -110.5v-629h-211v1075h211v-102q20 29 49 52.5t64 39.5t75 24.5t82 8.5q97 0 168.5 -31.5t119 -90.5t71.5 -149t24 -211v-903zM694 1219h-163l200 327h289z" />
    <glyph glyph-name="iotatonos" unicode="&#x3af;" horiz-adv-x="543" 
d="M166 0v1075h211v-1075h-211zM360 1219h-163l200 327h289z" />
    <glyph glyph-name="upsilondieresistonos" unicode="&#x3b0;" horiz-adv-x="1159" 
d="M1012 463q0 -114 -22.5 -204.5t-73.5 -153t-133.5 -95.5t-202.5 -33q-123 0 -206 33t-133.5 95.5t-72 153t-21.5 204.5v612h211v-614q0 -81 14 -135t42 -87t70 -47t98 -14q54 0 95 14t68.5 47t41.5 87t14 135v614h211v-612zM577 1219h-150l150 327h258zM1003 1325
q0 -26 -10 -49t-27 -40t-39.5 -27.5t-46.5 -10.5q-25 0 -46.5 10.5t-37.5 27.5t-25.5 40t-9.5 49q0 27 9.5 50.5t25.5 41t37.5 27.5t46.5 10q24 0 46.5 -10t39.5 -27.5t27 -41t10 -50.5zM405 1325q0 -26 -9.5 -49t-25.5 -40t-38 -27.5t-46 -10.5q-25 0 -47 10.5t-38.5 27.5
t-26 40t-9.5 49q0 27 9.5 50.5t26 41t38.5 27.5t47 10q24 0 46 -10t38 -27.5t25.5 -41t9.5 -50.5z" />
    <glyph glyph-name="alpha" unicode="&#x3b1;" horiz-adv-x="1165" 
d="M803 0v104q-57 -55 -126 -91t-155 -36q-87 0 -162 33t-131 103t-88 179.5t-32 262.5q0 133 32 234.5t89 170t134.5 103.5t167.5 35q78 0 143 -31t128 -90v98h209v-1075h-209zM805 762q-45 59 -117.5 100t-134.5 41q-65 0 -110 -25.5t-72.5 -71.5t-39.5 -108.5t-12 -136.5
q0 -193 58.5 -291t185.5 -98q59 0 124 36t118 101v453z" />
    <glyph glyph-name="beta" unicode="&#x3b2;" horiz-adv-x="1163" 
d="M156 -395v1456q0 129 39 211.5t99.5 130.5t132.5 66t138 18q92 0 164.5 -28.5t122.5 -78t76 -117t26 -145.5q0 -60 -16.5 -109.5t-43.5 -88t-62 -64.5t-72 -39q67 -16 122.5 -50t94.5 -83t60.5 -111.5t21.5 -136.5q0 -127 -39 -214.5t-102 -142t-142 -78.5t-158 -24
t-150 25.5t-103 58.5v-348zM365 258q32 -28 100.5 -58t124.5 -30q67 0 116 19.5t80.5 54.5t46.5 84t15 108q0 72 -24.5 123t-68 82.5t-103.5 46t-130 14.5h-16v189h18q100 0 160.5 57.5t60.5 155.5q0 92 -47.5 145.5t-134.5 53.5q-92 0 -145 -61t-53 -169v-815z" />
    <glyph glyph-name="gamma" unicode="&#x3b3;" horiz-adv-x="1096" 
d="M799 1075h223l-365 -1075v-287l-208 -108v395l-375 1075h225l259 -852z" />
    <glyph glyph-name="delta" unicode="&#x3b4;" horiz-adv-x="1163" 
d="M531 1280l274 -256q40 -38 84.5 -83.5t82 -104.5t62.5 -134t25 -172q0 -133 -37 -236t-102 -173.5t-152.5 -107t-187.5 -36.5q-97 0 -183.5 37.5t-151.5 107.5t-103 169.5t-38 224.5q0 105 28.5 195t82.5 157t131 107.5t174 48.5l-276 262v178h717v-184h-430zM680 872
l-47 2q-79 0 -138.5 -24.5t-99 -69.5t-59 -109.5t-19.5 -144.5q0 -83 20.5 -147.5t56 -109t84.5 -68t106 -23.5q58 0 106.5 26.5t83.5 73t54.5 111t19.5 141.5q0 59 -13.5 108.5t-36 90t-50.5 73.5t-68 70z" />
    <glyph glyph-name="epsilon" unicode="&#x3b5;" horiz-adv-x="1090" 
d="M547 479q-56 0 -96.5 -12.5t-67.5 -34t-40 -51t-13 -62.5q0 -74 59 -112.5t186 -38.5q39 0 80.5 7.5t82.5 21.5t80.5 35t74.5 47l125 -136q-39 -34 -87 -64.5t-105 -53.5t-124.5 -36.5t-146.5 -13.5q-100 0 -181.5 18.5t-139.5 56.5t-89.5 96.5t-31.5 138.5q0 53 17 98.5
t48 82t74 64t94 43.5q-44 10 -78.5 31.5t-58.5 51t-36.5 65t-12.5 74.5q0 78 34.5 135.5t93 94.5t134 55t158.5 18q123 0 224.5 -36t178.5 -101l-123 -152q-37 30 -70.5 49t-67.5 30t-71 15t-80 4q-90 0 -145 -34t-55 -99q0 -24 11.5 -45.5t35 -38.5t58.5 -27t83 -10h215
v-174h-227z" />
    <glyph glyph-name="zeta" unicode="&#x3b6;" horiz-adv-x="1020" 
d="M722 1280h-525v184h778v-196q-180 -122 -305 -237t-203 -221.5t-113 -203t-35 -182.5q0 -66 18 -108.5t56 -67t97.5 -34t142.5 -9.5h78q131 0 199.5 -51.5t68.5 -159.5q0 -87 -47 -171t-133 -161l-121 98q51 47 80.5 90t29.5 80q0 41 -25.5 55.5t-66.5 14.5h-145
q-95 0 -176 20t-141 66t-94 121t-34 184q0 123 50.5 251.5t148 254t209 222.5t208.5 161z" />
    <glyph glyph-name="eta" unicode="&#x3b7;" horiz-adv-x="1167" 
d="M1020 -287l-211 -108v1003q0 146 -52 220.5t-169 74.5q-51 0 -94 -18t-72 -56t-42 -89.5t-13 -110.5v-629h-211v1075h211v-102q20 29 49 52.5t64 39.5t75 24.5t82 8.5q97 0 168.5 -31.5t119 -90.5t71.5 -149t24 -211v-903z" />
    <glyph glyph-name="theta" unicode="&#x3b8;" horiz-adv-x="1174" 
d="M1040 731q0 -166 -25.5 -304.5t-81 -238.5t-143 -155.5t-210.5 -55.5q-124 0 -209 55.5t-138 155.5t-76.5 238t-23.5 303q0 164 24 303t77 240t139 158t211 57q123 0 210 -57t141.5 -157.5t79.5 -239.5t25 -302zM829 840q-5 98 -18 182.5t-41 147t-73.5 98t-114.5 35.5
q-70 0 -114 -36t-69.5 -98t-37 -147t-15.5 -182h483zM346 647q2 -103 13.5 -191.5t38.5 -154t72.5 -102.5t117.5 -37t118 37.5t72.5 103t37.5 154t13 190.5h-483z" />
    <glyph glyph-name="iota" unicode="&#x3b9;" horiz-adv-x="543" 
d="M166 0v1075h211v-1075h-211z" />
    <glyph glyph-name="kappa" unicode="&#x3ba;" horiz-adv-x="1126" 
d="M750 1075h243l-319 -391l370 -684h-237l-275 510l-165 -203v-307h-211v1075h211v-499z" />
    <glyph glyph-name="lambda" unicode="&#x3bb;" horiz-adv-x="1126" 
d="M285 0h-217l415 1028l-73 186q-16 41 -43 65t-78 24q-26 0 -55 -8.5t-60 -20.5v182q32 11 72 21t82 10q64 0 108 -18t76 -54.5t57.5 -92.5t53.5 -132l436 -1190h-215l-269 817z" />
    <glyph glyph-name="uni03BC" unicode="&#x3bc;" horiz-adv-x="1176" 
d="M809 0v102q-46 -64 -119.5 -94.5t-150.5 -30.5q-60 0 -105.5 11t-68.5 23v-298l-209 -108v1470h211v-608q0 -81 15 -137.5t43.5 -91.5t69.5 -50.5t93 -15.5t89 15.5t69 50.5t47.5 89t15.5 119v629h211v-1075h-211z" />
    <glyph glyph-name="nu" unicode="&#x3bd;" horiz-adv-x="1110" 
d="M664 0h-211l-385 1075h221l272 -823l258 823h223z" />
    <glyph glyph-name="xi" unicode="&#x3be;" horiz-adv-x="1030" 
d="M355 1282h-158v182h776v-184h-248q-72 0 -131.5 -13t-102 -40t-65.5 -68t-23 -98q0 -45 16 -81.5t44.5 -61.5t69 -38.5t88.5 -13.5h243v-188h-250q-71 0 -125.5 -20.5t-91.5 -57.5t-56 -88.5t-19 -112.5q0 -47 17.5 -83t49 -61t74.5 -37.5t94 -12.5h154q70 0 119.5 -13.5
t84 -41.5t49.5 -67.5t15 -88.5q0 -87 -47 -171t-133 -161l-121 98q51 47 80.5 90t29.5 80q0 41 -25.5 55.5t-66.5 14.5h-143q-97 0 -179 21.5t-141.5 68t-93 120t-33.5 177.5q0 77 21 142t59 116t92 86t119 53q-98 35 -149 101.5t-51 156.5q0 94 45 154t113 86z" />
    <glyph glyph-name="omicron" unicode="&#x3bf;" horiz-adv-x="1167" 
d="M1063 543q0 -134 -37 -239t-102 -178t-154 -111t-192 -38q-102 0 -188.5 40t-150 113.5t-99.5 177t-36 229.5q0 132 37 236t101.5 176.5t152 110.5t189.5 38q103 0 190.5 -39.5t151.5 -112t100.5 -175t36.5 -228.5zM850 537q0 82 -19 148.5t-54.5 113.5t-86.5 72.5
t-115 25.5q-60 0 -107.5 -25.5t-81 -72t-51.5 -111.5t-18 -145q0 -89 19.5 -157t55 -114t85 -70t109.5 -24t108.5 28.5t83 77t53.5 114t19 139.5z" />
    <glyph glyph-name="pi" unicode="&#x3c0;" horiz-adv-x="1241" 
d="M72 1075h1097v-184h-127v-891h-211v891h-421v-891h-211v891h-127v184z" />
    <glyph glyph-name="rho" unicode="&#x3c1;" horiz-adv-x="1141" 
d="M342 -289l-209 -106v938q0 121 26.5 223t81.5 175.5t140 115t201 41.5q114 0 199 -42t141.5 -116.5t85 -177t28.5 -223.5q0 -142 -33 -247.5t-90 -175.5t-134.5 -104.5t-166.5 -34.5q-77 0 -149 35t-121 88v-389zM825 541q0 72 -11 137.5t-39 115.5t-75 79.5t-120 29.5
t-119.5 -30t-73.5 -79.5t-37 -115t-10 -135.5v-230q40 -55 111.5 -98t140.5 -43q56 0 99.5 20t73 64.5t45 114.5t15.5 170z" />
    <glyph glyph-name="sigma1" unicode="&#x3c2;" horiz-adv-x="1067" 
d="M842 -25q0 -44 -13.5 -85.5t-37.5 -80.5t-56 -76t-69 -71l-121 98q49 47 79.5 89t30.5 77q0 22 -17 40t-46.5 33.5t-68.5 30.5t-83 33q-65 26 -126 66t-107.5 98.5t-74.5 138t-28 185.5q0 134 38 236.5t102.5 171.5t149.5 104t179 35q62 0 114.5 -11.5t101.5 -37
t86.5 -56.5t78.5 -78l-125 -149q-37 37 -65.5 59.5t-61 39.5t-66 24.5t-69.5 7.5q-54 0 -99.5 -22.5t-79 -66t-52.5 -106t-19 -143.5q0 -74 19.5 -125.5t53 -89t77.5 -64t92 -49.5q50 -23 100.5 -42.5t91 -46t66 -66t25.5 -101.5z" />
    <glyph glyph-name="sigma" unicode="&#x3c3;" horiz-adv-x="1198" 
d="M317 539q0 -92 21 -159.5t57.5 -112.5t85.5 -67t105 -22q49 0 96.5 22.5t84.5 68t60 113t23 157.5q0 114 -32 199t-101 153h-99q-61 0 -115.5 -20.5t-96 -63.5t-65.5 -109.5t-24 -158.5zM932 891q59 -58 94 -150.5t35 -201.5q0 -135 -37 -240t-102.5 -176.5
t-153.5 -108.5t-190 -37q-92 0 -177.5 36t-151.5 106.5t-105.5 175t-39.5 242.5q0 137 41 238.5t110.5 168t161.5 99t193 32.5h490v-184h-168z" />
    <glyph glyph-name="tau" unicode="&#x3c4;" horiz-adv-x="946" 
d="M885 1075v-192h-316v-584q0 -38 6.5 -62.5t20 -39.5t34.5 -21t50 -6q41 0 84 13t72 30l-25 -186q-38 -22 -91 -36t-116 -14q-112 0 -177 70.5t-65 214.5v621h-301v192h824z" />
    <glyph glyph-name="upsilon" unicode="&#x3c5;" horiz-adv-x="1159" 
d="M1012 463q0 -114 -22.5 -204.5t-73.5 -153t-133.5 -95.5t-202.5 -33q-123 0 -206 33t-133.5 95.5t-72 153t-21.5 204.5v612h211v-614q0 -81 14 -135t42 -87t70 -47t98 -14q54 0 95 14t68.5 47t41.5 87t14 135v614h211v-612z" />
    <glyph glyph-name="phi" unicode="&#x3c6;" horiz-adv-x="1481" 
d="M637 -395v379q-109 7 -206 45.5t-169.5 107.5t-115 169t-42.5 231q0 130 43.5 230t117 169t170 108t202.5 48v198l209 109v-307q106 -8 202 -45.5t169 -105.5t116 -167.5t43 -230.5q0 -129 -43 -229t-116 -170.5t-169 -110.5t-202 -49v-271zM1163 541q0 92 -29 158
t-74.5 110t-102 67t-111.5 29v-735q56 7 112.5 30t102 67t74 111.5t28.5 162.5zM637 905q-58 -6 -115 -29.5t-102.5 -67.5t-74 -110t-28.5 -157q0 -94 28.5 -161t74 -111.5t102.5 -68t115 -30.5v735z" />
    <glyph glyph-name="chi" unicode="&#x3c7;" horiz-adv-x="1141" 
d="M317 0h-235l362 553l-335 522h243l224 -370l217 370h239l-338 -514l365 -561h-250l-243 410z" />
    <glyph glyph-name="psi" unicode="&#x3c8;" horiz-adv-x="1479" 
d="M635 -18q-122 10 -211 45.5t-152.5 98.5t-98 154t-34.5 216v579h211v-579q0 -137 69 -220t216 -102v1116l209 109v-1225q147 20 215.5 103t68.5 219v579h211v-573q0 -119 -33 -211.5t-96.5 -158t-155.5 -103.5t-210 -47v-269l-209 -108v377z" />
    <glyph glyph-name="omega" unicode="&#x3c9;" horiz-adv-x="1530" 
d="M598 1075q-62 -64 -114 -128.5t-89 -136.5t-57.5 -154t-20.5 -179q0 -83 12 -140t35.5 -92.5t57.5 -51t78 -15.5q34 0 63 12t50.5 36.5t33.5 62t12 88.5v360h211v-360q0 -57 12 -93t35.5 -60.5t51 -35t59.5 -10.5q42 0 76 15t58 50t37 92.5t13 141.5q0 99 -20 178.5
t-56.5 149.5t-88 135t-115.5 135h244q62 -65 108.5 -133t79.5 -145t47 -156.5t14 -159.5q0 -120 -28.5 -214t-80.5 -158.5t-124 -98t-160 -33.5q-57 0 -101 17t-76.5 43.5t-54.5 58.5t-36 62q-15 -33 -41 -65.5t-62 -58t-81 -41.5t-97 -16q-104 0 -176.5 39t-117.5 106.5
t-65 157.5t-20 191q0 92 18 174t51 156.5t79.5 142t103.5 131.5h242z" />
    <glyph glyph-name="iotadieresis" unicode="&#x3ca;" horiz-adv-x="543" 
d="M166 0v1075h211v-1075h-211zM618 1356q0 -28 -11 -53t-30 -43.5t-44 -29.5t-52 -11q-29 0 -54 11t-44.5 29.5t-30.5 43.5t-11 53t11 53.5t30.5 44.5t44.5 30t54 11q27 0 52 -11t44 -30t30 -44.5t11 -53.5zM219 1356q0 -28 -11 -53t-30 -43.5t-44 -29.5t-53 -11t-53.5 11
t-44.5 29.5t-30 43.5t-11 53t11 53.5t30 44.5t44.5 30t53.5 11t53 -11t44 -30t30 -44.5t11 -53.5z" />
    <glyph glyph-name="upsilondieresis" unicode="&#x3cb;" horiz-adv-x="1159" 
d="M1012 463q0 -114 -22.5 -204.5t-73.5 -153t-133.5 -95.5t-202.5 -33q-123 0 -206 33t-133.5 95.5t-72 153t-21.5 204.5v612h211v-614q0 -81 14 -135t42 -87t70 -47t98 -14q54 0 95 14t68.5 47t41.5 87t14 135v614h211v-612zM924 1356q0 -28 -11 -53t-30 -43.5t-44 -29.5
t-52 -11q-29 0 -54 11t-44.5 29.5t-30.5 43.5t-11 53t11 53.5t30.5 44.5t44.5 30t54 11q27 0 52 -11t44 -30t30 -44.5t11 -53.5zM525 1356q0 -28 -11 -53t-30 -43.5t-44 -29.5t-53 -11t-53.5 11t-44.5 29.5t-30 43.5t-11 53t11 53.5t30 44.5t44.5 30t53.5 11t53 -11t44 -30
t30 -44.5t11 -53.5z" />
    <glyph glyph-name="omicrontonos" unicode="&#x3cc;" horiz-adv-x="1167" 
d="M1063 543q0 -134 -37 -239t-102 -178t-154 -111t-192 -38q-102 0 -188.5 40t-150 113.5t-99.5 177t-36 229.5q0 132 37 236t101.5 176.5t152 110.5t189.5 38q103 0 190.5 -39.5t151.5 -112t100.5 -175t36.5 -228.5zM850 537q0 82 -19 148.5t-54.5 113.5t-86.5 72.5
t-115 25.5q-60 0 -107.5 -25.5t-81 -72t-51.5 -111.5t-18 -145q0 -89 19.5 -157t55 -114t85 -70t109.5 -24t108.5 28.5t83 77t53.5 114t19 139.5zM674 1219h-163l200 327h289z" />
    <glyph glyph-name="upsilontonos" unicode="&#x3cd;" horiz-adv-x="1159" 
d="M1012 463q0 -114 -22.5 -204.5t-73.5 -153t-133.5 -95.5t-202.5 -33q-123 0 -206 33t-133.5 95.5t-72 153t-21.5 204.5v612h211v-614q0 -81 14 -135t42 -87t70 -47t98 -14q54 0 95 14t68.5 47t41.5 87t14 135v614h211v-612zM661 1219h-163l200 327h289z" />
    <glyph glyph-name="omegatonos" unicode="&#x3ce;" horiz-adv-x="1530" 
d="M598 1075q-62 -64 -114 -128.5t-89 -136.5t-57.5 -154t-20.5 -179q0 -83 12 -140t35.5 -92.5t57.5 -51t78 -15.5q34 0 63 12t50.5 36.5t33.5 62t12 88.5v360h211v-360q0 -57 12 -93t35.5 -60.5t51 -35t59.5 -10.5q42 0 76 15t58 50t37 92.5t13 141.5q0 99 -20 178.5
t-56.5 149.5t-88 135t-115.5 135h244q62 -65 108.5 -133t79.5 -145t47 -156.5t14 -159.5q0 -120 -28.5 -214t-80.5 -158.5t-124 -98t-160 -33.5q-57 0 -101 17t-76.5 43.5t-54.5 58.5t-36 62q-15 -33 -41 -65.5t-62 -58t-81 -41.5t-97 -16q-104 0 -176.5 39t-117.5 106.5
t-65 157.5t-20 191q0 92 18 174t51 156.5t79.5 142t103.5 131.5h242zM850 1219h-163l200 327h289z" />
    <glyph glyph-name="afii10023" unicode="&#x401;" horiz-adv-x="1260" 
d="M1141 0h-955v1434h924v-209h-709v-355h576v-208h-576v-453h740v-209zM975 1663q0 -28 -11 -53t-30 -43.5t-44 -29.5t-52 -11q-29 0 -54 11t-44.5 29.5t-30.5 43.5t-11 53t11 53.5t30.5 44.5t44.5 30t54 11q27 0 52 -11t44 -30t30 -44.5t11 -53.5zM576 1663q0 -28 -11 -53
t-30 -43.5t-44 -29.5t-53 -11t-53.5 11t-44.5 29.5t-30 43.5t-11 53t11 53.5t30 44.5t44.5 30t53.5 11t53 -11t44 -30t30 -44.5t11 -53.5z" />
    <glyph glyph-name="afii10051" unicode="&#x402;" horiz-adv-x="1731" 
d="M1147 1223h-418v-320q26 30 63.5 53.5t82.5 40t95.5 25t102.5 8.5q127 0 217.5 -39t151.5 -114t91 -183t30 -256v-147q0 -201 -91 -323.5t-268 -176.5l-61 209q103 41 154 110.5t51 186.5v141q0 106 -21 179t-61 118.5t-97.5 65.5t-130.5 20q-96 0 -179 -39.5
t-130 -113.5v-668h-215v1223h-418v211h1051v-211z" />
    <glyph glyph-name="afii10052" unicode="&#x403;" horiz-adv-x="1192" 
d="M401 1223v-1223h-215v1434h924v-211h-709zM569 1526h-168l219 327h287z" />
    <glyph glyph-name="afii10053" unicode="&#x404;" horiz-adv-x="1341" 
d="M1219 252q-39 -65 -88.5 -116t-113.5 -87t-136.5 -54t-155.5 -18q-139 0 -251 54.5t-191 152.5t-121.5 234t-42.5 299t42.5 298.5t121.5 233.5t191 152.5t251 54.5q175 0 294 -69t193 -199l-184 -115q-54 88 -125 131t-180 43q-81 0 -146.5 -27.5t-113.5 -79
t-78.5 -125.5t-42.5 -167h651v-209h-657q7 -105 36 -188.5t78 -142.5t117.5 -90.5t155.5 -31.5q112 0 188 46t131 137z" />
    <glyph glyph-name="afii10054" unicode="&#x405;" horiz-adv-x="1282" 
d="M1147 412q0 -97 -31.5 -177t-96.5 -137.5t-165 -89t-238 -31.5q-78 0 -150.5 16.5t-137 46.5t-121 73t-101.5 96l154 149q36 -39 80 -70.5t92 -53.5t99 -34t102 -12q152 0 224.5 52t72.5 157q0 42 -17 74t-55 59.5t-100 52.5t-152 52q-114 34 -198 68t-139.5 80.5
t-83 112t-27.5 161.5q0 93 37 167t100.5 125.5t150 79t185.5 27.5q82 -1 144.5 -14t121 -40t105.5 -59.5t98 -80.5l-152 -154q-41 41 -74 63t-68.5 38t-83 26t-108.5 10q-63 0 -108 -14.5t-74.5 -38.5t-43 -56.5t-13.5 -68.5q0 -38 14 -67t49.5 -54.5t96 -49.5t153.5 -52
q106 -32 191 -67.5t144.5 -84.5t91.5 -116.5t32 -163.5z" />
    <glyph glyph-name="afii10055" unicode="&#x406;" horiz-adv-x="608" 
d="M197 0v1434h215v-1434h-215z" />
    <glyph glyph-name="afii10056" unicode="&#x407;" horiz-adv-x="608" 
d="M197 0v1434h215v-1434h-215zM645 1663q0 -28 -11 -53t-30 -43.5t-44 -29.5t-52 -11q-29 0 -54 11t-44.5 29.5t-30.5 43.5t-11 53t11 53.5t30.5 44.5t44.5 30t54 11q27 0 52 -11t44 -30t30 -44.5t11 -53.5zM246 1663q0 -28 -11 -53t-30 -43.5t-44 -29.5t-53 -11t-53.5 11
t-44.5 29.5t-30 43.5t-11 53t11 53.5t30 44.5t44.5 30t53.5 11t53 -11t44 -30t30 -44.5t11 -53.5z" />
    <glyph glyph-name="afii10057" unicode="&#x408;" horiz-adv-x="1235" 
d="M1059 565q0 -289 -125.5 -438.5t-384.5 -149.5q-101 0 -181.5 26t-142 75t-105.5 119.5t-71 160.5l209 62q20 -53 45 -93t58.5 -70t81.5 -47t112 -17q78 0 132.5 22.5t89.5 69.5t51 121t16 176v852h215v-869z" />
    <glyph glyph-name="afii10058" unicode="&#x409;" horiz-adv-x="2134" 
d="M1200 899h373q99 0 183.5 -28t146 -84.5t96.5 -140.5t35 -195t-35 -195t-98 -141t-150.5 -86t-191.5 -29h-574v1225h-448l-107 -748q-29 -201 -120.5 -323.5t-241.5 -176.5l-62 209q91 42 142.5 111.5t68.5 185.5l135 951h848v-535zM1815 451q0 112 -65 178.5t-181 66.5
h-369v-493h369q124 0 185 66t61 182z" />
    <glyph glyph-name="afii10059" unicode="&#x40a;" horiz-adv-x="2185" 
d="M1235 899h373q99 0 183 -28t145.5 -84.5t96.5 -140.5t35 -195t-35 -195t-98 -141t-150 -86t-192 -29h-573v696h-619v-696h-215v1434h215v-535h619v535h215v-535zM1849 451q0 112 -64.5 178.5t-180.5 66.5h-369v-493h369q123 0 184 66t61 182z" />
    <glyph glyph-name="afii10060" unicode="&#x40b;" horiz-adv-x="1731" 
d="M1147 1223h-418v-297q26 30 63.5 53.5t82.5 40t95.5 25t102.5 8.5q125 0 216 -38.5t153.5 -116t91.5 -188t29 -249.5v-461h-215v461q0 106 -21 179t-61 118.5t-97.5 65.5t-130.5 20q-96 0 -179 -40t-130 -114v-690h-215v1223h-418v211h1051v-211z" />
    <glyph glyph-name="afii10061" unicode="&#x40c;" horiz-adv-x="1403" 
d="M1317 0h-244l-411 735l-267 -321v-414h-209v1434h209v-732l586 732h244l-420 -521zM661 1525h-168l219 327h287z" />
    <glyph glyph-name="afii10062" unicode="&#x40e;" horiz-adv-x="1343" 
d="M1044 1434h242l-717 -1434h-227l221 432l-514 1002h252l371 -762zM672 1526q-83 0 -153.5 21t-123 59t-84 90t-37.5 114h156q6 -29 26 -53.5t51.5 -42t73 -27.5t91.5 -10q49 0 90.5 10t73 27.5t51.5 42t26 53.5h156q-5 -62 -36.5 -114t-84 -90t-123 -59t-153.5 -21z" />
    <glyph glyph-name="afii10145" unicode="&#x40f;" horiz-adv-x="1462" 
d="M1276 0h-434l-15 -352h-204v352h-437v1434h215v-1225h660v1225h215v-1434z" />
    <glyph glyph-name="afii10017" unicode="&#x410;" horiz-adv-x="1458" 
d="M1362 0h-229l-121 340h-574l-119 -340h-223l516 1434h228zM946 532l-223 639l-219 -639h442z" />
    <glyph glyph-name="afii10018" unicode="&#x411;" horiz-adv-x="1403" 
d="M1040 440q0 115 -67.5 179.5t-192.5 64.5h-383v-487h377q133 0 199.5 60.5t66.5 182.5zM397 1225v-346h389q112 0 199.5 -30t147.5 -87t91 -138.5t31 -183.5q0 -105 -29.5 -185.5t-92.5 -138t-153.5 -87t-215.5 -29.5h-578v1434h981v-209h-770z" />
    <glyph glyph-name="afii10019" unicode="&#x412;" horiz-adv-x="1382" 
d="M1247 440q0 -218 -128 -329t-363 -111h-570v1434h590q94 0 170 -24.5t130 -71.5t83 -116.5t29 -160.5q0 -55 -14 -99.5t-38 -79.5t-57.5 -62t-72.5 -46q42 -12 85 -37.5t77.5 -66.5t56.5 -98t22 -132zM973 1049q0 40 -11 74t-34.5 59.5t-61.5 40t-92 14.5h-385v-371h385
q53 0 90.5 15t61.5 40.5t35.5 58.5t11.5 69zM1032 434q0 53 -14 93.5t-44.5 74t-77.5 51.5t-118 19h-389v-475h383q72 0 121.5 17t80 48.5t44.5 75t14 96.5z" />
    <glyph glyph-name="afii10020" unicode="&#x413;" horiz-adv-x="1192" 
d="M401 1223v-1223h-215v1434h924v-211h-709z" />
    <glyph glyph-name="afii10021" unicode="&#x414;" horiz-adv-x="1417" 
d="M1018 1225h-455l-51 -371q-13 -97 -25 -173t-23.5 -136t-22.5 -106.5t-22 -86t-22.5 -74t-23.5 -69.5h645v1016zM379 1434h854v-1225h133v-561h-205l-14 352h-871l-14 -352h-205v561h101q18 53 34.5 105.5t33 124t33.5 170.5t38 245z" />
    <glyph glyph-name="afii10022" unicode="&#x415;" horiz-adv-x="1260" 
d="M1141 0h-955v1434h924v-209h-709v-355h576v-208h-576v-453h740v-209z" />
    <glyph glyph-name="afii10024" unicode="&#x416;" horiz-adv-x="2157" 
d="M1180 1434v-695l555 695h243l-419 -521l512 -913h-244l-412 735l-235 -284v-451h-209v442l-242 293l-405 -735h-238l506 905l-426 529h250l555 -695v695h209z" />
    <glyph glyph-name="afii10025" unicode="&#x417;" horiz-adv-x="1227" 
d="M621 842q57 0 97.5 17t66.5 45t38.5 64t12.5 74q0 42 -14 80.5t-43.5 67.5t-75 46t-109.5 17q-108 0 -189 -35t-149 -106l-147 150q96 92 210 143t261 51q123 0 212.5 -32t147.5 -86t85.5 -126t27.5 -153q0 -106 -50.5 -181t-142.5 -118q42 -12 85 -38t78 -68.5t57 -101
t22 -134.5q0 -89 -31 -169t-96.5 -140.5t-166 -96t-239.5 -35.5q-156 0 -292 65t-218 167l150 145q70 -78 172 -126t205 -48q78 0 134.5 19.5t93 52.5t54 76.5t17.5 91.5q0 44 -14 85t-43.5 72.5t-76 50.5t-110.5 19h-285v195h265z" />
    <glyph glyph-name="afii10026" unicode="&#x418;" horiz-adv-x="1462" 
d="M1063 1434h213v-1434h-215v1074l-662 -1074h-213v1434h215v-1075z" />
    <glyph glyph-name="afii10027" unicode="&#x419;" horiz-adv-x="1462" 
d="M1063 1434h213v-1434h-215v1074l-662 -1074h-213v1434h215v-1075zM731 1526q-83 0 -153.5 21t-123 59t-84 90t-37.5 114h156q6 -29 26 -53.5t51.5 -42t73 -27.5t91.5 -10q49 0 90.5 10t73 27.5t51.5 42t26 53.5h156q-5 -62 -36.5 -114t-84 -90t-123 -59t-153.5 -21z" />
    <glyph glyph-name="afii10028" unicode="&#x41a;" horiz-adv-x="1403" 
d="M1317 0h-244l-411 735l-267 -321v-414h-209v1434h209v-732l586 732h244l-420 -521z" />
    <glyph glyph-name="afii10029" unicode="&#x41b;" horiz-adv-x="1382" 
d="M426 477q-15 -101 -44.5 -181t-75.5 -141.5t-106 -105.5t-137 -72l-61 209q47 22 82.5 50t61.5 64t41.5 78t25.5 105l135 951h850v-1434h-215v1225h-451z" />
    <glyph glyph-name="afii10030" unicode="&#x41c;" horiz-adv-x="1655" 
d="M1468 0h-211v990l-436 -1013l-432 1013v-990h-203v1434h222l420 -998l411 998h229v-1434z" />
    <glyph glyph-name="afii10031" unicode="&#x41d;" horiz-adv-x="1462" 
d="M1061 0v639h-660v-639h-215v1434h215v-580h660v580h215v-1434h-215z" />
    <glyph glyph-name="afii10032" unicode="&#x41e;" horiz-adv-x="1456" 
d="M1339 719q0 -168 -44.5 -304.5t-125.5 -234t-194 -150.5t-250 -53q-136 0 -248 52.5t-192 149t-124 232.5t-44 304q0 167 44.5 304t125.5 234t193.5 150t248.5 53q137 0 249.5 -52.5t192.5 -149t124 -232.5t44 -303zM1120 715q0 122 -30 219.5t-83 166t-125.5 105.5
t-158.5 37q-85 0 -156 -36t-122.5 -104t-80 -165t-28.5 -219t29.5 -220t82 -166.5t125 -105.5t158.5 -37q85 0 156.5 36t123 104t80.5 165.5t29 219.5z" />
    <glyph glyph-name="afii10033" unicode="&#x41f;" horiz-adv-x="1462" 
d="M1061 0v1225h-660v-1225h-215v1434h1090v-1434h-215z" />
    <glyph glyph-name="afii10034" unicode="&#x420;" horiz-adv-x="1337" 
d="M1247 985q0 -111 -35 -195t-98 -140.5t-150 -85.5t-192 -29h-375v-535h-211v1434h600q99 0 183.5 -28.5t146 -84.5t96.5 -140.5t35 -195.5zM1028 985q0 59 -17.5 105t-49.5 77.5t-77.5 47.5t-101.5 16h-385v-494h385q124 0 185 66t61 182z" />
    <glyph glyph-name="afii10035" unicode="&#x421;" horiz-adv-x="1341" 
d="M1022 1069q-28 44 -57 76.5t-64 53.5t-78 31.5t-98 10.5q-94 0 -166 -36.5t-120.5 -105t-73.5 -165.5t-25 -217q0 -121 25 -218t73.5 -165t120.5 -104.5t166 -36.5q112 0 186 45t129 133l179 -119q-50 -80 -94.5 -122.5t-100 -76t-130 -55t-169.5 -21.5q-102 0 -183.5 27
t-147.5 74t-119.5 117.5t-85.5 146.5t-51 170t-19 205q0 163 42.5 298.5t121.5 233.5t191 152.5t251 54.5q175 0 294 -69t193 -199z" />
    <glyph glyph-name="afii10036" unicode="&#x422;" horiz-adv-x="1243" 
d="M729 1223v-1223h-215v1223h-418v211h1051v-211h-418z" />
    <glyph glyph-name="afii10037" unicode="&#x423;" horiz-adv-x="1343" 
d="M1044 1434h242l-717 -1434h-227l221 432l-514 1002h252l371 -762z" />
    <glyph glyph-name="afii10038" unicode="&#x424;" horiz-adv-x="1841" 
d="M1026 248q127 0 218 34t149 96t85 148t27 191q0 104 -27 190.5t-85 148.5t-149 96t-218 34v-938zM815 1186q-128 0 -218.5 -34t-148.5 -96t-85 -148.5t-27 -190.5q0 -105 27 -191t85 -148t148.5 -96t218.5 -34v938zM815 1503h211v-114q144 0 271.5 -38.5t222 -120
t149.5 -209t55 -304.5t-56.5 -304.5t-152 -209t-222 -120t-267.5 -38.5v-117h-211v117q-141 0 -267.5 38.5t-222 120t-152 209t-56.5 304.5t55 304.5t149.5 209t222 120t271.5 38.5v114z" />
    <glyph glyph-name="afii10039" unicode="&#x425;" horiz-adv-x="1350" 
d="M1258 0h-257l-319 554l-317 -554h-252l444 740l-416 694h256l289 -509l291 509h252l-416 -692z" />
    <glyph glyph-name="afii10040" unicode="&#x426;" horiz-adv-x="1462" 
d="M1276 209h133v-561h-205l-14 352h-1004v1434h215v-1225h660v1225h215v-1225z" />
    <glyph glyph-name="afii10041" unicode="&#x427;" horiz-adv-x="1362" 
d="M342 1122q0 -106 21 -179t60.5 -118.5t97 -65.5t130.5 -20q48 0 93.5 10.5t86 30t74 48t56.5 65.5v541h215v-1434h-215v657q-26 -30 -63.5 -53.5t-82.5 -40t-96 -25t-103 -8.5q-127 0 -216.5 39.5t-152.5 117t-91.5 189.5t-28.5 246v312h215v-312z" />
    <glyph glyph-name="afii10042" unicode="&#x428;" horiz-adv-x="1980" 
d="M1794 0h-1608v1434h215v-1225h482v1225h215v-1225h481v1225h215v-1434z" />
    <glyph glyph-name="afii10043" unicode="&#x429;" horiz-adv-x="1980" 
d="M1794 209h133v-561h-205l-14 352h-1522v1434h215v-1225h482v1225h215v-1225h481v1225h215v-1225z" />
    <glyph glyph-name="afii10044" unicode="&#x42a;" horiz-adv-x="1520" 
d="M1149 451q0 112 -64.5 178.5t-181.5 66.5h-368v-493h368q124 0 185 66t61 182zM535 899h372q99 0 183.5 -28t146 -84.5t96.5 -140.5t35 -195t-35 -195t-98 -141t-150.5 -86t-191.5 -29h-574v1225h-319v209h535v-535z" />
    <glyph glyph-name="afii10045" unicode="&#x42b;" horiz-adv-x="1876" 
d="M401 899h373q99 0 183.5 -28t146 -84.5t96.5 -140.5t35 -195t-35 -195t-98 -141t-150.5 -86t-191.5 -29h-574v1434h215v-535zM1016 451q0 115 -65.5 180t-180.5 65h-369v-493h369q124 0 185 66t61 182zM1475 0v1434h215v-1434h-215z" />
    <glyph glyph-name="afii10046" unicode="&#x42c;" horiz-adv-x="1386" 
d="M401 899h373q99 0 183.5 -28t146 -84.5t96.5 -140.5t35 -195t-35 -195t-98 -141t-150.5 -86t-191.5 -29h-574v1434h215v-535zM1016 451q0 114 -66 179.5t-180 65.5h-369v-493h369q124 0 185 66t61 182z" />
    <glyph glyph-name="afii10047" unicode="&#x42d;" horiz-adv-x="1341" 
d="M299 369q56 -91 131.5 -137t187.5 -46q87 0 155.5 31.5t117.5 90.5t78 142.5t37 188.5h-658v209h651q-13 93 -43.5 167t-78.5 125.5t-113 79t-146 27.5q-110 0 -181 -44t-124 -130l-184 115q39 64 84 112t109.5 85t140 54t164.5 17q142 0 253 -54.5t187 -152.5
t116 -233.5t40 -298.5t-42.5 -299t-121.5 -234t-191.5 -152.5t-251.5 -54.5q-85 0 -152.5 16.5t-133.5 52.5t-117 87t-90 119z" />
    <glyph glyph-name="afii10048" unicode="&#x42e;" horiz-adv-x="2001" 
d="M401 854h269q18 138 69 249t129.5 189.5t181 121t224.5 42.5q136 0 248.5 -52.5t193 -149t124.5 -232.5t44 -303q0 -168 -45 -304.5t-126 -234t-194 -150.5t-249 -53q-128 0 -235 47t-186.5 133t-127 208.5t-57.5 273.5h-263v-639h-215v1434h215v-580zM1665 715
q0 122 -30 219.5t-83 166t-125.5 105.5t-158.5 37t-157 -36t-122 -104t-79.5 -165t-28.5 -219t29.5 -220t82 -166.5t125 -105.5t158.5 -37q85 0 156.5 36t123 104t80.5 165.5t29 219.5z" />
    <glyph glyph-name="afii10049" unicode="&#x42f;" horiz-adv-x="1403" 
d="M168 1001q0 108 33.5 189t93 135t141 81.5t176.5 27.5h600v-1434h-211v567h-395l-280 -567h-238l305 614q-105 48 -165 145t-60 242zM387 997q0 -109 58 -172t176 -63h380v469h-380q-53 0 -96.5 -15.5t-74 -45.5t-47 -73.5t-16.5 -99.5z" />
    <glyph glyph-name="afii10065" unicode="&#x430;" horiz-adv-x="1126" 
d="M772 0v106q-41 -38 -68 -55.5t-56 -33t-73.5 -28t-97.5 -12.5q-65 0 -131.5 19.5t-120 63t-87.5 112.5t-34 168q0 90 32.5 155.5t90 108.5t136 63.5t169.5 20.5q85 0 143 -11.5t97 -29.5v80q0 88 -52 135t-151 47q-83 0 -150 -16t-130 -51l-82 159q77 48 165.5 72.5
t202.5 24.5q90 0 164.5 -22t127.5 -67t82.5 -113t29.5 -159v-737h-207zM772 459q-30 14 -54 21.5t-50 13t-62.5 9t-79.5 3.5q-102 0 -161.5 -43t-59.5 -117q0 -48 17 -81.5t43 -54.5t61.5 -31.5t85.5 -10.5q42 0 81 12t73 31.5t61 44t45 49.5v154z" />
    <glyph glyph-name="afii10066" unicode="&#x431;" horiz-adv-x="1190" 
d="M874 524q0 81 -18 147t-52.5 112.5t-83.5 72t-110 25.5q-57 0 -103 -25t-78.5 -71t-49.5 -110.5t-17 -142.5q0 -87 19 -154t53 -112.5t81.5 -69.5t105.5 -24q57 0 104 28t80 76t51 112t18 136zM809 1309q-103 0 -187 -31.5t-143.5 -84.5t-92 -123.5t-32.5 -149.5
q53 77 121.5 116t159.5 39q101 0 184 -39t142 -110t91.5 -171.5t32.5 -224.5q0 -131 -36 -233.5t-99 -173.5t-149 -108.5t-187 -37.5q-98 0 -182 39.5t-145.5 111.5t-96 173.5t-34.5 224.5v379q0 139 50 248.5t137.5 185t207 115t258.5 39.5q45 0 93 4.5t108 15.5v-184
q-44 -9 -95.5 -14.5t-105.5 -5.5z" />
    <glyph glyph-name="afii10067" unicode="&#x432;" horiz-adv-x="1110" 
d="M680 1075q70 0 127 -18t97.5 -53.5t62.5 -88t22 -120.5q0 -72 -35.5 -127t-107.5 -88q31 -9 62 -28t56 -50t40.5 -73.5t15.5 -98.5q0 -75 -20.5 -135.5t-68 -104.5t-115.5 -67t-165 -23h-495v1075h524zM776 776q0 57 -33 91t-100 34h-281v-248h281q63 0 98 34.5t35 88.5z
M809 326q0 71 -42.5 112t-121.5 41h-283v-305h279q86 0 127 39t41 113z" />
    <glyph glyph-name="afii10068" unicode="&#x433;" horiz-adv-x="887" 
d="M367 891v-891h-211v1075h723v-184h-512z" />
    <glyph glyph-name="afii10069" unicode="&#x434;" horiz-adv-x="1122" 
d="M975 174h100v-461h-201l-12 287h-635l-12 -287h-201v461h78q13 41 25.5 81t25 94t26 129t28.5 186l57 411h721v-901zM764 174v727h-330l-33 -237q-16 -111 -29 -186t-25 -129t-24 -94t-26 -81h467z" />
    <glyph glyph-name="afii10070" unicode="&#x435;" horiz-adv-x="1135" 
d="M1028 559q0 -29 -2 -54t-4 -42h-711q9 -78 34 -133.5t61 -91.5t81.5 -53t94.5 -17q35 0 66 6t59.5 18t50.5 24.5t57 37.5l125 -135q-40 -38 -76.5 -61.5t-79 -42t-96.5 -28.5t-119 -10q-70 0 -131 19.5t-108 51t-84.5 72t-71.5 104t-52 142t-18 171.5q0 136 34.5 241
t96.5 176t149 107.5t191 36.5q115 0 200 -43.5t141 -117t84 -171.5t28 -207zM815 637q-4 55 -19.5 104t-46 86t-77 58.5t-111.5 21.5q-56 0 -98 -18.5t-72 -52.5t-49.5 -83.5t-26.5 -115.5h500z" />
    <glyph glyph-name="afii10072" unicode="&#x436;" horiz-adv-x="1642" 
d="M715 317l-168 218l-234 -535h-225l320 709l-277 366h244l342 -477v477l209 111v-588l340 477h239l-272 -360l323 -715h-229l-237 535l-164 -218v-317h-211v317z" />
    <glyph glyph-name="afii10073" unicode="&#x437;" horiz-adv-x="954" 
d="M254 653h205q43 0 74.5 11t52 29t30 40.5t9.5 46.5q0 27 -10.5 51.5t-33 43t-57 29.5t-82.5 11q-78 0 -146 -24t-136 -74l-92 162q72 53 167 86t197 33q105 0 180 -24t124 -65t72 -96t23 -116q0 -43 -13 -78t-36 -63t-54.5 -49t-68.5 -36q36 -8 72.5 -28t66 -52.5t48 -77
t18.5 -102.5q0 -68 -26 -128.5t-80 -106t-137 -72.5t-197 -27q-110 0 -219.5 43.5t-171.5 94.5l94 159q74 -57 153 -85.5t154 -28.5q58 0 99.5 13t68 35.5t39 52.5t12.5 63q0 30 -10.5 57.5t-33 49.5t-57.5 35t-83 13h-215v174z" />
    <glyph glyph-name="afii10074" unicode="&#x438;" horiz-adv-x="1167" 
d="M809 1075h211v-1075h-211v726l-442 -726h-211v1075h211v-727z" />
    <glyph glyph-name="afii10075" unicode="&#x439;" horiz-adv-x="1167" 
d="M809 1075h211v-1075h-211v726l-442 -726h-211v1075h211v-727zM587 1178q-74 0 -137.5 19t-110.5 53t-76 81t-34 103h141q6 -26 24 -48.5t46 -38.5t65.5 -25t81.5 -9q46 0 82.5 9t65 25t46 38t23.5 49h142q-6 -56 -34.5 -103t-76 -81t-110.5 -53t-138 -19z" />
    <glyph glyph-name="afii10076" unicode="&#x43a;" horiz-adv-x="1083" 
d="M707 1075h239l-272 -360l323 -715h-229l-238 535l-163 -218v-317h-211v1075l211 111v-588z" />
    <glyph glyph-name="afii10077" unicode="&#x43b;" horiz-adv-x="1149" 
d="M387 358q-22 -154 -104 -247t-213 -134l-54 185q68 26 111.5 74t54.5 126l99 713h720v-1075h-210v891h-328z" />
    <glyph glyph-name="afii10078" unicode="&#x43c;" horiz-adv-x="1374" 
d="M1016 0v736l-326 -752l-323 752v-736h-211v1075h268l270 -640l264 640h269v-1075h-211z" />
    <glyph glyph-name="afii10079" unicode="&#x43d;" horiz-adv-x="1167" 
d="M1020 1075v-1075h-211v479h-442v-479h-211v1075h211v-411h442v411h211z" />
    <glyph glyph-name="afii10080" unicode="&#x43e;" horiz-adv-x="1167" 
d="M1063 543q0 -134 -37 -239t-102 -178t-154 -111t-192 -38q-102 0 -188.5 40t-150 113.5t-99.5 177t-36 229.5q0 132 37 236t101.5 176.5t152 110.5t189.5 38q103 0 190.5 -39.5t151.5 -112t100.5 -175t36.5 -228.5zM850 537q0 82 -19 148.5t-54.5 113.5t-86.5 72.5
t-115 25.5q-60 0 -107.5 -25.5t-81 -72t-51.5 -111.5t-18 -145q0 -89 19.5 -157t55 -114t85 -70t109.5 -24t108.5 28.5t83 77t53.5 114t19 139.5z" />
    <glyph glyph-name="afii10081" unicode="&#x43f;" horiz-adv-x="1167" 
d="M1020 1075v-1075h-211v891h-442v-891h-211v1075h864z" />
    <glyph glyph-name="afii10082" unicode="&#x440;" horiz-adv-x="1167" 
d="M1059 520q0 -138 -35 -240t-93.5 -169.5t-135 -100.5t-160.5 -33q-71 0 -141.5 31t-128.5 92v-387l-209 -108v1470h209v-102q58 54 126.5 89.5t153.5 35.5q87 0 162.5 -32.5t131.5 -102.5t88 -179.5t32 -263.5zM848 514q0 202 -62.5 295.5t-179.5 93.5q-65 0 -129 -36.5
t-115 -100.5v-453q18 -24 44.5 -49t59.5 -45.5t70.5 -33.5t77.5 -13q115 0 174.5 85.5t59.5 256.5z" />
    <glyph glyph-name="afii10083" unicode="&#x441;" horiz-adv-x="1069" 
d="M954 178q-32 -40 -68.5 -76.5t-82.5 -64t-103.5 -44t-130.5 -16.5q-98 0 -183 40t-147.5 113t-98.5 176t-36 229q0 133 36.5 238t100.5 177t150 110t184 38q119 0 212.5 -46.5t168.5 -136.5l-125 -149q-38 38 -65 59.5t-59.5 38.5t-66 25t-71.5 8q-57 0 -103.5 -25
t-79.5 -71t-51 -112t-18 -148q0 -79 17 -145.5t49.5 -115t80.5 -75.5t111 -27q38 0 69 8.5t59.5 25t56 41.5t59.5 58z" />
    <glyph glyph-name="afii10084" unicode="&#x442;" horiz-adv-x="901" 
d="M563 891v-891h-211v891h-325v184h864v-184h-328z" />
    <glyph glyph-name="afii10085" unicode="&#x443;" horiz-adv-x="1139" 
d="M530 -379h-223l156 399l-395 1055h231l270 -810l279 810h223z" />
    <glyph glyph-name="afii10086" unicode="&#x444;" horiz-adv-x="1677" 
d="M1358 514q0 125 -12.5 185.5t-41 109.5t-67 71.5t-86.5 22.5q-60 0 -114.5 -38.5t-94.5 -98.5v-453q34 -55 95 -98t120 -43q99 0 150 85.5t51 256.5zM733 -395v495q-46 -56 -111.5 -89.5t-132.5 -33.5q-75 0 -144 33t-121.5 100.5t-83.5 169.5t-31 240q0 154 28.5 263.5
t79 179.5t118.5 102.5t146 32.5q76 0 138 -35.5t114 -89.5v409l211 111v-520q53 54 115 89.5t137 35.5q78 0 146.5 -32.5t118.5 -102.5t79 -179.5t29 -263.5q0 -138 -31.5 -240t-84 -169.5t-121.5 -100.5t-144 -33q-64 0 -128 31.5t-116 91.5v-387zM319 514
q0 -171 51 -256.5t150 -85.5q59 0 117.5 40.5t97.5 100.5v453q-44 63 -97.5 100t-111.5 37q-46 0 -84 -20.5t-66 -67.5t-42.5 -118t-14.5 -183z" />
    <glyph glyph-name="afii10087" unicode="&#x445;" horiz-adv-x="1087" 
d="M756 0l-215 389l-222 -389h-237l338 557l-316 518h244l197 -356l196 356h242l-317 -518l340 -557h-250z" />
    <glyph glyph-name="afii10088" unicode="&#x446;" horiz-adv-x="1167" 
d="M1020 1075v-891h102v-473l-204 -106v395h-762v1075h211v-891h442v891h211z" />
    <glyph glyph-name="afii10089" unicode="&#x447;" horiz-adv-x="1090" 
d="M942 0h-211v479q-19 -24 -47 -44t-62 -33.5t-72 -21t-77 -7.5q-181 0 -274 116t-93 345v241h211v-241q0 -74 14 -125t40.5 -82.5t65 -45.5t87.5 -14q63 0 119.5 26.5t87.5 74.5v407h211v-1075z" />
    <glyph glyph-name="afii10090" unicode="&#x448;" horiz-adv-x="1763" 
d="M1616 0h-1460v1075h211v-891h413v891h211v-891h414v891h211v-1075z" />
    <glyph glyph-name="afii10091" unicode="&#x449;" horiz-adv-x="1763" 
d="M1616 1075v-891h102v-473l-205 -106v395h-1357v1075h211v-891h413v891h211v-891h414v891h211z" />
    <glyph glyph-name="afii10092" unicode="&#x44a;" horiz-adv-x="1182" 
d="M909 348q0 85 -46.5 129.5t-127.5 44.5h-268v-348h268q88 0 131 47t43 127zM467 696h297q77 0 142 -21.5t112.5 -65t74.5 -108.5t27 -151t-27 -151.5t-75.5 -109.5t-116.5 -66.5t-149 -22.5h-496v901h-256v174h467v-379z" />
    <glyph glyph-name="afii10093" unicode="&#x44b;" horiz-adv-x="1581" 
d="M367 696h297q76 0 141.5 -21.5t113 -65t74.5 -108.5t27 -151t-27 -151.5t-76 -109.5t-117 -66.5t-149 -22.5h-495v1075h211v-379zM809 348q0 85 -47 129.5t-127 44.5h-268v-348h268q88 0 131 47t43 127zM1214 0v1075h211v-1075h-211z" />
    <glyph glyph-name="afii10094" unicode="&#x44c;" horiz-adv-x="1081" 
d="M367 696h297q76 0 141.5 -21.5t113 -65t74.5 -108.5t27 -151t-27 -151.5t-76 -109.5t-117 -66.5t-149 -22.5h-495v1075h211v-379zM809 348q0 85 -47 129.5t-127 44.5h-268v-348h268q88 0 131 47t43 127z" />
    <glyph glyph-name="afii10095" unicode="&#x44d;" horiz-adv-x="1069" 
d="M311 653h432q-22 118 -85.5 185t-157.5 67q-73 0 -136.5 -32t-130.5 -103l-120 145q77 90 173 136.5t218 46.5q100 0 185 -38t146 -110t95.5 -177t34.5 -238q0 -126 -36 -229t-98.5 -176t-147.5 -113t-183 -40q-73 0 -130.5 16.5t-103.5 44t-83 64t-68 76.5l131 129
q56 -64 113.5 -100.5t134.5 -36.5q106 0 173.5 81t82.5 228h-439v174z" />
    <glyph glyph-name="afii10096" unicode="&#x44e;" horiz-adv-x="1624" 
d="M367 664h202q17 103 59.5 183.5t104.5 136t140.5 85t166.5 29.5q103 0 191 -39.5t152 -112t100.5 -175t36.5 -228.5q0 -134 -37 -239t-102 -178t-154 -111t-193 -38q-96 0 -178.5 36t-145 101.5t-101 158t-46.5 206.5h-196v-479h-211v1075h211v-411zM1307 537
q0 82 -19 148.5t-54.5 113.5t-86.5 72.5t-115 25.5q-60 0 -108 -25.5t-81 -72t-51 -111.5t-18 -145q0 -89 19.5 -157t55 -114t84.5 -70t109 -24t109 28.5t83.5 77t53.5 114t19 139.5z" />
    <glyph glyph-name="afii10097" unicode="&#x44f;" horiz-adv-x="1130" 
d="M119 752q0 81 25.5 141.5t70 101t105.5 60.5t133 20h530v-1075h-207v426h-280l-211 -426h-226l230 461q-79 35 -124.5 108t-45.5 183zM330 750q0 -70 37.5 -110t111.5 -40h297v301h-297q-68 0 -108.5 -38.5t-40.5 -112.5z" />
    <glyph glyph-name="afii10071" unicode="&#x451;" horiz-adv-x="1135" 
d="M1028 559q0 -29 -2 -54t-4 -42h-711q9 -78 34 -133.5t61 -91.5t81.5 -53t94.5 -17q35 0 66 6t59.5 18t50.5 24.5t57 37.5l125 -135q-40 -38 -76.5 -61.5t-79 -42t-96.5 -28.5t-119 -10q-70 0 -131 19.5t-108 51t-84.5 72t-71.5 104t-52 142t-18 171.5q0 136 34.5 241
t96.5 176t149 107.5t191 36.5q115 0 200 -43.5t141 -117t84 -171.5t28 -207zM815 637q-4 55 -19.5 104t-46 86t-77 58.5t-111.5 21.5q-56 0 -98 -18.5t-72 -52.5t-49.5 -83.5t-26.5 -115.5h500zM903 1348q0 -28 -11 -53t-30 -43.5t-44 -29.5t-52 -11q-29 0 -54 11
t-44.5 29.5t-30.5 43.5t-11 53t11 53.5t30.5 44.5t44.5 30t54 11q27 0 52 -11t44 -30t30 -44.5t11 -53.5zM504 1348q0 -28 -11 -53t-30 -43.5t-44 -29.5t-53 -11t-53.5 11t-44.5 29.5t-30 43.5t-11 53t11 53.5t30 44.5t44.5 30t53.5 11t53 -11t44 -30t30 -44.5t11 -53.5z
" />
    <glyph glyph-name="afii10099" unicode="&#x452;" horiz-adv-x="1182" 
d="M381 1190v-307q43 60 114 92.5t156 32.5q98 0 169 -31.5t119 -92t71.5 -152t23.5 -206.5v-422q0 -202 -82.5 -323.5t-244.5 -175.5l-54 184q86 41 128 110.5t42 186.5v432q0 81 -15 137.5t-43.5 91.5t-69.5 50.5t-93 15.5q-51 0 -92 -17t-69.5 -52t-44 -84t-15.5 -121
v-539h-211v1190h-170v133h170v59l211 111v-170h442v-133h-442z" />
    <glyph glyph-name="afii10100" unicode="&#x453;" horiz-adv-x="887" 
d="M367 891v-891h-211v1075h723v-184h-512zM454 1219h-163l200 327h289z" />
    <glyph glyph-name="afii10101" unicode="&#x454;" horiz-adv-x="1069" 
d="M758 479h-441q10 -132 77.5 -220.5t180.5 -88.5q38 0 69.5 8.5t61 25.5t57.5 42.5t60 60.5l131 -129q-32 -40 -68.5 -76.5t-82.5 -64t-103.5 -44t-130.5 -16.5q-98 0 -183 40t-147.5 113t-98.5 176t-36 229q0 133 36.5 238t100.5 177t150 110t184 38q61 0 114 -12
t102.5 -37t87 -56.5t77.5 -77.5l-120 -145q-37 39 -67.5 63t-62.5 40t-66.5 24t-70.5 8q-96 0 -160 -67t-85 -185h434v-174z" />
    <glyph glyph-name="afii10102" unicode="&#x455;" horiz-adv-x="1022" 
d="M864 979l-92 -162q-66 47 -133.5 69.5t-144.5 22.5q-78 0 -113 -27.5t-35 -70.5q0 -20 8.5 -38t30.5 -36t60.5 -38t99.5 -44q90 -35 157.5 -67t113 -71.5t68.5 -92.5t23 -129q0 -89 -33.5 -150t-89 -98.5t-128.5 -53.5t-152 -16q-102 0 -214.5 37.5t-197.5 100.5l96 159
q76 -52 157 -79t157 -27q100 0 148 31t48 88q0 31 -17 54.5t-49.5 44t-78.5 40t-104 41.5q-87 34 -147.5 67t-98 72t-54 87t-16.5 112q0 72 27 127t76 91.5t116 55.5t148 19q102 0 197 -33t167 -86z" />
    <glyph glyph-name="afii10103" unicode="&#x456;" horiz-adv-x="543" 
d="M408 1350q0 -28 -11 -52.5t-29.5 -43t-43 -29.5t-52.5 -11t-53 11t-43.5 29.5t-29.5 43t-11 52.5t11 53t29.5 43.5t43.5 29.5t53 11t52.5 -11t43 -29.5t29.5 -43.5t11 -53zM166 0v1075h211v-1075h-211z" />
    <glyph glyph-name="afii10104" unicode="&#x457;" horiz-adv-x="543" 
d="M164 0v1075h211v-1075h-211zM608 1338q0 -28 -11 -53t-30 -43.5t-44 -29.5t-52 -11q-29 0 -54 11t-44.5 29.5t-30.5 43.5t-11 53t11 53.5t30.5 44.5t44.5 30t54 11q27 0 52 -11t44 -30t30 -44.5t11 -53.5zM209 1338q0 -28 -11 -53t-30 -43.5t-44 -29.5t-53 -11t-53.5 11
t-44.5 29.5t-30 43.5t-11 53t11 53.5t30 44.5t44.5 30t53.5 11t53 -11t44 -30t30 -44.5t11 -53.5z" />
    <glyph glyph-name="afii10105" unicode="&#x458;" horiz-adv-x="543" 
d="M408 1350q0 -28 -11 -52.5t-29.5 -43t-43 -29.5t-52.5 -11t-53 11t-43.5 29.5t-29.5 43t-11 52.5t11 53t29.5 43.5t43.5 29.5t53 11t52.5 -11t43 -29.5t29.5 -43.5t11 -53zM377 49q0 -101 -15.5 -174.5t-56 -126t-111.5 -86.5t-182 -57l-71 159q73 21 117.5 41.5t68.5 51
t31.5 75t7.5 113.5v1030h211v-1026z" />
    <glyph glyph-name="afii10106" unicode="&#x459;" horiz-adv-x="1739" 
d="M1004 696h296q77 0 142.5 -21.5t113 -65t74.5 -108.5t27 -151t-27 -151.5t-76 -109.5t-117 -66.5t-149 -22.5h-495v891h-334l-76 -533q-22 -154 -104 -247t-213 -134l-54 185q68 26 111.5 74t54.5 126l98 713h728v-379zM1446 348q0 85 -47 129.5t-127 44.5h-268v-348h268
q88 0 131 47t43 127z" />
    <glyph glyph-name="afii10107" unicode="&#x45a;" horiz-adv-x="1757" 
d="M1020 696h297q77 0 142 -21.5t112.5 -65t74.5 -108.5t27 -151t-27 -151.5t-75.5 -109.5t-116.5 -66.5t-149 -22.5h-496v522h-442v-522h-211v1075h211v-379h442v379h211v-379zM1462 348q0 85 -46.5 129.5t-127.5 44.5h-268v-348h268q88 0 131 47t43 127z" />
    <glyph glyph-name="afii10108" unicode="&#x45b;" horiz-adv-x="1182" 
d="M381 1190v-307q43 60 114 92.5t156 32.5q98 0 169 -31.5t119 -92t71.5 -152t23.5 -206.5v-526h-211v518q0 81 -15 137.5t-43.5 91.5t-69.5 50.5t-93 15.5q-51 0 -92 -17t-69.5 -52t-44 -84t-15.5 -121v-539h-211v1190h-170v133h170v59l211 111v-170h442v-133h-442z" />
    <glyph glyph-name="afii10109" unicode="&#x45c;" horiz-adv-x="1083" 
d="M707 1075h239l-272 -360l323 -715h-229l-238 535l-163 -218v-317h-211v1075l211 111v-588zM535 1219h-168l219 327h287z" />
    <glyph glyph-name="afii10110" unicode="&#x45e;" horiz-adv-x="1139" 
d="M530 -379h-223l156 399l-395 1055h231l270 -810l279 810h223zM569 1178q-74 0 -137.5 19t-110.5 53t-76 81t-34 103h141q6 -26 24 -48.5t46 -38.5t65.5 -25t81.5 -9q46 0 82.5 9t65 25t46 38t23.5 49h142q-6 -56 -34.5 -103t-76 -81t-110.5 -53t-138 -19z" />
    <glyph glyph-name="afii10193" unicode="&#x45f;" horiz-adv-x="1167" 
d="M1020 1075v-1075h-330v-289l-205 -106v395h-329v1075h211v-891h442v891h211z" />
    <glyph glyph-name="afii10050" unicode="&#x490;" horiz-adv-x="1192" 
d="M1110 1223h-709v-1223h-215v1434h719v180l205 106v-497z" />
    <glyph glyph-name="afii10098" unicode="&#x491;" horiz-adv-x="913" 
d="M879 891h-512v-891h-211v1075h534v180l189 99v-463z" />
    <glyph glyph-name="Wgrave" unicode="&#x1e80;" horiz-adv-x="1767" 
d="M1665 1434l-293 -1434h-217l-264 1091l-275 -1091h-213l-292 1434h217l203 -1068l270 1068h184l269 -1068l203 1068h208zM848 1526l-338 327h287l219 -327h-168z" />
    <glyph glyph-name="wgrave" unicode="&#x1e81;" horiz-adv-x="1518" 
d="M1137 0h-181l-200 752l-199 -752h-180l-295 1075h209l180 -738l203 738h170l204 -738l179 738h209zM721 1219l-338 327h287l219 -327h-168z" />
    <glyph glyph-name="Wacute" unicode="&#x1e82;" horiz-adv-x="1767" 
d="M1665 1434l-293 -1434h-217l-264 1091l-275 -1091h-213l-292 1434h217l203 -1068l270 1068h184l269 -1068l203 1068h208zM930 1526h-168l219 327h287z" />
    <glyph glyph-name="wacute" unicode="&#x1e83;" horiz-adv-x="1518" 
d="M1137 0h-181l-200 752l-199 -752h-180l-295 1075h209l180 -738l203 738h170l204 -738l179 738h209zM796 1219h-168l219 327h287z" />
    <glyph glyph-name="Wdieresis" unicode="&#x1e84;" horiz-adv-x="1767" 
d="M1665 1434l-293 -1434h-217l-264 1091l-275 -1091h-213l-292 1434h217l203 -1068l270 1068h184l269 -1068l203 1068h208zM1225 1663q0 -28 -11 -53t-30 -43.5t-44 -29.5t-52 -11q-29 0 -54 11t-44.5 29.5t-30.5 43.5t-11 53t11 53.5t30.5 44.5t44.5 30t54 11q27 0 52 -11
t44 -30t30 -44.5t11 -53.5zM826 1663q0 -28 -11 -53t-30 -43.5t-44 -29.5t-53 -11t-53.5 11t-44.5 29.5t-30 43.5t-11 53t11 53.5t30 44.5t44.5 30t53.5 11t53 -11t44 -30t30 -44.5t11 -53.5z" />
    <glyph glyph-name="wdieresis" unicode="&#x1e85;" horiz-adv-x="1518" 
d="M1137 0h-181l-200 752l-199 -752h-180l-295 1075h209l180 -738l203 738h170l204 -738l179 738h209zM1096 1356q0 -28 -11 -53t-30 -43.5t-44 -29.5t-52 -11q-29 0 -54 11t-44.5 29.5t-30.5 43.5t-11 53t11 53.5t30.5 44.5t44.5 30t54 11q27 0 52 -11t44 -30t30 -44.5
t11 -53.5zM697 1356q0 -28 -11 -53t-30 -43.5t-44 -29.5t-53 -11t-53.5 11t-44.5 29.5t-30 43.5t-11 53t11 53.5t30 44.5t44.5 30t53.5 11t53 -11t44 -30t30 -44.5t11 -53.5z" />
    <glyph glyph-name="Ygrave" unicode="&#x1ef2;" horiz-adv-x="1411" 
d="M1327 1434l-514 -867v-567h-215v567l-514 867h252l371 -657l373 657h247zM791 1495l-338 327h287l219 -327h-168z" />
    <glyph glyph-name="ygrave" unicode="&#x1ef3;" horiz-adv-x="1139" 
d="M530 -379h-223l156 399l-395 1055h231l270 -810l279 810h223zM592 1201l-338 327h287l219 -327h-168z" />
    <glyph glyph-name="endash" unicode="&#x2013;" horiz-adv-x="942" 
d="M113 651v197h716v-197h-716z" />
    <glyph glyph-name="emdash" unicode="&#x2014;" 
d="M113 651v197h1044v-197h-1044z" />
    <glyph glyph-name="quoteleft" unicode="&#x2018;" horiz-adv-x="543" 
d="M381 920h-268l155 514h142z" />
    <glyph glyph-name="quoteright" unicode="&#x2019;" horiz-adv-x="543" 
d="M274 920h-141l29 514h268z" />
    <glyph glyph-name="quotesinglbase" unicode="&#x201a;" horiz-adv-x="543" 
d="M274 -229h-141l29 514h268z" />
    <glyph glyph-name="quotedblleft" unicode="&#x201c;" horiz-adv-x="1024" 
d="M862 920h-268l156 514h141zM381 920h-268l155 514h142z" />
    <glyph glyph-name="quotedblright" unicode="&#x201d;" horiz-adv-x="1024" 
d="M756 920h-142l29 514h268zM274 920h-141l29 514h268z" />
    <glyph glyph-name="quotedblbase" unicode="&#x201e;" horiz-adv-x="1024" 
d="M756 -229h-142l29 514h268zM274 -229h-141l29 514h268z" />
    <glyph glyph-name="dagger" unicode="&#x2020;" horiz-adv-x="1217" 
d="M713 778v-983h-209v983h-391v199h391v457h209v-457h391v-199h-391z" />
    <glyph glyph-name="daggerdbl" unicode="&#x2021;" horiz-adv-x="1217" 
d="M713 252v-457h-209v457h-391v199h391v327h-391v199h391v457h209v-457h391v-199h-391v-327h391v-199h-391z" />
    <glyph glyph-name="bullet" unicode="&#x2022;" horiz-adv-x="881" 
d="M748 750q0 -65 -24 -121t-65.5 -97.5t-98 -65.5t-120.5 -24q-65 0 -121 24t-97 65.5t-65 97.5t-24 121q0 64 24 121t65 99t97 66.5t121 24.5q64 0 120.5 -24.5t98 -66.5t65.5 -99t24 -121z" />
    <glyph glyph-name="ellipsis" unicode="&#x2026;" horiz-adv-x="1561" 
d="M1462 139q0 -33 -13 -62.5t-35 -51.5t-51.5 -35t-62.5 -13t-62.5 13t-51 35t-34.5 51.5t-13 62.5t13 62.5t34.5 52t51 36t62.5 13.5t62.5 -13.5t51.5 -36t35 -52t13 -62.5zM942 139q0 -33 -13 -62.5t-35 -51.5t-51.5 -35t-62.5 -13t-62.5 13t-51.5 35t-35 51.5t-13 62.5
t13 62.5t35 52t51.5 36t62.5 13.5t62.5 -13.5t51.5 -36t35 -52t13 -62.5zM422 139q0 -33 -13 -62.5t-35 -51.5t-51.5 -35t-62.5 -13t-62.5 13t-51.5 35t-35 51.5t-13 62.5t13 62.5t35 52t51.5 36t62.5 13.5t62.5 -13.5t51.5 -36t35 -52t13 -62.5z" />
    <glyph glyph-name="perthousand" unicode="&#x2030;" horiz-adv-x="2810" 
d="M666 0h-207l878 1434h207zM1903 424q0 -98 -26.5 -180t-73.5 -141t-113 -92.5t-144 -33.5t-142.5 32.5t-110.5 91.5t-71.5 140t-25.5 179q0 99 25.5 181.5t72 141.5t111.5 92t145 33q81 0 146.5 -33t111.5 -91.5t70.5 -140.5t24.5 -179zM1718 420q0 61 -11 111t-33 85.5
t-53.5 54.5t-72.5 19q-81 0 -124.5 -71.5t-43.5 -194.5q0 -62 11.5 -111.5t33 -85t53 -54.5t72.5 -19t72.5 20.5t52.5 56.5t32 84.5t11 104.5zM2730 424q0 -98 -26 -180t-73.5 -141t-113 -92.5t-143.5 -33.5t-143 32.5t-111 91.5t-71.5 140t-25.5 179q0 99 25.5 181.5
t72 141.5t112 92t145.5 33q81 0 146.5 -33t111 -91.5t70 -140.5t24.5 -179zM2546 420q0 61 -11.5 111t-33 85.5t-53.5 54.5t-72 19q-82 0 -125 -71.5t-43 -194.5q0 -62 11 -111.5t33 -85t53.5 -54.5t72.5 -19q40 0 71.5 20.5t53 56.5t32.5 84.5t11 104.5zM809 1012
q0 -98 -26 -180t-73.5 -141t-113 -92.5t-143.5 -33.5t-143 32.5t-111 91.5t-71.5 140t-25.5 179q0 99 25.5 181.5t72 141.5t112 92t145.5 33q81 0 146.5 -33t111 -91.5t70 -140.5t24.5 -179zM625 1008q0 61 -11.5 111t-33 85t-53.5 54.5t-72 19.5q-82 0 -125 -71.5
t-43 -194.5q0 -62 11 -112t33 -85t53.5 -54.5t72.5 -19.5q40 0 71.5 20.5t53 56.5t32.5 85t11 105z" />
    <glyph glyph-name="guilsinglleft" unicode="&#x2039;" horiz-adv-x="750" 
d="M440 0l-379 537l379 538h228l-369 -536l369 -539h-228z" />
    <glyph glyph-name="guilsinglright" unicode="&#x203a;" horiz-adv-x="750" 
d="M309 0h-227l369 537l-369 538h227l379 -536z" />
    <glyph glyph-name="fraction" unicode="&#x2044;" horiz-adv-x="969" 
d="M123 0h-238l961 1434h237z" />
    <glyph glyph-name="fraction" unicode="&#x2215;" horiz-adv-x="969" 
d="M123 0h-238l961 1434h237z" />
    <glyph glyph-name="Euro" unicode="&#x20ac;" 
d="M723 -23q-102 0 -185.5 34.5t-146.5 101.5t-104.5 163.5t-59.5 221.5h-149v147h133q-1 54 -1 77.5t1 76.5h-133v145h149q44 252 173.5 382t328.5 130q83 0 146 -18t112.5 -53t88 -87.5t73.5 -121.5l-176 -93q-26 54 -50.5 90.5t-53 58t-63 31t-81.5 9.5q-51 0 -97 -18
t-83.5 -57t-64.5 -101.5t-42 -151.5h432v-145h-446q-2 -20 -2 -40v-40v-38.5t2 -35.5h446v-147h-432q15 -105 47.5 -170.5t73 -102t85 -50t85.5 -13.5q47 0 82.5 11.5t65.5 34.5t56.5 59t55.5 85l164 -96q-36 -62 -76.5 -113t-91.5 -88t-115 -57.5t-147 -20.5z" />
    <glyph glyph-name="litre" unicode="&#x2113;" horiz-adv-x="1106" 
d="M855 230l73 -122q-24 -22 -56 -46t-71.5 -45t-86.5 -34.5t-100 -13.5q-71 0 -124 23t-88.5 66.5t-54 108.5t-18.5 139v169l-124 -122l-72 108l196 192v427q0 198 80.5 304.5t220.5 106.5q65 0 109 -22.5t71 -57.5t39 -78t12 -82q0 -74 -18 -142t-50.5 -132t-78 -126
t-100.5 -125l-78 -88v-309q0 -98 35.5 -147t102.5 -49q28 0 55 9.5t50 24t42.5 31.5t33.5 32zM718 1221q0 46 -19 75.5t-57 29.5q-53 0 -79.5 -52.5t-26.5 -156.5v-292l48 60q27 35 52 78t43.5 88t28.5 89t10 81z" />
    <glyph glyph-name="afii61352" unicode="&#x2116;" horiz-adv-x="2339" 
d="M2157 1079q0 -75 -27 -139t-74.5 -111t-112.5 -73.5t-141 -26.5q-75 0 -139.5 26.5t-111.5 73.5t-74 111t-27 139q0 76 27 141t74 112.5t111.5 74.5t139.5 27q76 0 141 -27t112.5 -74.5t74.5 -112.5t27 -141zM1972 1081q0 39 -13 71t-36 55t-54 35.5t-67 12.5
q-35 0 -66 -12.5t-53.5 -35.5t-35.5 -55t-13 -71q0 -38 13 -70t35.5 -55t53.5 -36t66 -13q36 0 67 13t54 36t36 55t13 70zM1450 397v178h707v-178h-707zM1276 0h-205l-676 1062v-1062h-209v1434h220l661 -1062v1062h209v-1434z" />
    <glyph glyph-name="trademark" unicode="&#x2122;" horiz-adv-x="1577" 
d="M406 1298v-671h-138v671h-229v136h596v-136h-229zM1360 627v512l-234 -537l-227 538v-513h-131v807h137l225 -519l222 519h139v-807h-131z" />
    <glyph glyph-name="Omega" unicode="&#x2126;" horiz-adv-x="1499" 
d="M344 774q0 -93 19.5 -169t56.5 -142.5t91.5 -128.5t125.5 -127v-207h-496v209h242q-71 56 -120.5 122t-80 137.5t-44 146t-13.5 147.5q1 143 43 266t121.5 219t196 152.5t264.5 56.5q150 0 266 -56.5t195.5 -152.5t121 -222t41.5 -265q0 -70 -13.5 -144t-44 -146
t-79.5 -138.5t-121 -122.5h244v-209h-500v207q72 65 127 127t92.5 128.5t56.5 142.5t19 169q0 107 -32 193.5t-87.5 148t-130.5 94.5t-162 33q-86 0 -159 -33t-126.5 -94.5t-83.5 -148t-30 -193.5z" />
    <glyph glyph-name="estimated" unicode="&#x212e;" horiz-adv-x="1427" 
d="M356 651v-450q73 -72 161.5 -109t195.5 -37q91 0 163 22.5t130 62t104.5 94t87.5 118.5l76 -47q-48 -73 -102 -133.5t-120.5 -104t-149.5 -68t-189 -24.5q-145 0 -262.5 54t-200 146.5t-127.5 215.5t-45 262q0 141 44 264.5t126.5 215.5t201.5 145t269 53t268 -54
t200 -146.5t126.5 -216t46.5 -263.5h-1004zM1075 1106q-33 31 -74 58t-87 46t-96 30t-101 11q-105 0 -197 -36.5t-164 -108.5v-373h719v373z" />
    <glyph glyph-name="down.arrow" unicode="&#x2193;" horiz-adv-x="840" 
d="M711 420q5 -6 4 -17.5t-10 -25.5l-285 -408l-287 408q-8 14 -8.5 25.5t4.5 17.5q9 14 21 19t30 -1l137 -43v1039h205v-1037l140 41q17 6 28 1t21 -19z" />
    <glyph glyph-name="leftright.arrow" unicode="&#x2194;" horiz-adv-x="1638" 
d="M1190 422q-14 -8 -25.5 -8.5t-17.5 4.5q-14 9 -19.5 20.5t0.5 30.5l43 137h-704l43 -137q6 -19 1 -30.5t-19 -20.5q-7 -5 -19.5 -4.5t-26.5 8.5l-405 287l408 284q14 10 25 10.5t18 -4.5q14 -9 19 -20.5t-1 -28.5l-43 -139h704l-43 139q-6 17 -0.5 28.5t19.5 20.5
q6 5 17.5 4.5t25.5 -10.5l407 -284z" />
    <glyph glyph-name="partialdiff" unicode="&#x2202;" horiz-adv-x="1167" 
d="M356 1282v174q88 -5 161 -24.5t143.5 -55.5t138 -96t118.5 -140.5t83.5 -170.5t47.5 -185t15 -188q0 -166 -37 -283.5t-102 -192t-154 -109t-192 -34.5q-102 0 -188.5 35.5t-150 101.5t-99.5 160.5t-36 212.5q0 124 35.5 216t96 153.5t139.5 92t166 30.5q93 0 176 -33
t139 -102q-22 93 -66.5 173t-113.5 137t-150.5 90t-169.5 38zM850 487q0 78 -21 136.5t-57.5 97.5t-87 58.5t-109.5 19.5q-54 0 -101.5 -19.5t-82 -58t-54.5 -95.5t-20 -132q0 -73 19.5 -131.5t55 -99.5t85 -63t109.5 -22t108.5 23.5t83 65t53.5 98t19 122.5z" />
    <glyph glyph-name="Delta" unicode="&#x2206;" horiz-adv-x="1491" 
d="M84 0l545 1434h227l551 -1434h-1323zM741 1176l-356 -967h713z" />
    <glyph glyph-name="product" unicode="&#x220f;" horiz-adv-x="1423" 
d="M1022 -300v1521h-621v-1521h-215v1734h1051v-1734h-215z" />
    <glyph glyph-name="summation" unicode="&#x2211;" horiz-adv-x="1327" 
d="M415 1235l441 -627l-482 -699h838v-209h-1089v209l469 686l-442 630v209h1048v-199h-783z" />
    <glyph glyph-name="minus" unicode="&#x2212;" 
d="M1137 803v-197h-1004v197h1004z" />
    <glyph glyph-name="radical" unicode="&#x221a;" horiz-adv-x="1264" 
d="M635 0h-223l-334 696h244l199 -447l433 1185h236z" />
    <glyph glyph-name="infinity" unicode="&#x221e;" horiz-adv-x="1911" 
d="M639 1188q98 0 181.5 -36t140.5 -108q57 74 139.5 109t179.5 35q85 0 158.5 -31t127.5 -89t84.5 -141t30.5 -188q0 -104 -31.5 -189.5t-87 -146.5t-130 -94t-160.5 -33q-99 0 -181.5 38t-139.5 113q-57 -77 -140 -114t-180 -37q-84 0 -157 32.5t-127 92t-85 144
t-31 188.5q0 105 31.5 189t86.5 143t129.5 91t160.5 32zM860 735q0 69 -17.5 120t-47 85t-68 51t-80.5 17t-79.5 -14.5t-67.5 -50t-45 -87.5t-15 -121q0 -75 14.5 -125.5t41.5 -85.5t66.5 -51t82.5 -16q39 0 75 13t66 40t49 62t29 83q-4 46 -4 80zM1055 739q0 -69 17 -121.5
t46 -88.5t67.5 -54t80.5 -18q51 0 89 18t66 55t40 80t12 125q0 72 -15 122.5t-45 86t-69.5 50t-83.5 14.5q-38 0 -72 -11.5t-61.5 -34t-47.5 -56.5t-30 -79q3 -22 4.5 -44t1.5 -44z" />
    <glyph glyph-name="integral" unicode="&#x222b;" horiz-adv-x="834" 
d="M469 -124q0 -76 -21.5 -128t-60 -83.5t-92.5 -45t-119 -13.5q-105 2 -180 20v185q37 -11 72.5 -16t70.5 -5q63 0 91 22t28 83v1291q0 76 21.5 128t60 83.5t92.5 45t119 13.5q105 -2 180 -20v-185q-37 11 -72.5 16t-70.5 5q-63 0 -91 -22t-28 -83v-1291z" />
    <glyph glyph-name="approxequal" unicode="&#x2248;" 
d="M811 770q-62 0 -108.5 19.5t-85 43t-71.5 43t-69 19.5q-38 0 -63 -28t-25 -91h-204q0 74 19 134.5t54 103.5t85 66.5t112 23.5q64 0 110.5 -19.5t83.5 -43t70 -43t72 -19.5q38 0 62 28t24 91h207q0 -78 -20 -139t-56.5 -103t-86.5 -64t-110 -22zM811 303
q-62 0 -108.5 19.5t-85 43t-71.5 43t-69 19.5q-38 0 -63 -28t-25 -91h-204q0 74 19 134.5t54 103.5t85 66.5t112 23.5q64 0 110.5 -19.5t83.5 -43t70 -43t72 -19.5q38 0 62 28t24 91h207q0 -78 -20 -139t-56.5 -103t-86.5 -64t-110 -22z" />
    <glyph glyph-name="notequal" unicode="&#x2260;" 
d="M865 1042h213v-204h-287l-94 -267h381v-204h-453l-94 -267h-211l94 267h-223v204h295l94 267h-389v204h463l90 256h211z" />
    <glyph glyph-name="lessequal" unicode="&#x2264;" 
d="M337 717v180l596 416v-266l-377 -238l377 -240v-268zM337 59v189h596v-189h-596z" />
    <glyph glyph-name="greaterequal" unicode="&#x2265;" 
d="M337 301v268l377 240l-377 238v266l596 -416v-180zM337 59v189h596v-189h-596z" />
    <glyph glyph-name="lozenge" unicode="&#x25ca;" horiz-adv-x="1126" 
d="M563 1077l-276 -434l276 -432l277 432zM1067 641l-403 -641h-199l-406 641l404 641h199z" />
    <glyph glyph-name="apple" unicode="&#xf8ff;" horiz-adv-x="1638" 
d="M1253 446q-31 -19 -63 0q-34 27 -19 70l41 92h-288v-254l98 39q44 16 68 -22q15 -27 -7 -58l-264 -344l-270 344q-19 30 -4 58q23 38 71 22l95 -39v254h-285l41 -94q17 -43 -15 -66q-34 -22 -65 -2l-346 271l346 264q34 22 63 1q31 -22 17 -62l-41 -99h285v258l-95 -39
q-44 -17 -71 23q-16 29 4 57l270 344l264 -344q20 -30 7 -57q-23 -39 -68 -23l-98 39v-258h288l-41 99q-14 47 25 67q25 13 57 -6l344 -264z" />
    <glyph glyph-name="DEL" horiz-adv-x="0" 
 />
    <glyph glyph-name="four.superior" horiz-adv-x="868" 
d="M519 726h-465v129l463 583h168v-559h117v-155h-117v-195h-166v197zM519 879v323l-254 -323h254z" />
    <glyph glyph-name="quotedbl.lfprop" horiz-adv-x="1004" 
d="M805 764h-154l-51 670h256zM352 764h-153l-52 670h256z" />
    <glyph glyph-name="numbersign.lfprop" horiz-adv-x="1434" 
d="M1085 328v-328h-200v328h-336v-328h-201v328h-246v194h246v389h-246v195h246v328h201v-328h336v328h200v-328h246v-195h-246v-389h246v-194h-246zM885 911h-336v-389h336v389z" />
    <glyph glyph-name="dollar.lfprop" horiz-adv-x="1262" 
d="M1135 422q0 -177 -102 -284.5t-304 -133.5v-209h-215v209q-122 15 -235.5 75.5t-184.5 151.5l164 140q78 -85 169 -125.5t194 -40.5q153 0 223.5 49.5t70.5 144.5q0 42 -16 74t-53.5 58.5t-98.5 50.5t-151 51q-114 34 -198.5 68t-140 80t-83 109.5t-27.5 156.5
q0 80 28 145t77 113t116.5 79t145.5 43v211h215v-211q108 -17 196.5 -65t164.5 -123l-150 -152q-38 33 -74 59.5t-76 45t-85.5 28t-100.5 9.5q-62 0 -107 -12t-74 -34t-42.5 -52t-13.5 -66q0 -37 13 -65t47 -53t94 -49t155 -52q108 -33 193.5 -67t144.5 -80.5t90 -113
t31 -163.5z" />
    <glyph glyph-name="percent.lfprop" horiz-adv-x="2005" 
d="M809 1012q0 -98 -26 -180t-73.5 -141t-113 -92.5t-143.5 -33.5t-143 32.5t-111 91.5t-71.5 140t-25.5 179q0 99 25.5 181.5t72 141.5t112 92t145.5 33q81 0 146.5 -33t111 -91.5t70 -140.5t24.5 -179zM666 0h-207l878 1434h207zM1903 424q0 -98 -26.5 -180t-73.5 -141
t-113 -92.5t-144 -33.5t-142.5 32.5t-110.5 91.5t-71.5 140t-25.5 179q0 99 25.5 181.5t72 141.5t111.5 92t145 33q81 0 146.5 -33t111.5 -91.5t70.5 -140.5t24.5 -179zM625 1008q0 61 -11.5 111t-33 85t-53.5 54.5t-72 19.5q-82 0 -125 -71.5t-43 -194.5q0 -62 11 -112
t33 -85t53.5 -54.5t72.5 -19.5q40 0 71.5 20.5t53 56.5t32.5 85t11 105zM1718 420q0 61 -11 111t-33 85.5t-53.5 54.5t-72.5 19q-81 0 -124.5 -71.5t-43.5 -194.5q0 -62 11.5 -111.5t33 -85t53 -54.5t72.5 -19t72.5 20.5t52.5 56.5t32 84.5t11 104.5z" />
    <glyph glyph-name="quotesingle.lfprop" horiz-adv-x="551" 
d="M358 764h-165l-52 670h269z" />
    <glyph glyph-name="plus.lfprop" horiz-adv-x="1214" 
d="M713 602v-399h-211v399h-389v205h389v399h211v-399h389v-205h-389z" />
    <glyph glyph-name="zero.lfprop" horiz-adv-x="1356" 
d="M1243 719q0 -163 -36.5 -299t-108 -234.5t-177.5 -153.5t-245 -55t-244.5 54.5t-176 152t-106.5 233t-36 298.5t36.5 299t108 234t177.5 153t245 55t244.5 -54t176 -151.5t106.5 -233t36 -298.5zM1026 715q0 113 -19.5 210t-61.5 168.5t-108.5 112.5t-160.5 41
t-159.5 -40t-107 -111t-60.5 -167.5t-19 -209.5t19.5 -210.5t61.5 -169t108.5 -112.5t160.5 -41t160 40.5t107.5 111.5t60 167.5t18.5 209.5z" />
    <glyph glyph-name="one.lfprop" horiz-adv-x="700" 
d="M293 0v1098h-254v149q55 4 104 15.5t88 34t66 56t37 81.5h174v-1434h-215z" />
    <glyph glyph-name="two.lfprop" horiz-adv-x="1296" 
d="M98 0q3 148 60 291t163 242.5t182 149t146 91.5q73 43 120.5 78t75 67t38 64t10.5 70q0 92 -69 140t-206 48q-45 0 -91.5 -10t-91.5 -28.5t-86.5 -45t-76.5 -59.5l-137 164q48 45 105.5 81t120.5 61t130 38.5t134 13.5q111 0 201 -24t153.5 -72.5t98 -122t34.5 -172.5
q0 -83 -21 -145t-64.5 -114.5t-112 -101t-162.5 -104.5q-103 -61 -171.5 -110.5t-112 -94.5t-66.5 -90t-35 -96h759v-209h-1028z" />
    <glyph glyph-name="three.lfprop" horiz-adv-x="1253" 
d="M1108 426q0 -110 -36.5 -194t-106 -140.5t-169 -85.5t-225.5 -29q-76 0 -152 16.5t-144 47.5t-125 75t-95 99l164 139q64 -77 155 -120.5t197 -43.5q164 0 239 58t75 178q0 55 -19.5 95.5t-54.5 67t-82.5 39.5t-103.5 13h-133v209h131q50 0 87.5 15.5t63 42t38.5 62.5
t13 77q0 30 -12.5 64.5t-43.5 64t-83 48.5t-131 19q-85 0 -154 -35t-129 -98l-159 152q91 94 200.5 144t245.5 50q101 0 190.5 -25.5t156 -75t105 -122t38.5 -166.5q0 -65 -13.5 -114t-37 -86.5t-55.5 -64.5t-69 -48q51 -15 94 -43t74 -69t48.5 -95t17.5 -121z" />
    <glyph glyph-name="four.lfprop" horiz-adv-x="1366" 
d="M1260 322h-191v-322h-209v315h-776v205l739 914h246v-922h191v-190zM860 512v663l-527 -663h527z" />
    <glyph glyph-name="five.lfprop" horiz-adv-x="1303" 
d="M1176 487q0 -131 -42 -227t-117 -159t-179 -93.5t-228 -30.5q-137 0 -260.5 33.5t-238.5 108.5l104 178q96 -54 202.5 -82.5t198.5 -28.5q169 0 254.5 77t85.5 214q0 64 -20.5 112t-58 80t-91 48t-120.5 16q-91 0 -156 -24t-121 -66l-229 90l49 701h881v-205h-689
l-28 -363q60 34 136 54t173 20q123 0 215.5 -34t154.5 -94.5t93 -143.5t31 -181z" />
    <glyph glyph-name="six.lfprop" horiz-adv-x="1303" 
d="M1212 455q0 -118 -43 -207.5t-119 -149.5t-178.5 -90.5t-220.5 -30.5q-113 0 -211 32.5t-171 101.5t-114.5 177.5t-41.5 260.5q0 94 18.5 196t60.5 201t110 189.5t167 160t230.5 112.5t301.5 48v-203q-247 -11 -412.5 -126t-234.5 -339q38 30 77 51.5t84 36t98 21
t118 6.5q97 0 184.5 -27t153.5 -82.5t104.5 -140t38.5 -198.5zM995 451q0 129 -86 189t-239 60q-78 0 -141 -15.5t-106.5 -47t-67 -78.5t-23.5 -110q0 -53 21 -100.5t62 -83.5t102 -57.5t142 -21.5q82 0 144.5 18.5t105 53t64.5 83.5t22 110z" />
    <glyph glyph-name="seven.lfprop" horiz-adv-x="1217" 
d="M1051 1217q-92 -102 -176.5 -230.5t-150 -281t-106.5 -329.5t-45 -376h-217q3 185 35.5 351t89.5 317t138 289t182 268h-752v209h1002v-217z" />
    <glyph glyph-name="eight.lfprop" horiz-adv-x="1372" 
d="M1249 418q0 -106 -40 -188t-114 -138.5t-178.5 -85.5t-234.5 -29t-233.5 29t-176 85.5t-111 138.5t-38.5 188q0 130 64.5 220t189.5 136q-56 23 -93 57t-59 72.5t-31.5 77t-9.5 70.5q0 103 39.5 179.5t107.5 126.5t160 74.5t197 24.5q96 0 186 -24t160 -73t112 -125
t42 -179q0 -32 -9.5 -71t-31.5 -78.5t-59.5 -74.5t-92.5 -57q134 -51 194 -143t60 -213zM971 1049q0 40 -15.5 78.5t-49.5 67.5t-89 47t-133 18t-132 -16.5t-87.5 -44.5t-48.5 -65t-15 -77q0 -43 20 -79t57 -62.5t90 -41t120 -14.5q69 0 122 15t88.5 40.5t54 60t18.5 73.5z
M1032 412q0 57 -20.5 102t-63.5 77t-108.5 49t-155.5 17q-172 0 -258 -63t-86 -172q0 -57 23 -103t67 -78t108.5 -49.5t147.5 -17.5q86 0 150.5 17.5t108 49t65.5 75t22 96.5z" />
    <glyph glyph-name="nine.lfprop" horiz-adv-x="1303" 
d="M1190 885q0 -94 -18.5 -196t-60.5 -201.5t-110.5 -189.5t-167 -159.5t-230.5 -113t-302 -48.5v203q247 11 412.5 126t234.5 339q-38 -30 -77 -51.5t-84 -36t-98 -21t-118 -6.5q-98 0 -185 27.5t-153 83t-104.5 140t-38.5 198.5q0 117 43.5 206.5t119 149.5t178 90.5
t220.5 30.5q113 0 211.5 -32.5t171 -101.5t114.5 -177t42 -260zM971 985q0 52 -21 99.5t-62.5 83.5t-102.5 57.5t-142 21.5t-144 -18.5t-105.5 -53t-64.5 -83t-22 -109.5q0 -129 86 -189.5t240 -60.5q78 0 141 15.5t106.5 47t67 79t23.5 110.5z" />
    <glyph glyph-name="less.lfprop" horiz-adv-x="848" 
d="M117 614v181l596 518v-266l-398 -340l398 -342v-269z" />
    <glyph glyph-name="equal.lfprop" horiz-adv-x="1214" 
d="M164 838v204h887v-204h-887zM164 367v204h887v-204h-887z" />
    <glyph glyph-name="greater.lfprop" horiz-adv-x="848" 
d="M135 96v266l397 340l-397 342v269l596 -518v-181z" />
    <glyph glyph-name="degree.lfprop" horiz-adv-x="995" 
d="M903 1053q0 -87 -31 -161.5t-85.5 -129.5t-128.5 -86t-160 -31t-160 31t-128.5 86t-86 129.5t-31.5 161.5q0 84 31.5 157.5t86 128t128.5 86t160 31.5t160 -31.5t128.5 -86t85.5 -128t31 -157.5zM719 1053q0 45 -17 85.5t-46.5 70.5t-70 47.5t-87.5 17.5
q-46 0 -86.5 -17.5t-70.5 -47.5t-47.5 -70.5t-17.5 -85.5q0 -48 17.5 -89t47.5 -71.5t70.5 -48t86.5 -17.5q47 0 87.5 17.5t70 48t46.5 71.5t17 89z" />
    <glyph glyph-name="cent.lfprop" horiz-adv-x="1069" 
d="M954 371q-63 -81 -131.5 -128t-148.5 -63v-203h-215v207q-78 20 -143 67t-112 117t-73.5 160.5t-26.5 198.5q0 113 26.5 205.5t74 162t112.5 115.5t142 66v180h215v-174q85 -17 154.5 -61t127.5 -113l-125 -143q-66 68 -127.5 99.5t-134.5 31.5q-57 0 -103.5 -25
t-79.5 -72t-51 -114.5t-18 -151.5q0 -81 17 -149t49.5 -116.5t80.5 -75.5t111 -27q68 0 122.5 27t125.5 102z" />
    <glyph glyph-name="sterling.lfprop" horiz-adv-x="1305" 
d="M1077 1100q-71 69 -165.5 106t-194.5 37q-75 0 -126 -13t-82 -36t-44.5 -54t-13.5 -67q0 -43 18 -90.5t41 -93.5q14 -29 28 -60t23 -65h324v-191h-307q-5 -54 -17 -102t-32.5 -93t-49 -89t-65.5 -90h770v-199h-1008v209q45 46 78.5 87.5t57 84t37 89t18.5 103.5h-191v191
h160q-9 23 -20 47t-23 49q-28 53 -47 109t-19 110q0 91 35 161.5t99.5 118.5t155.5 72.5t204 24.5q145 0 265.5 -49t225.5 -145z" />
    </font>
</defs>
</svg>
